osu file format v14

[General]
AudioFilename: genesis.mp3
AudioLeadIn: 0
PreviewTime: 42390
Countdown: 0
SampleSet: Soft
StackLeniency: 0.7
Mode: 2
LetterboxInBreaks: 0
WidescreenStoryboard: 0

[Editor]
DistanceSpacing: 1.6
BeatDivisor: 4
GridSize: 4
TimelineZoom: 1

[Metadata]
Title:GENESIS (TV size)
TitleUnicode:GENESIS(TV size)
Artist:Aoi Eir
ArtistUnicode:藍井エイル
Creator:Xinely
Version:Salad
Source:アルドノア・ゼロ
Tags:Aldnoah Zero Aldnoah.Zero season 2 ending
BeatmapID:652371
BeatmapSetID:289391

[Difficulty]
HPDrainRate:4
CircleSize:3
OverallDifficulty:6.5
ApproachRate:6.5
SliderMultiplier:1.4
SliderTickRate:1

[Events]
//Background and Video events
0,0,"aldnoah.jpg",0,0
//Break Periods
//Storyboard Layer 0 (Background)
//Storyboard Layer 1 (Fail)
//Storyboard Layer 2 (Pass)
//Storyboard Layer 3 (Foreground)
//Storyboard Sound Samples

[TimingPoints]
506,461.538461538462,4,2,0,50,1,0
4198,-100,4,2,1,70,0,0
11582,-100,4,2,0,60,0,0
25198,-100,4,2,1,70,0,0
26813,-100,4,2,0,70,0,0
27736,-100,4,2,1,70,0,0
28659,-100,4,2,0,70,0,0
29582,-100,4,2,1,70,0,0
30506,-100,4,2,0,70,0,0
30852,-100,4,2,1,70,0,0
32813,-100,4,2,0,70,0,0
33044,-100,4,2,1,70,0,0
34659,-100,4,2,0,70,0,0
34890,-100,4,2,1,70,0,0
36506,-100,4,2,0,70,0,0
36736,-100,4,2,1,70,0,0
42967,-100,4,2,1,90,0,1
78736,-100,4,3,0,80,0,1
79890,-100,4,2,1,80,0,0
89352,-100,4,2,0,5,0,0

[Colours]
Combo1 : 196,98,0
Combo2 : 128,64,64
Combo3 : 0,0,191
Combo4 : 191,191,0

[HitObjects]
56,276,506,6,0,P|144:224|268:268,1,210,2|2,0:0|0:0,0:0:0:0:
440,248,1659,1,0,0:0:0:0:
224,180,2121,1,0,0:0:0:0:
356,196,2352,6,0,L|204:200,1,140,2|2,0:0|0:0,0:0:0:0:
24,248,3506,1,2,0:0:0:0:
124,252,3736,2,0,L|194:252,1,70,2|2,0:0|0:0,0:0:0:0:
396,260,4198,6,0,L|504:272,2,105,4|2|2,0:0|0:0|0:0,0:0:0:0:
272,296,5121,1,2,0:0:0:0:
476,344,5582,1,8,0:0:0:0:
352,352,5813,1,0,0:0:0:0:
224,332,6044,6,0,L|88:348,2,105,4|2|2,0:0|0:0|0:0,0:0:0:0:
336,328,6967,2,0,P|392:352|472:324,1,140,2|8,0:0|0:0,0:0:0:0:
344,252,7659,1,0,0:0:0:0:
152,212,7890,6,0,P|92:200|32:220,2,105,4|2|2,0:0|0:0|0:0,0:0:0:0:
288,264,8813,2,0,P|352:288|424:240,1,140,2|8,0:0|0:0,0:0:0:0:
116,196,9736,6,0,L|60:180,2,35,6|0|2,0:0|0:0|0:0,0:0:0:0:
208,248,10198,1,8,0:0:0:0:
296,192,10429,1,2,0:0:0:0:
200,148,10659,2,0,L|112:144,2,70,8|2|8,0:0|0:0|0:0,0:0:0:0:
296,192,11352,1,0,0:0:0:0:
456,144,11582,6,0,L|300:144,1,140,2|0,0:0|0:0,0:0:0:0:
168,232,12275,2,0,L|308:232,1,140,2|0,0:0|0:0,0:0:0:0:
480,228,13198,1,2,0:0:0:0:
368,236,13429,6,0,L|256:112,2,140,2|2|0,0:0|0:0|0:0,0:0:0:0:
236,312,14582,1,2,0:0:0:0:
128,224,14813,2,0,L|197:217,1,70,0|0,0:0|0:0,0:0:0:0:
308,208,15275,6,0,L|464:260,1,140,2|0,0:0|0:0,0:0:0:0:
340,316,15967,2,0,L|208:272,1,140,2|0,0:0|0:0,0:0:0:0:
108,256,16659,2,0,L|12:264,1,70,2|0,0:0|0:0,0:0:0:0:
204,192,17121,6,0,P|284:176|348:220,1,140,2|0,0:0|0:0,0:0:0:0:
408,280,17813,1,2,0:0:0:0:
308,344,18044,1,0,0:0:0:0:
396,360,18275,1,0,0:0:0:0:
480,352,18506,1,2,0:0:0:0:
408,280,18736,1,0,0:0:0:0:
208,232,18967,6,0,P|143:208|76:224,1,140,2|0,0:0|0:0,0:0:0:0:
204,324,19659,2,0,P|266:352|333:337,1,140,2|0,0:0|0:0,0:0:0:0:
412,260,20352,2,0,L|492:276,1,70,2|0,0:0|0:0,0:0:0:0:
372,172,20813,6,0,L|232:156,2,140,2|2|0,0:0|0:0|0:0,0:0:0:0:
240,272,21967,1,0,0:0:0:0:
140,248,22198,1,2,0:0:0:0:
240,272,22429,1,0,0:0:0:0:
360,168,22659,6,0,P|457:142|488:244,2,210,2|2|0,0:0|0:0|0:0,0:0:0:0:
276,252,24275,1,0,0:0:0:0:
184,316,24506,6,0,P|90:352|60:260,1,210,2|2,0:0|0:0,0:0:0:0:
128,168,25429,2,0,L|80:144,1,35,2|2,0:0|0:0,0:0:0:0:
216,168,25775,2,0,L|256:136,1,35,2|8,0:0|0:0,0:0:0:0:
340,232,26121,1,0,0:0:0:0:
116,152,26352,5,4,0:0:0:0:
240,164,26813,2,0,L|274:168,2,35,2|0|0,0:0|0:0|0:0,0:0:0:0:
336,276,27275,2,0,L|406:276,1,70,0|2,0:0|0:0,0:0:0:0:
236,344,27736,1,8,0:0:0:0:
360,348,27967,1,0,0:0:0:0:
484,256,28198,6,0,L|336:256,1,140,2|2,0:0|0:0,0:0:0:0:
200,280,28890,1,0,0:0:0:0:
64,200,29121,2,0,L|208:188,1,140,0|8,0:0|0:0,0:0:0:0:
396,196,30044,5,2,0:0:0:0:
248,328,30506,2,0,P|180:348|120:308,1,140,2|0,0:0|0:0,0:0:0:0:
328,244,31429,1,8,0:0:0:0:
212,224,31659,1,0,0:0:0:0:
96,240,31890,6,0,L|240:228,1,140,2|0,0:0|0:0,0:0:0:0:
368,216,32582,1,2,0:0:0:0:
496,136,32813,2,0,L|340:168,1,140,2|8,0:0|0:0,0:0:0:0:
260,176,33506,1,2,0:0:0:0:
60,196,33736,6,0,P|8:244|8:304,2,105,4|8|2,0:0|0:0|0:0,0:0:0:0:
200,208,34659,2,0,L|364:196,1,140,2|8,0:0|0:0,0:0:0:0:
120,320,35582,6,0,L|8:300,2,105,2|8|2,0:0|0:0|0:0,0:0:0:0:
232,324,36506,2,0,L|376:336,1,140,2|8,0:0|0:0,0:0:0:0:
468,276,37198,1,0,0:0:0:0:
252,240,37429,6,0,L|116:275,1,140,4|8,0:0|0:0,0:0:0:0:
296,124,38352,2,0,L|464:144,1,140,2|8,0:0|0:0,0:0:0:0:
492,240,39044,1,0,0:0:0:0:
280,260,39275,6,0,L|175:272,2,105,4|8|8,0:0|0:0|0:0,0:0:0:0:
420,252,40198,2,0,L|456:252,2,35,2|0|0,0:0|0:0|0:0,0:0:0:0:
328,168,40659,2,0,L|240:168,1,70,8|0,0:0|0:0,0:0:0:0:
36,172,41121,1,4,0:0:0:0:
256,192,41352,12,4,42159,0:0:0:0:
320,268,42967,6,0,L|444:260,2,105,4|2|2,0:0|0:0|0:0,0:0:0:0:
200,264,43890,2,0,L|56:176,1,140,2|8,0:0|0:0,0:0:0:0:
152,104,44582,1,0,0:0:0:0:
376,140,44813,6,0,L|492:132,2,105,4|2|2,0:0|0:0|0:0,0:0:0:0:
208,156,45736,2,0,P|112:184|76:164,1,140,2|8,0:0|0:0,0:0:0:0:
440,272,46659,6,0,L|556:268,2,105,4|2|2,0:0|0:0|0:0,0:0:0:0:
332,300,47582,2,0,L|212:304,2,105,2|0|0,0:0|0:0|0:0,0:0:0:0:
128,204,48506,6,0,P|52:224|-16:176,1,140,4|0,0:0|0:0,0:0:0:0:
100,128,49198,1,2,0:0:0:0:
204,144,49429,2,0,L|352:132,1,140,2|8,0:0|0:0,0:0:0:0:
448,156,50121,1,0,0:0:0:0:
220,256,50352,6,0,L|80:260,2,140,4|8|2,0:0|0:0|0:0,0:0:0:0:
468,276,51736,1,8,0:0:0:0:
240,164,52198,6,0,P|168:140|96:172,1,140,2|8,0:0|0:0,0:0:0:0:
28,236,52890,1,0,0:0:0:0:
120,300,53121,2,0,P|200:312|248:272,1,140,2|8,0:0|0:0,0:0:0:0:
364,284,53813,1,0,0:0:0:0:
140,208,54044,6,0,L|-12:192,1,140,4|8,0:0|0:0,0:0:0:0:
212,117,54967,2,0,L|352:132,1,140,2|8,0:0|0:0,0:0:0:0:
112,268,55890,5,4,0:0:0:0:
312,208,56236,1,8,0:0:0:0:
88,184,56582,1,8,0:0:0:0:
288,288,56813,2,0,P|352:308|432:276,1,140,4|10,0:0|0:0,0:0:0:0:
492,208,57506,1,2,0:0:0:0:
248,176,57736,6,0,L|160:120,2,105,4|2|2,0:0|0:0|0:0,0:0:0:0:
360,172,58659,2,0,L|504:188,1,140,2|8,0:0|0:0,0:0:0:0:
400,264,59352,1,0,0:0:0:0:
296,300,59582,6,0,L|192:281,2,105,4|2|2,0:0|0:0|0:0,0:0:0:0:
392,216,60506,2,0,L|253:197,1,140,2|8,0:0|0:0,0:0:0:0:
8,104,61429,6,0,L|113:104,2,105,4|2|0,0:0|0:0|0:0,0:0:0:0:
136,200,62352,2,0,L|280:184,1,140,2|8,0:0|0:0,0:0:0:0:
388,184,63044,1,0,0:0:0:0:
256,264,63275,6,0,P|180:248|132:188,1,140,2|8,0:0|0:0,0:0:0:0:
376,268,64198,2,0,P|436:272|496:220,1,140,2|8,0:0|0:0,0:0:0:0:
400,160,64890,1,0,0:0:0:0:
192,244,65121,6,0,L|48:236,1,140,4|8,0:0|0:0,0:0:0:0:
152,344,65813,1,0,0:0:0:0:
252,252,66044,2,0,L|390:228,1,140,2|8,0:0|0:0,0:0:0:0:
488,284,66736,1,0,0:0:0:0:
272,328,66967,6,0,L|160:312,2,105,4|2|0,0:0|0:0|0:0,0:0:0:0:
408,232,67890,2,0,L|268:220,1,140,2|8,0:0|0:0,0:0:0:0:
160,232,68582,1,2,0:0:0:0:
52,188,68813,5,4,0:0:0:0:
268,136,69275,1,8,0:0:0:0:
468,240,69736,1,2,0:0:0:0:
260,336,70198,1,8,0:0:0:0:
32,260,70659,6,0,L|176:280,1,140,4|8,0:0|0:0,0:0:0:0:
392,256,71582,2,0,L|520:268,2,105,4|8|8,0:0|0:0|0:0,0:0:0:0:
188,240,72506,6,0,L|36:240,1,140,4|8,0:0|0:0,0:0:0:0:
244,112,73429,2,0,L|404:104,1,140,2|8,0:0|0:0,0:0:0:0:
480,164,74121,1,0,0:0:0:0:
384,220,74352,5,4,0:0:0:0:
120,260,75275,2,0,L|8:300,2,105,4|4|4,0:0|0:0|0:0,0:0:0:0:
256,192,76198,12,0,78044,0:0:0:0:
76,312,78967,5,0,0:0:0:0:
248,168,79429,2,0,L|160:168,1,70
360,232,79890,6,0,L|465:226,2,105,4|2|2,0:0|0:0|0:0,0:0:0:0:
236,248,80813,1,2,0:0:0:0:
420,128,81274,1,8,0:0:0:0:
488,200,81505,1,0,0:0:0:0:
280,184,81736,6,0,L|144:200,2,105,4|2|2,0:0|0:0|0:0,0:0:0:0:
388,208,82659,2,0,P|444:212|524:136,1,140,2|8,0:0|0:0,0:0:0:0:
384,96,83351,1,0,0:0:0:0:
192,196,83582,6,0,P|132:208|72:188,2,105,4|2|2,0:0|0:0|0:0,0:0:0:0:
312,144,84505,2,0,P|376:168|448:120,1,140,2|8,0:0|0:0,0:0:0:0:
192,232,85428,6,0,L|136:216,2,35,4|0|2,0:0|0:0|0:0,0:0:0:0:
296,304,85890,1,8,0:0:0:0:
396,232,86121,1,2,0:0:0:0:
256,200,86351,2,0,L|168:196,2,70,8|2|8,0:0|0:0|0:0,0:0:0:0:
396,232,87044,1,2,0:0:0:0:
160,260,87275,1,4,0:0:0:0:
256,192,87506,12,0,89352,0:0:0:0:
