osu file format v14

[General]
AudioFilename: genesis.mp3
AudioLeadIn: 0
PreviewTime: 42390
Countdown: 0
SampleSet: Soft
StackLeniency: 0.7
Mode: 2
LetterboxInBreaks: 0
WidescreenStoryboard: 1

[Editor]
DistanceSpacing: 1
BeatDivisor: 4
GridSize: 4
TimelineZoom: 1

[Metadata]
Title:GENESIS (TV size)
TitleUnicode:GENESIS(TV size)
Artist:Aoi Eir
ArtistUnicode:藍井エイル
Creator:Xinely
Version:Rain
Source:アルドノア・ゼロ
Tags:Aldnoah Zero Aldnoah.Zero season 2 ending
BeatmapID:652370
BeatmapSetID:289391

[Difficulty]
HPDrainRate:6
CircleSize:4
OverallDifficulty:9
ApproachRate:9
SliderMultiplier:1.8
SliderTickRate:1

[Events]
//Background and Video events
0,0,"aldnoah.jpg",0,0
//Break Periods
//Storyboard Layer 0 (Background)
//Storyboard Layer 1 (Fail)
//Storyboard Layer 2 (Pass)
//Storyboard Layer 3 (Foreground)
//Storyboard Sound Samples

[TimingPoints]
506,461.538461538462,4,2,0,50,1,0
4198,-100,4,2,1,70,0,0
11582,-100,4,2,0,60,0,0
25198,-100,4,2,1,70,0,0
26813,-100,4,2,0,70,0,0
27736,-100,4,2,1,70,0,0
28659,-100,4,2,0,70,0,0
28890,-100,4,2,1,70,0,0
29121,-100,4,2,0,70,0,0
29582,-100,4,2,1,70,0,0
30506,-100,4,2,0,70,0,0
30736,-100,4,2,1,70,0,0
30852,-100,4,2,0,70,0,0
30967,-100,4,2,1,70,0,0
32813,-100,4,2,0,70,0,0
33044,-100,4,2,1,70,0,0
34659,-100,4,2,0,70,0,0
34890,-100,4,2,1,70,0,0
36506,-100,4,2,0,70,0,0
36736,-100,4,2,1,70,0,0
42967,-100,4,2,1,90,0,1
75275,-100,4,2,1,75,0,1
78736,-100,4,3,0,80,0,1
79890,-100,4,2,1,80,0,0
89352,-100,4,2,0,5,0,0

[Colours]
Combo1 : 196,98,0
Combo2 : 128,64,64
Combo3 : 0,0,191
Combo4 : 191,191,0

[HitObjects]
312,296,506,6,0,P|376:328|448:256,1,180,2|0,0:0|0:0,0:0:0:0:
264,300,1198,2,0,P|207:363|128:333,1,180,2|0,0:0|0:0,0:0:0:0:
416,124,2121,1,0,0:0:0:0:
224,152,2352,6,0,L|8:184,1,180,2|2,0:0|0:0,0:0:0:0:
496,328,3506,2,0,L|404:340,1,90,2|2,0:0|0:0,0:0:0:0:
360,344,3852,1,0,0:0:0:0:
316,340,3967,1,2,0:0:0:0:
276,316,4082,1,0,0:0:0:0:
92,316,4198,6,0,L|-12:328,1,90,4|0,0:0|0:0,0:0:0:0:
72,244,4544,2,2,L|161:233,1,90,2|0,0:0|0:0,0:0:0:0:
256,228,4890,1,2,0:0:0:0:
472,288,5121,2,0,L|360:296,1,90,2|0,0:0|0:0,0:0:0:0:
336,296,5467,1,2,0:0:0:0:
292,296,5582,1,8,0:0:0:0:
404,228,5813,1,0,0:0:0:0:
52,244,6044,6,0,L|136:316,1,90,4|0,0:0|0:0,0:0:0:0:
208,328,6390,2,0,P|251:319|295:330,1,90,2|0,0:0|0:0,0:0:0:0:
384,356,6736,1,2,0:0:0:0:
152,284,6967,2,0,L|184:176,1,90,2|0,0:0|0:0,0:0:0:0:
376,136,7429,2,0,L|421:136,2,45,8|0|0,0:0|0:0|0:0,0:0:0:0:
28,88,7890,6,0,P|72:76|140:96,1,90,4|0,0:0|0:0,0:0:0:0:
220,104,8236,2,0,P|296:112|356:160,1,135,2|2,0:0|0:0,0:0:0:0:
496,228,8813,1,2,0:0:0:0:
264,240,9044,2,0,L|200:232,2,45,0|0|8,0:0|0:0|0:0,0:0:0:0:
452,312,9506,1,0,0:0:0:0:
108,168,9736,6,0,L|40:168,1,45,6|0,0:0|0:0,0:0:0:0:
11,220,9967,2,0,L|56:220,1,45,2|0,0:0|0:0,0:0:0:0:
260,184,10198,2,0,L|192:184,1,45,8|0,0:0|0:0,0:0:0:0:
163,236,10429,2,0,L|208:236,1,45,2|0,0:0|0:0,0:0:0:0:
448,200,10659,6,0,L|380:200,1,45,8|0,0:0|0:0,0:0:0:0:
351,252,10890,2,0,L|396:252,1,45,2|0,0:0|0:0,0:0:0:0:
472,264,11121,1,8,0:0:0:0:
328,336,11352,1,0,0:0:0:0:
164,236,11582,6,0,P|252:200|348:240,1,180,2|0,0:0|0:0,0:0:0:0:
196,324,12275,2,0,L|12:324,2,180,2|0|2,0:0|0:0|0:0,0:0:0:0:
344,320,13429,2,0,P|424:348|488:276,1,180,2|2,0:0|0:0,0:0:0:0:
236,168,14352,1,0,0:0:0:0:
372,176,14582,2,0,L|484:164,2,90,2|0|0,0:0|0:0|0:0,0:0:0:0:
180,192,15275,6,0,L|-12:180,1,180,2|0,0:0|0:0,0:0:0:0:
224,284,15967,2,0,P|320:296|392:232,1,180,2|0,0:0|0:0,0:0:0:0:
484,160,16659,2,0,P|480:116|444:76,1,90,2|0,0:0|0:0,0:0:0:0:
276,48,17121,2,0,P|164:48|96:116,1,180,2|0,0:0|0:0,0:0:0:0:
0,184,17813,1,2,0:0:0:0:
184,232,18044,2,0,L|128:320,1,90
312,340,18506,2,0,L|360:264,1,90,2|0,0:0|0:0,0:0:0:0:
64,200,18967,6,0,P|53:283|132:312,1,180,2|0,0:0|0:0,0:0:0:0:
280,260,19659,2,0,P|356:224|444:268,1,180,2|0,0:0|0:0,0:0:0:0:
276,328,20352,1,2,0:0:0:0:
408,344,20582,1,0,0:0:0:0:
160,224,20813,2,0,P|233:175|322:181,1,180,2|0,0:0|0:0,0:0:0:0:
497,263,21506,2,0,L|408:260,1,90,2|0,0:0|0:0,0:0:0:0:
272,244,21967,1,2,0:0:0:0:
404,220,22198,1,0,0:0:0:0:
488,304,22429,1,0,0:0:0:0:
248,160,22659,6,0,B|152:156|152:156|120:248,1,180,2|0,0:0|0:0,0:0:0:0:
300,256,23352,2,0,L|392:240,1,90,2|0,0:0|0:0,0:0:0:0:
252,344,23813,2,0,L|164:320,1,90,2|0,0:0|0:0,0:0:0:0:
64,268,24275,1,0,0:0:0:0:
248,228,24506,2,0,P|330:194|416:215,1,180,2|0,0:0|0:0,0:0:0:0:
100,196,25198,6,0,L|160:96,1,90,2|0,0:0|0:0,0:0:0:0:
280,184,25544,2,0,L|220:288,1,90,2|0,0:0|0:0,0:0:0:0:
148,304,25890,1,8,0:0:0:0:
112,304,26006,1,0,0:0:0:0:
68,296,26121,1,0,0:0:0:0:
496,124,26352,6,0,P|436:112|376:124,1,90,4|0,0:0|0:0,0:0:0:0:
272,196,26813,2,0,L|144:176,1,90,2|0,0:0|0:0,0:0:0:0:
128,168,27159,1,0,0:0:0:0:
88,160,27275,1,0,0:0:0:0:
224,112,27506,1,2,0:0:0:0:
20,208,27736,1,8,0:0:0:0:
124,252,27967,1,0,0:0:0:0:
436,216,28198,6,0,L|352:249,1,90,2|0,0:0|0:0,0:0:0:0:
180,220,28659,2,0,L|264:253,1,90,2|2,0:0|0:0,0:0:0:0:
472,272,29121,2,0,L|394:317,1,90,2|0,0:0|0:0,0:0:0:0:
88,292,29582,2,0,L|170:330,1,90,8|0,0:0|0:0,0:0:0:0:
468,352,30044,6,0,P|516:284|460:204,1,180,2|2,0:0|0:0,0:0:0:0:
276,224,30736,1,2,0:0:0:0:
216,228,30852,2,0,L|84:228,1,90,2|0,0:0|0:0,0:0:0:0:
72,228,31198,1,2,0:0:0:0:
276,140,31429,1,8,0:0:0:0:
144,132,31659,1,0,0:0:0:0:
452,152,31890,6,0,L|424:248,1,90,2|0,0:0|0:0,0:0:0:0:
344,292,32236,1,2,0:0:0:0:
248,272,32352,2,0,L|200:172,1,90,0|2,0:0|0:0,0:0:0:0:
416,140,32813,2,0,L|356:224,1,90,2|2,0:0|0:0,0:0:0:0:
12,152,33275,2,0,L|100:204,1,90,8|2,0:0|0:0,0:0:0:0:
144,224,33621,1,2,0:0:0:0:
328,196,33736,6,0,P|380:176|456:212,2,135,4|8|2,0:0|0:0|0:0,0:0:0:0:
196,224,34659,1,2,0:0:0:0:
76,168,34890,2,0,L|20:168,2,45,0|0|8,0:0|0:0|0:0,0:0:0:0:
216,248,35352,1,0,0:0:0:0:
368,200,35582,6,0,L|468:188,1,90,2|0,0:0|0:0,0:0:0:0:
380,280,35929,2,0,L|268:288,1,90,8|0,0:0|0:0,0:0:0:0:
208,272,36275,1,2,0:0:0:0:
380,200,36506,1,2,0:0:0:0:
144,184,36736,2,0,L|84:176,2,45,0|0|8,0:0|0:0|0:0,0:0:0:0:
292,248,37198,2,0,L|352:240,1,45
152,332,37429,6,0,L|44:324,1,90,4|0,0:0|0:0,0:0:0:0:
4,292,37775,1,2,0:0:0:0:
96,280,37890,2,0,L|216:256,1,90,8|0,0:0|0:0,0:0:0:0:
504,184,38352,2,0,L|404:184,1,90,2|0,0:0|0:0,0:0:0:0:
320,188,38698,1,2,0:0:0:0:
232,184,38813,2,0,L|128:176,1,90,8|0,0:0|0:0,0:0:0:0:
496,244,39275,6,0,L|408:228,1,90,4|0,0:0|0:0,0:0:0:0:
304,232,39621,2,0,L|180:248,1,90,8|0,0:0|0:0,0:0:0:0:
352,296,39967,2,0,L|472:308,1,90,8|2,0:0|0:0,0:0:0:0:
496,304,40313,1,2,0:0:0:0:
512,260,40429,1,0,0:0:0:0:
496,196,40544,1,0,0:0:0:0:
460,140,40659,1,2,0:0:0:0:
412,92,40775,1,2,0:0:0:0:
356,80,40890,1,2,0:0:0:0:
288,84,41006,1,2,0:0:0:0:
220,92,41121,6,0,L|60:100,2,135,4|0|0,0:0|0:0|0:0,0:0:0:0:
484,184,42159,1,4,0:0:0:0:
180,252,42506,2,0,L|120:232,1,45
340,276,42736,2,0,L|384:252,1,45
152,328,42967,6,0,L|0:284,2,135,4|2|2,0:0|0:0|0:0,0:0:0:0:
284,356,43890,1,2,0:0:0:0:
412,312,44121,1,0,0:0:0:0:
428,248,44236,1,0,0:0:0:0:
384,196,44352,1,8,0:0:0:0:
188,204,44582,1,0,0:0:0:0:
504,188,44813,6,0,L|480:292,1,90,4|0,0:0|0:0,0:0:0:0:
404,276,45159,2,0,L|356:188,1,90,2|0,0:0|0:0,0:0:0:0:
280,200,45506,2,0,L|240:248,1,45,2|0,0:0|0:0,0:0:0:0:
36,204,45736,2,0,L|76:104,1,90,2|0,0:0|0:0,0:0:0:0:
116,72,46082,1,0,0:0:0:0:
184,68,46198,1,8,0:0:0:0:
360,84,46429,1,0,0:0:0:0:
32,152,46659,6,0,L|121:155,1,90,4|0,0:0|0:0,0:0:0:0:
305,167,47006,2,0,L|216:180,1,90,2|0,0:0|0:0,0:0:0:0:
72,240,47352,2,0,L|162:240,1,90,2|2,0:0|0:0,0:0:0:0:
356,332,47813,1,0,0:0:0:0:
308,344,47929,1,0,0:0:0:0:
272,356,48044,1,8,0:0:0:0:
84,288,48275,1,0,0:0:0:0:
388,280,48506,6,0,P|452:308|532:268,2,135,4|2|2,0:0|0:0|0:0,0:0:0:0:
224,156,49429,2,0,P|128:144|116:148,1,90,2|0,0:0|0:0,0:0:0:0:
64,176,49775,1,0,0:0:0:0:
248,248,49890,2,0,L|336:216,1,90,8|0,0:0|0:0,0:0:0:0:
404,184,50236,1,0,0:0:0:0:
152,144,50352,6,0,L|52:168,1,90,4|0,0:0|0:0,0:0:0:0:
140,232,50698,1,0,0:0:0:0:
244,140,50813,2,0,L|344:176,1,90,8|0,0:0|0:0,0:0:0:0:
388,180,51159,1,0,0:0:0:0:
432,188,51275,1,2,0:0:0:0:
256,276,51506,1,0,0:0:0:0:
472,292,51736,1,8,0:0:0:0:
356,328,51967,1,0,0:0:0:0:
488,216,52198,6,0,L|380:212,1,90,2|0,0:0|0:0,0:0:0:0:
96,208,52659,2,0,L|185:211,1,90,8|0,0:0|0:0,0:0:0:0:
232,224,53006,1,0,0:0:0:0:
8,232,53121,2,0,L|36:132,1,90,2|0,0:0|0:0,0:0:0:0:
376,252,53582,2,0,L|348:340,1,90,8|0,0:0|0:0,0:0:0:0:
0,144,54044,6,0,P|76:116|112:116,1,90,4|0,0:0|0:0,0:0:0:0:
144,116,54390,1,0,0:0:0:0:
192,140,54506,1,8,0:0:0:0:
68,220,54736,1,0,0:0:0:0:
300,184,54967,2,0,L|396:156,1,90,2|0,0:0|0:0,0:0:0:0:
184,176,55429,2,0,L|68:160,1,90,8|0,0:0|0:0,0:0:0:0:
456,264,55890,5,4,0:0:0:0:
184,264,56236,1,8,0:0:0:0:
148,240,56352,1,0,0:0:0:0:
500,208,56582,1,8,0:0:0:0:
396,152,56813,2,0,L|288:152,1,90,4|0,0:0|0:0,0:0:0:0:
224,152,57159,1,2,0:0:0:0:
16,140,57275,2,0,L|26:184,1,45,10|0,0:0|0:0,0:0:0:0:
228,224,57506,2,0,L|180:280,1,45,2|0,0:0|0:0,0:0:0:0:
0,308,57736,6,0,P|40:344|88:296,2,135,4|2|2,0:0|0:0|0:0,0:0:0:0:
176,344,58659,1,2,0:0:0:0:
344,264,58890,1,0,0:0:0:0:
356,224,59005,1,0,0:0:0:0:
352,180,59121,1,8,0:0:0:0:
136,144,59351,1,0,0:0:0:0:
444,168,59582,6,0,L|452:268,1,90,4|0,0:0|0:0,0:0:0:0:
328,320,59928,2,0,L|308:208,1,90,2|0,0:0|0:0,0:0:0:0:
188,216,60275,2,0,L|168:264,1,45,2|0,0:0|0:0,0:0:0:0:
372,144,60505,2,0,L|320:40,1,90,2|0,0:0|0:0,0:0:0:0:
276,40,60851,1,0,0:0:0:0:
212,40,60967,1,8,0:0:0:0:
372,80,61198,1,0,0:0:0:0:
30,132,61428,6,0,L|120:136,1,90,4|0,0:0|0:0,0:0:0:0:
208,176,61775,2,0,L|280:176,1,45,2|8,0:0|0:0,0:0:0:0:
132,232,62121,1,0,0:0:0:0:
336,208,62352,1,2,0:0:0:0:
88,160,62582,2,0,L|36:160,2,45,0|0|8,0:0|0:0|0:0,0:0:0:0:
172,232,63044,1,0,0:0:0:0:
488,144,63275,6,0,L|400:165,1,90,2|0,0:0|0:0,0:0:0:0:
352,192,63621,1,0,0:0:0:0:
304,184,63736,1,8,0:0:0:0:
416,84,63967,1,0,0:0:0:0:
220,140,64198,2,0,P|124:128|112:132,1,90,2|0,0:0|0:0,0:0:0:0:
60,160,64544,1,2,0:0:0:0:
156,232,64659,2,0,L|244:200,1,90,8|0,0:0|0:0,0:0:0:0:
336,216,65005,1,0,0:0:0:0:
108,164,65121,6,0,L|4:184,1,90,4|0,0:0|0:0,0:0:0:0:
192,176,65582,2,0,L|292:196,1,90,8|0,0:0|0:0,0:0:0:0:
336,208,65928,1,0,0:0:0:0:
384,216,66044,1,2,0:0:0:0:
232,292,66275,1,0,0:0:0:0:
368,348,66505,1,8,0:0:0:0:
480,288,66736,1,0,0:0:0:0:
128,232,66967,6,0,L|92:132,1,90,4|0,0:0|0:0,0:0:0:0:
96,104,67313,1,0,0:0:0:0:
112,60,67429,1,8,0:0:0:0:
340,216,67659,1,0,0:0:0:0:
292,236,67775,1,0,0:0:0:0:
252,248,67890,2,0,L|156:256,1,90,2|0,0:0|0:0,0:0:0:0:
292,320,68351,2,0,L|392:320,1,90,8|0,0:0|0:0,0:0:0:0:
16,164,68813,6,0,P|92:136|128:136,1,90,4|0,0:0|0:0,0:0:0:0:
140,132,69159,1,0,0:0:0:0:
188,152,69275,1,8,0:0:0:0:
408,232,69505,1,0,0:0:0:0:
368,252,69621,1,0,0:0:0:0:
336,264,69736,2,0,L|432:236,1,90,2|0,0:0|0:0,0:0:0:0:
236,184,70198,2,0,L|120:168,1,90,8|0,0:0|0:0,0:0:0:0:
492,284,70659,5,4,0:0:0:0:
336,344,70890,1,0,0:0:0:0:
300,348,71005,1,0,0:0:0:0:
268,344,71121,1,8,0:0:0:0:
408,272,71351,1,0,0:0:0:0:
16,180,71582,1,4,0:0:0:0:
448,140,71929,1,8,0:0:0:0:
8,96,72275,1,8,0:0:0:0:
320,288,72505,6,0,L|410:279,1,90,4|0,0:0|0:0,0:0:0:0:
224,220,72967,2,0,L|128:240,1,90,8|0,0:0|0:0,0:0:0:0:
404,244,73429,2,0,L|449:236,2,45,2|0|0,0:0|0:0|0:0,0:0:0:0:
156,320,73890,2,0,L|246:320,1,90,8|0,0:0|0:0,0:0:0:0:
304,320,74236,1,0,0:0:0:0:
484,292,74352,5,4,0:0:0:0:
484,292,75275,2,0,L|384:296,1,90,4|0,0:0|0:0,0:0:0:0:
216,224,75621,2,0,L|328:216,1,90,4|0,0:0|0:0,0:0:0:0:
508,196,75967,1,4,0:0:0:0:
256,192,76198,12,0,78044,0:0:0:0:
400,216,78736,6,0,L|456:216,2,45
232,196,79198,2,0,L|156:196,2,45
288,204,79544,1,0,0:0:0:0:
316,200,79659,1,0,0:0:0:0:
388,184,79775,1,0,0:0:0:0:
184,116,79890,6,0,L|80:128,1,90,4|0,0:0|0:0,0:0:0:0:
200,204,80236,2,0,L|289:193,1,90,2|0,0:0|0:0,0:0:0:0:
380,116,80582,1,2,0:0:0:0:
152,236,80813,2,0,L|268:228,1,90,2|0,0:0|0:0,0:0:0:0:
288,232,81159,1,0,0:0:0:0:
336,224,81274,1,8,0:0:0:0:
196,152,81505,1,0,0:0:0:0:
512,248,81736,6,0,L|416:316,1,90,4|0,0:0|0:0,0:0:0:0:
336,328,82082,2,0,P|268:320|224:340,1,90,2|0,0:0|0:0,0:0:0:0:
152,344,82428,1,2,0:0:0:0:
320,236,82659,2,0,L|409:249,1,90,2|0,0:0|0:0,0:0:0:0:
192,296,83121,2,0,L|120:296,2,45,8|0|0,0:0|0:0|0:0,0:0:0:0:
496,104,83582,6,0,P|451:97|408:109,1,90,4|0,0:0|0:0,0:0:0:0:
308,156,83928,2,0,P|232:180|168:156,1,135,2|2,0:0|0:0,0:0:0:0:
16,128,84505,1,2,0:0:0:0:
192,256,84736,2,0,L|236:261,2,45,0|0|8,0:0|0:0|0:0,0:0:0:0:
36,328,85198,1,0,0:0:0:0:
400,200,85429,6,0,L|468:200,1,45,4|0,0:0|0:0,0:0:0:0:
497,252,85660,2,0,L|452:252,1,45,2|0,0:0|0:0,0:0:0:0:
248,216,85891,2,0,L|316:216,1,45,8|0,0:0|0:0,0:0:0:0:
345,268,86122,2,0,L|300:268,1,45,2|0,0:0|0:0,0:0:0:0:
60,232,86352,6,0,L|128:232,1,45,8|0,0:0|0:0,0:0:0:0:
157,284,86583,2,0,L|112:284,1,45,2|0,0:0|0:0,0:0:0:0:
16,296,86814,1,8,0:0:0:0:
196,352,87045,1,2,0:0:0:0:
512,176,87275,1,4,0:0:0:0:
256,192,87506,12,0,89352,0:0:0:0:
