osu file format v14

[General]
AudioFilename: 04 - AURORA (TV Size Ver_01.).mp3
AudioLeadIn: 0
PreviewTime: 54667
Countdown: 0
SampleSet: Soft
StackLeniency: 0.5
Mode: 0
LetterboxInBreaks: 0
WidescreenStoryboard: 0

[Editor]
Bookmarks: -13
DistanceSpacing: 1
BeatDivisor: 4
GridSize: 4
TimelineZoom: 1.9

[Metadata]
Title:AURORA (TV Size Ver.)
TitleUnicode:AURORA (TV Size Ver.)
Artist:Aoi Eir
ArtistUnicode:藍井エイル
Creator:Melophobia
Version:Normal
Source:機動戦士ガンダムAGE
Tags:MOBILE SUIT GUNDAM AGE alacat lecana shirakai kacha
BeatmapID:751448
BeatmapSetID:337387

[Difficulty]
HPDrainRate:4
CircleSize:3
OverallDifficulty:4
ApproachRate:5
SliderMultiplier:1.2
SliderTickRate:1

[Events]
//Background and Video events
0,0,"BG.jpg",0,0
//Break Periods
//Storyboard Layer 0 (Background)
//Storyboard Layer 1 (Fail)
//Storyboard Layer 2 (Pass)
//Storyboard Layer 3 (Foreground)
//Storyboard Sound Samples

[TimingPoints]
130,346.820809248555,4,2,1,40,1,0
2904,-133.333333333333,4,2,1,40,0,0
8800,-133.333333333333,4,2,1,30,0,0
9147,-133.333333333333,4,2,1,40,0,0
9494,-133.333333333333,4,2,1,50,0,0
9840,-100,4,2,1,60,0,0
11228,-100,4,2,1,70,0,0
21979,-100,4,2,1,5,0,0
22326,-133.333333333333,4,2,1,40,0,0
33077,-133.333333333333,4,2,1,60,0,0
33424,-100,4,2,1,60,0,0
44523,-100,4,2,1,70,0,0
54234,-133.333333333333,4,2,1,60,0,0
55621,-90.9090909090909,4,2,1,80,0,1
66632,-90.9090909090909,4,2,1,80,0,0
66719,-90.9090909090909,4,2,1,80,0,1
78164,-90.9090909090909,4,2,1,40,0,1
78511,-90.9090909090909,4,2,1,50,0,1
78858,-90.9090909090909,4,2,1,60,0,1
79205,-90.9090909090909,4,2,1,80,0,1
80592,-90.9090909090909,4,2,1,70,0,0
83887,-90.9090909090909,4,2,1,50,0,0
83973,-90.9090909090909,4,2,1,70,0,0
84840,-90.9090909090909,4,2,1,5,0,0

[Colours]
Combo1 : 255,128,64
Combo2 : 128,255,128
Combo3 : 255,128,128
Combo4 : 128,128,255

[HitObjects]
0,108,2904,6,0,P|109:78|87:189,1,270.000010299683,4|2,0:1|0:0,0:0:0:0:
0,268,4291,2,0,P|112:208|264:232,1,270.000010299683,4|2,0:1|0:0,0:0:0:0:
344,296,5679,5,4,0:1:0:0:
500,120,6372,1,2,0:0:0:0:
276,48,7066,2,0,P|232:108|232:184,1,135.000005149841,4|8,0:1|3:0,0:0:0:0:
320,240,7933,2,0,P|312:306|271:358,1,135.000005149841,8|4,3:0|0:1,0:0:0:0:
156,368,8800,5,8,0:0:0:0:
80,280,9147,1,8,0:0:0:0:
104,164,9494,2,0,L|88:68,1,90.0000034332277,8|4,0:0|0:1,0:0:0:0:
436,120,10881,6,0,L|416:244,1,120,4|4,0:1|0:1,0:0:0:0:
352,340,11575,1,8,0:0:0:0:
248,280,11921,2,0,P|168:268|108:280,1,120,6|8,0:0|0:0,0:0:0:0:
76,300,12442,2,0,P|72:212|28:120,1,180,4|8,0:1|0:0,0:0:0:0:
112,36,13309,1,6,0:0:0:0:
228,72,13656,1,8,0:0:0:0:
340,36,14002,6,0,B|360:108|360:108|356:172,1,120,6|8,0:0|0:0,0:0:0:0:
252,208,14696,2,0,P|252:268|272:328,1,120,8|6,0:0|0:0,0:0:0:0:
324,360,15216,2,0,P|388:332|500:340,1,180,4|8,0:1|0:0,0:0:0:0:
500,220,16083,2,0,P|504:160|484:100,1,120,10|8,0:0|0:0,0:0:0:0:
392,28,16777,5,4,0:1:0:0:
308,116,17124,1,8,0:0:0:0:
196,76,17471,2,0,P|128:64|64:80,1,120,14|0,0:0|0:0,0:0:0:0:
36,116,17991,2,0,P|76:192|80:292,1,180,4|8,0:1|0:0,0:0:0:0:
180,352,18858,1,6,0:0:0:0:
272,276,19205,1,8,0:0:0:0:
376,336,19551,6,0,P|440:328|508:292,1,120,4|8,0:1|0:0,0:0:0:0:
476,184,20245,2,0,P|420:196|464:92,1,240,8|4,0:0|0:1,0:0:0:0:
256,192,21025,12,4,22326,0:1:0:0:
416,96,23366,6,0,P|420:136|420:192,1,90.0000034332277,0|2,0:0|0:0,0:0:0:0:
352,348,24234,2,0,P|296:315|216:308,1,135.000005149841,2|4,0:0|0:0,0:0:0:0:
116,340,25101,6,0,P|44:328|-16:280,1,135.000005149841,6|2,0:0|0:0,0:0:0:0:
28,180,25968,2,0,P|100:192|160:240,1,135.000005149841,4|2,0:0|0:0,0:0:0:0:
312,292,27008,1,2,0:0:0:0:
412,232,27355,2,0,P|424:184|420:140,1,90.0000034332277,4|4,0:0|0:0,0:0:0:0:
392,92,27875,6,0,P|300:116|248:108,1,135.000005149841,6|2,0:0|0:0,0:0:0:0:
160,52,28742,1,2,0:0:0:0:
56,100,29089,1,0,0:0:0:0:
56,100,29262,2,0,B|40:184|40:184|56:236,1,135.000005149841,6|2,0:0|0:0,0:0:0:0:
140,312,30130,2,0,P|189:306|244:288,1,90.0000034332277,4|2,0:0|0:0,0:0:0:0:
264,248,30650,6,0,P|340:272|404:268,1,135.000005149841,6|2,0:0|0:0,0:0:0:0:
480,188,31517,1,4,0:0:0:0:
352,68,32037,2,0,L|256:96,1,90.0000034332277,6|0,0:0|0:0,0:0:0:0:
220,56,32557,2,0,L|124:84,1,90.0000034332277,6|6,0:0|0:0,0:0:0:0:
80,56,33077,1,8,0:0:0:0:
12,152,33424,6,0,P|8:208|32:280,1,120,4|4,0:1|0:0,0:0:0:0:
132,328,34118,1,6,0:0:0:0:
240,280,34465,1,4,0:0:0:0:
352,328,34812,2,0,P|412:320|480:284,1,120,6|4,0:0|0:0,0:0:0:0:
504,172,35505,2,0,P|445:159|395:127,1,120,6|4,0:0|0:0,0:0:0:0:
292,64,36199,6,0,P|228:68|156:100,1,120,6|4,0:0|0:0,0:0:0:0:
116,76,36719,2,0,P|156:164|156:248,1,180,2|4,0:0|0:0,0:0:0:0:
68,328,37586,2,0,P|120:356|188:360,1,120,6|4,0:0|0:0,0:0:0:0:
272,284,38280,1,6,0:0:0:0:
384,328,38627,1,4,0:0:0:0:
464,236,38973,6,0,B|480:168|480:168|464:104,1,120,4|4,0:1|0:0,0:0:0:0:
368,52,39667,2,0,P|324:76|256:80,1,120,6|4,0:0|0:0,0:0:0:0:
140,48,40361,1,6,0:0:0:0:
68,144,40708,2,0,P|96:192|108:256,1,120,4|6,0:0|0:0,0:0:0:0:
192,340,41401,1,8,0:0:0:0:
308,316,41748,6,0,P|328:266|336:200,1,120,4|8,0:1|0:0,0:0:0:0:
336,140,42268,2,0,P|244:172|144:160,1,180,4|8,0:1|0:0,0:0:0:0:
48,204,43135,2,0,P|27:154|20:88,1,120,6|8,0:0|0:0,0:0:0:0:
24,28,43655,2,0,P|116:60|216:48,1,180,4|8,0:1|0:0,0:0:0:0:
304,108,44523,6,0,B|408:68|408:68|484:84,2,180,4|6|0,0:1|0:0|0:0,0:0:0:0:
224,196,45910,2,0,P|156:184|100:180,1,120,6|0,0:0|0:0,0:0:0:0:
48,200,46430,2,0,P|0:172|28:64,1,180,6|4,0:0|0:1,0:0:0:0:
144,84,47297,6,0,B|228:84|228:84|336:40,1,180,4|4,0:1|0:0,0:0:0:0:
428,92,48164,2,0,P|452:144|452:212,1,120,4|4,0:0|0:0,0:0:0:0:
424,260,48684,2,0,P|336:240|244:240,1,180,6|6,0:0|0:0,0:0:0:0:
140,292,49551,2,0,P|132:216|116:172,1,120,2|2,0:0|0:0,0:0:0:0:
76,132,50072,6,0,P|136:120|208:72,1,120,4|8,0:1|0:0,0:0:0:0:
204,36,50592,2,0,P|272:76|384:92,1,180,2|8,0:0|0:0,0:0:0:0:
460,172,51459,2,0,P|456:232|432:296,1,120,4|8,0:1|0:0,0:0:0:0:
384,320,51979,2,0,P|328:296|256:288,1,120,2|2,0:0|0:0,0:0:0:0:
212,308,52499,2,0,P|152:299|97:275,1,120,8|4,0:0|0:1,0:0:0:0:
256,192,53020,12,4,54234,0:1:0:0:
256,80,55274,6,0,L|248:184,1,90.0000034332277,4|4,0:1|0:1,0:0:0:0:
232,300,55968,5,8,0:0:0:0:
100,304,56314,2,0,P|68:248|64:176,1,132.00000402832,6|8,0:0|0:0,0:0:0:0:
120,60,57008,2,0,P|180:100|248:108,1,132.00000402832,6|8,0:0|0:0,0:0:0:0:
300,84,57528,2,0,P|364:95|418:132,1,132.00000402832,2|2,0:0|0:0,0:0:0:0:
440,196,58049,1,8,0:0:0:0:
312,228,58395,6,0,P|288:292|284:360,1,132.00000402832,6|8,0:0|0:0,0:0:0:0:
152,368,59089,2,0,P|120:312|112:236,1,132.00000402832,6|8,0:0|0:0,0:0:0:0:
160,124,59783,1,6,0:0:0:0:
288,152,60130,1,8,0:0:0:0:
404,92,60476,2,0,B|448:160|448:160|448:216,1,132.00000402832,6|8,0:0|0:0,0:0:0:0:
408,336,61170,6,0,P|324:296|192:304,1,198.000006042481,4|2,0:1|0:0,0:0:0:0:
92,332,62037,2,0,P|124:256|124:192,1,132.00000402832,2|2,0:0|0:0,0:0:0:0:
100,148,62557,2,0,B|96:68|96:68|120:12,1,132.00000402832,6|8,0:0|0:0,0:0:0:0:
240,68,63251,1,6,0:0:0:0:
368,36,63598,1,10,0:0:0:0:
420,156,63945,5,4,0:1:0:0:
287,382,64465,5,4,0:1:0:0:
259,115,64985,5,4,0:1:0:0:
436,316,65505,5,4,0:1:0:0:
176,260,66025,6,0,P|128:216|104:144,1,132.00000402832,4|4,0:1|0:1,0:1:0:0:
176,44,66719,6,0,P|244:44|316:76,1,132.00000402832,4|4,0:1|0:1,0:0:0:0:
408,144,67413,1,6,0:0:0:0:
320,244,67760,1,8,0:0:0:0:
192,196,68106,2,0,P|160:120|156:68,1,132.00000402832,6|8,0:0|0:0,0:0:0:0:
208,28,68627,2,0,P|273:36|332:64,1,132.00000402832,2|2,0:0|0:0,0:0:0:0:
368,120,69147,1,8,0:0:0:0:
364,252,69494,6,0,P|288:268|220:312,1,132.00000402832,6|8,0:0|0:0,0:0:0:0:
112,328,70187,2,0,P|76:272|68:200,1,132.00000402832,6|8,0:0|0:0,0:0:0:0:
112,84,70881,1,6,0:0:0:0:
224,152,71228,1,8,0:0:0:0:
348,108,71575,2,0,B|404:152|404:152|488:152,1,132.00000402832,6|8,0:0|0:0,0:0:0:0:
504,276,72268,6,0,P|416:328|304:320,1,198.000006042481,4|2,0:1|0:0,0:0:0:0:
212,256,73135,2,0,P|244:192|240:124,1,132.00000402832,2|2,0:0|0:0,0:0:0:0:
136,56,73829,2,0,P|104:120|108:188,1,132.00000402832,2|2,0:0|0:0,0:0:0:0:
192,280,74523,1,2,0:0:0:0:
192,280,74696,2,0,P|256:260|340:280,1,132.00000402832,8|6,0:0|0:0,0:0:0:0:
448,304,75390,5,8,0:0:0:0:
504,184,75736,1,6,0:0:0:0:
444,68,76083,1,8,0:0:0:0:
312,68,76430,2,0,P|244:80|184:116,1,132.00000402832,6|8,0:0|0:0,0:0:0:0:
168,172,76950,2,0,P|200:229|210:294,1,132.00000402832,2|2,0:0|0:0,0:0:0:0:
172,348,77471,6,0,P|108:320|16:312,1,132.00000402832,8|4,0:0|0:1,0:0:0:0:
20,180,78164,1,8,0:0:0:0:
100,76,78511,1,8,0:0:0:0:
224,120,78858,2,0,L|244:256,1,132.00000402832,8|4,0:0|0:1,0:0:0:0:
428,344,80245,6,0,L|447:213,1,132.00000402832,8|4,0:0|0:1,0:0:0:0:
380,100,80939,1,8,0:0:0:0:
256,144,81286,2,0,P|196:108|132:96,1,132.00000402832,6|8,0:0|0:0,0:0:0:0:
32,176,81979,2,0,P|60:256|64:308,1,132.00000402832,6|8,0:0|0:0,0:0:0:0:
16,348,82499,2,0,P|108:312|212:312,1,198.000006042481,2|8,0:0|0:0,0:0:0:0:
336,300,83366,6,0,P|400:272|440:220,1,132.00000402832,4|8,0:1|0:0,0:0:0:0:
440,156,83887,2,0,P|383:114|318:105,1,132.00000402832,8|4,0:3|0:0,0:0:0:0:
264,136,84407,2,0,P|264:236|281:266,1,132.00000402832,4|4,0:0|0:1,0:0:0:0:
256,192,84927,12,0,87528,0:0:0:0:
