osu file format v14

[General]
AudioFilename: 04 - AURORA (TV Size Ver_01.).mp3
AudioLeadIn: 0
PreviewTime: 54667
Countdown: 0
SampleSet: Soft
StackLeniency: 0.4
Mode: 0
LetterboxInBreaks: 0
WidescreenStoryboard: 0

[Editor]
Bookmarks: -13
DistanceSpacing: 1.3
BeatDivisor: 4
GridSize: 4
TimelineZoom: 1.9

[Metadata]
Title:AURORA (TV Size Ver.)
TitleUnicode:AURORA (TV Size Ver.)
Artist:Aoi Eir
ArtistUnicode:藍井エイル
Creator:Melophobia
Version:Insane
Source:機動戦士ガンダムAGE
Tags:MOBILE SUIT GUNDAM AGE alacat lecana shirakai kacha
BeatmapID:775357
BeatmapSetID:337387

[Difficulty]
HPDrainRate:6
CircleSize:4
OverallDifficulty:7
ApproachRate:8.5
SliderMultiplier:1.6
SliderTickRate:1

[Events]
//Background and Video events
0,0,"BG.jpg",0,0
//Break Periods
//Storyboard Layer 0 (Background)
//Storyboard Layer 1 (Fail)
//Storyboard Layer 2 (Pass)
//Storyboard Layer 3 (Foreground)
//Storyboard Sound Samples

[TimingPoints]
130,346.820809248555,4,2,1,40,1,0
2904,-133.333333333333,4,2,1,40,0,0
8800,-133.333333333333,4,2,1,30,0,0
9147,-133.333333333333,4,2,1,40,0,0
9494,-133.333333333333,4,2,1,50,0,0
9840,-66.6666666666667,4,2,1,60,0,0
10014,-100,4,2,1,30,0,0
10187,-100,4,2,1,60,0,0
11228,-100,4,2,1,70,0,0
21979,-100,4,2,1,5,0,0
22326,-133.333333333333,4,2,1,40,0,0
33077,-100,4,2,1,60,0,0
41401,-100,4,2,1,90,0,0
44523,-100,4,2,1,70,0,0
50072,-100,4,2,1,90,0,0
54234,-133.333333333333,4,2,1,100,0,0
55274,-133.333333333333,4,2,1,70,0,0
55621,-90.9090909090909,4,2,1,100,0,1
66632,-90.9090909090909,4,2,1,100,0,0
66719,-90.9090909090909,4,2,1,80,0,1
67066,-90.9090909090909,4,2,1,100,0,1
78164,-90.9090909090909,4,2,1,70,0,1
78511,-90.9090909090909,4,2,1,80,0,1
78858,-90.9090909090909,4,2,1,90,0,1
79205,-66.6666666666667,4,2,1,100,0,1
79378,-90.9090909090909,4,2,1,30,0,1
79551,-90.9090909090909,4,2,1,70,0,1
80592,-90.9090909090909,4,2,1,70,0,0
83887,-90.9090909090909,4,2,1,50,0,0
83973,-90.9090909090909,4,2,1,70,0,0
84840,-90.9090909090909,4,2,1,5,0,0

[Colours]
Combo1 : 255,128,64
Combo2 : 128,255,128
Combo3 : 255,128,128
Combo4 : 128,128,255

[HitObjects]
80,68,2904,6,0,P|136:56|220:48,1,120.000004577637,4|0,0:1|0:0,0:0:0:0:
204,140,3424,2,0,P|210:169|228:212,1,60.0000022888184,2|0,0:0|0:0,0:0:0:0:
308,216,3771,2,0,P|303:247|284:296,1,60.0000022888184,2|0,0:0|0:0,0:0:0:0:
216,320,4118,1,2,0:0:0:0:
294,274,4291,6,0,P|352:276|438:290,1,120.000004577637,4|0,0:1|0:0,0:0:0:0:
484,228,4812,1,2,0:0:0:0:
392,72,5158,1,2,0:0:0:0:
220,128,5505,5,0,0:0:0:0:
220,128,5592,1,0,0:0:0:0:
220,128,5679,2,0,P|192:64|192:8,1,120.000004577637,4|0,0:1|0:0,0:0:0:0:
96,116,6199,2,0,P|124:180|124:236,1,120.000004577637,2|2,0:0|0:0,0:0:0:0:
64,296,6719,2,0,L|92:376,1,60.0000022888184,0|2,0:0|0:0,0:0:0:0:
172,364,7066,6,0,P|228:344|300:340,1,120.000004577637,4|0,0:1|0:0,0:0:0:0:
463,296,7586,2,0,P|404:292|348:272,1,120.000004577637,8|8,3:0|3:0,0:0:0:0:
304,192,8106,2,0,L|320:112,1,60.0000022888184,8|4,3:0|0:0,0:0:0:0:
184,44,8453,6,0,L|160:144,1,90.0000034332277,4|0,0:1|0:0,0:0:0:0:
124,156,8800,2,0,L|140:240,1,60.0000022888184,0|0,1:0|1:0,0:0:0:0:
240,268,9147,2,0,L|251:209,1,60.0000022888184,0|0,1:0|1:0,0:0:0:0:
56,288,9494,2,0,L|67:346,1,60.0000022888184,0|0,1:0|1:0,0:0:0:0:
124,156,9840,5,4,0:1:0:0:
144,168,10534,2,0,L|132:104,2,40,8|8|4,0:0|0:0|0:0,0:0:0:0:
224,232,10881,2,0,B|312:216|312:216|296:176,1,120,4|0,0:1|0:0,0:0:0:0:
256,120,11228,6,0,P|268:88|292:48,1,80,4|0,0:1|0:0,0:0:0:0:
396,56,11575,2,0,P|416:90|431:127,1,80,8|0,0:0|0:0,0:0:0:0:
380,220,11921,1,4,0:0:0:0:
420,316,12095,2,0,L|444:372,2,40,0|8|8,0:0|0:0|0:0,0:0:0:0:
380,220,12442,6,0,P|312:244|208:228,1,160,4|4,0:1|0:0,0:0:0:0:
147,162,12962,2,0,P|157:123|160:84,1,80,8|0,0:0|0:0,0:0:0:0:
48,196,13309,2,0,P|36:256|36:284,1,80,4|4,0:0|0:0,0:0:0:0:
112,348,13656,1,8,0:0:0:0:
204,304,13829,5,0,0:0:0:0:
204,304,13916,1,0,0:0:0:0:
204,304,14002,2,0,B|304:280|304:280|384:308,1,160,4|8,0:1|0:0,0:0:0:0:
456,264,14523,2,0,P|468:216|464:168,1,80,4|8,0:0|0:0,0:0:0:0:
412,100,14869,1,0,0:0:0:0:
392,124,14956,1,4,0:0:0:0:
360,132,15043,1,4,0:0:0:0:
240,80,15216,6,0,P|268:160|264:252,1,160,4|4,0:1|0:0,0:0:0:0:
180,288,15736,2,0,P|140:276|96:272,1,80,8|0,0:0|0:0,0:0:0:0:
6,183,16083,2,0,P|45:179|84:168,1,80,8|4,0:0|0:0,0:0:0:0:
152,88,16430,1,8,0:0:0:0:
152,88,16603,1,0,0:0:0:0:
236,204,16777,6,0,P|276:208|324:224,1,80,4|4,0:1|0:0,0:0:0:0:
416,208,17124,2,0,P|432:160|432:124,1,80,8|0,0:0|0:0,0:0:0:0:
372,44,17471,1,4,0:0:0:0:
276,80,17644,2,0,L|292:144,2,40,4|4|4,0:0|0:0|0:0,0:0:0:0:
180,40,17991,6,0,B|148:136|148:136|164:196,1,160,4|4,0:1|0:0,0:0:0:0:
244,260,18511,2,0,L|344:240,1,80,8|0,0:0|0:0,0:0:0:0:
484,284,18858,2,0,P|468:240|464:200,1,80,4|4,0:0|0:0,0:0:0:0:
376,152,19205,2,0,P|392:108|396:68,1,80,8|0,0:0|0:0,0:0:0:0:
308,20,19551,6,0,P|264:40|200:44,1,80,4|4,0:1|0:0,0:0:0:0:
132,24,19898,2,0,P|156:108|152:152,1,120,8|8,0:0|0:0,0:0:0:0:
128,184,20245,2,0,P|132:224|148:264,1,80,8|4,0:0|0:0,0:0:0:0:
228,324,20592,2,0,P|264:304|304:300,1,80,4|4,0:0|0:0,0:0:0:0:
332,308,20852,1,0,0:0:0:0:
360,324,20939,1,4,0:1:0:0:
256,192,21025,12,4,22326,0:1:0:0:
344,224,22673,5,0,0:0:0:0:
348,228,22846,2,0,P|288:212|204:224,1,120.000004577637,2|2,0:0|0:0,0:0:0:0:
148,256,23366,2,0,L|156:315,1,60.0000022888184
60,240,23713,6,0,P|68:188|60:108,1,120.000004577637,6|0,0:0|0:0,0:0:0:0:
32,36,24234,1,2,0:0:0:0:
184,132,24580,1,6,0:0:0:0:
184,132,24754,2,0,L|264:120,1,60.0000022888184,4|0,0:0|0:0,0:0:0:0:
312,180,25101,6,0,L|392:168,2,60.0000022888184,6|4|0,0:0|0:0|0:0,0:0:0:0:
240,232,25621,2,0,P|228:316|232:364,1,120.000004577637,2|6,0:0|0:0,0:0:0:0:
136,236,26141,2,0,P|128:280|128:312,1,60.0000022888184,6|0,0:0|0:0,0:0:0:0:
40,224,26488,6,0,P|56:164|44:100,1,120.000004577637,2|0,0:0|0:0,0:0:0:0:
104,36,27008,2,0,P|164:52|228:40,1,120.000004577637,2|6,0:0|0:0,0:0:0:0:
308,24,27528,2,0,L|376:56,1,60.0000022888184,4|0,0:0|0:0,0:0:0:0:
396,132,27875,6,0,P|364:216|364:268,1,120.000004577637,6|0,0:0|0:0,0:0:0:0:
368,336,28395,2,0,L|228:316,1,120.000004577637,2|2,0:0|0:0,0:0:0:0:
180,260,28916,2,0,P|188:216|188:196,1,60.0000022888184,6|0,0:0|0:0,0:0:0:0:
100,184,29262,6,0,P|72:116|68:56,1,120.000004577637,6|0,0:0|0:0,0:0:0:0:
204,12,29783,2,0,P|232:80|236:140,1,120.000004577637,2|4,0:0|0:0,0:0:0:0:
320,156,30303,2,0,P|336:108|340:84,1,60.0000022888184,6|0,0:0|0:0,0:0:0:0:
416,56,30650,6,0,B|436:144|436:144|420:200,1,120.000004577637,6|0,0:0|0:0,0:0:0:0:
376,244,31170,1,2,0:0:0:0:
212,172,31517,1,6,0:0:0:0:
96,308,31864,5,0,0:0:0:0:
96,308,32037,2,0,P|44:284|-40:272,1,120.000004577637,6|0,0:0|0:0,0:0:0:0:
204,280,32557,2,0,P|256:304|340:316,1,120.000004577637,2|6,0:0|0:0,0:0:0:0:
128,196,33077,1,8,0:0:0:0:
144,208,33424,6,0,P|124:168|116:120,1,80,4|0,0:1|0:0,0:0:0:0:
156,28,33771,1,4,0:0:0:0:
244,84,33945,2,0,P|260:48|272:8,1,80,2|4,0:0|0:0,0:0:0:0:
352,76,34291,2,0,P|360:128|372:164,1,80,2|4,0:0|0:0,0:0:0:0:
468,188,34638,1,2,0:0:0:0:
332,260,34812,6,0,B|268:236|260:176|260:176|208:188,1,160,6|4,0:0|0:0,0:0:0:0:
24,280,35332,2,0,P|40:236|44:188,1,80,2|4,0:0|0:0,0:0:0:0:
124,136,35679,2,0,P|108:92|104:44,1,80,2|4,0:0|0:0,0:0:0:0:
196,16,36025,1,2,0:0:0:0:
260,152,36199,6,0,P|324:120|424:112,1,160,6|4,0:0|0:0,0:0:0:0:
496,172,36719,2,0,P|480:208|472:260,1,80,2|4,0:0|0:0,0:0:0:0:
376,288,37066,2,0,P|360:252|352:200,1,80,2|4,0:0|0:0,0:0:0:0:
360,108,37413,1,0,0:0:0:0:
252,244,37586,6,0,L|160:232,1,80,6|0,0:0|0:0,0:0:0:0:
44,336,37933,2,0,L|136:320,1,80,6|2,0:0|0:0,0:0:0:0:
212,116,38280,2,0,L|120:104,1,80,4|2,0:0|0:0,0:0:0:0:
4,208,38627,2,0,L|96:192,1,80,6|0,0:0|0:0,0:0:0:0:
200,36,38973,6,0,L|224:196,1,160,4|4,0:1|0:0,0:0:0:0:
328,224,39494,1,2,0:0:0:0:
308,324,39667,2,0,P|264:336|224:340,1,80,4|2,0:0|0:0,0:0:0:0:
136,300,40014,1,4,0:0:0:0:
36,328,40187,6,0,P|20:280|16:248,1,80,2|0,0:0|0:0,0:0:0:0:
104,192,40534,2,0,P|117:154|123:114,1,80,2|4,0:0|0:0,0:0:0:0:
60,32,40881,1,2,0:0:0:0:
123,114,41054,2,0,L|235:98,1,80,4|2,0:0|0:0,0:0:0:0:
340,208,41401,2,0,P|316:148|312:120,1,80,8|0,0:0|0:0,0:0:0:0:
376,44,41748,5,4,0:1:0:0:
500,156,41921,1,0,0:0:0:0:
340,208,42095,1,8,0:0:0:0:
470,64,42268,1,4,0:1:0:0:
470,64,42615,1,4,0:0:0:0:
310,115,42788,2,0,P|268:113|216:104,1,80,8|0,0:0|0:0,0:0:0:0:
168,24,43135,5,4,0:1:0:0:
108,108,43309,1,4,0:0:0:0:
8,84,43482,1,8,0:0:0:0:
108,108,43656,2,0,P|120:156|124:200,1,80,4|0,0:1|0:0,0:0:0:0:
48,308,44002,1,4,0:0:0:0:
48,308,44089,1,4,0:0:0:0:
48,308,44176,2,0,P|84:292|152:276,1,80,8|0,0:0|0:0,0:0:0:0:
308,336,44523,6,0,P|272:264|264:184,1,160,4|8,0:1|0:0,0:0:0:0:
408,80,45043,2,0,P|444:152|452:232,1,160,4|4,0:1|0:0,0:0:0:0:
412,328,45563,1,8,0:0:0:0:
152,112,45910,6,0,P|192:101|248:92,1,80,4|4,0:1|0:0,0:0:0:0:
230,94,46257,1,8,0:0:0:0:
108,212,46430,2,0,P|67:201|12:192,1,80,4|0,0:1|0:0,0:0:0:0:
184,288,46777,1,4,0:0:0:0:
184,288,46864,1,4,0:0:0:0:
184,288,46950,2,0,P|224:277|280:268,1,80,4|0,0:1|0:0,0:0:0:0:
412,328,47297,6,0,P|452:252|452:176,1,160,4|4,0:1|0:0,0:0:0:0:
364,116,47817,2,0,P|356:72|356:28,1,80,6|4,0:0|0:0,0:0:0:0:
264,140,48164,2,0,P|276:179|280:228,1,80,6|4,0:0|0:0,0:0:0:0:
196,284,48511,5,0,0:0:0:0:
196,284,48598,1,0,0:0:0:0:
196,284,48684,2,0,P|148:260|20:256,1,160,6|4,0:0|0:0,0:0:0:0:
83,155,49205,2,0,P|45:144|5:143,1,80,6|4,0:0|0:0,0:0:0:0:
152,80,49551,2,0,P|126:42|95:16,2,80,6|4|2,0:0|0:0|0:0,0:0:0:0:
228,152,50072,6,0,P|312:124|412:124,1,160,4|8,0:1|0:0,0:0:0:0:
504,40,50592,2,0,P|492:84|488:120,1,80,2|4,0:0|0:0,0:0:0:0:
368,220,50939,2,0,P|380:264|384:300,1,80,2|8,0:0|0:0,0:0:0:0:
256,360,51286,5,0,0:0:0:0:
256,360,51372,1,0,0:0:0:0:
256,360,51459,2,0,P|172:328|92:332,1,160,4|8,0:1|0:0,0:0:0:0:
32,252,51979,2,0,P|52:204|56:168,1,80,2|4,0:0|0:0,0:0:0:0:
124,44,52326,1,6,0:0:0:0:
124,44,52499,2,0,P|131:83|147:119,1,80,8|2,0:0|0:0,0:0:0:0:
252,140,52846,6,0,P|296:108|336:88,1,80,4|0,0:1|0:0,0:0:0:0:
360,252,53193,2,0,P|365:306|363:350,1,80,8|0,0:0|0:0,0:0:0:0:
208,292,53540,2,0,P|158:269|120:245,1,80,8|0,0:0|0:0,0:0:0:0:
252,140,53887,1,8,0:0:0:0:
360,252,54060,1,0,0:0:0:0:
208,292,54234,1,4,0:1:0:0:
220,300,54580,6,0,L|212:236,1,60.0000022888184,4|0,0:0|0:0,0:0:0:0:
32,192,54927,2,0,L|40:256,1,60.0000022888184,4|0,0:0|0:0,0:0:0:0:
132,140,55274,2,0,L|121:50,1,90.0000034332277,4|0,0:1|0:0,0:0:0:0:
224,96,55621,6,0,P|312:96|392:44,1,176.000005371094,4|8,0:1|0:0,0:0:0:0:
385,51,56141,1,2,0:0:0:0:
312,136,56314,2,0,P|316:184|344:236,1,88.000002685547,4|2,0:0|0:0,0:0:0:0:
240,336,56661,2,0,P|236:288|208:236,1,88.000002685547,8|2,0:0|0:0,0:0:0:0:
36,176,57008,6,0,P|144:168|204:128,1,176.000005371094,6|8,0:0|0:0,0:0:0:0:
316,20,57528,2,0,P|300:64|300:112,1,88.000002685547,2|4,0:0|0:0,0:0:0:0:
372,248,57875,2,0,P|388:204|388:156,2,88.000002685547,2|8|2,0:0|0:0|0:0,0:0:0:0:
284,320,58395,6,0,P|208:284|104:284,1,176.000005371094,6|8,0:0|0:0,0:0:0:0:
12,328,58916,2,0,P|48:252|48:148,1,176.000005371094,2|2,0:0|0:0,0:0:0:0:
28,48,59436,1,8,0:0:0:0:
28,48,59609,1,2,0:0:0:0:
160,168,59783,6,0,P|239:132|326:136,1,176.000005371094,6|8,0:0|0:0,0:0:0:0:
428,40,60303,2,0,P|428:84|440:140,1,88.000002685547,2|4,0:0|0:0,0:0:0:0:
492,228,60650,1,2,0:0:0:0:
412,312,60823,1,8,0:0:0:0:
304,272,60997,1,2,0:0:0:0:
220,352,61170,6,0,P|128:344|48:300,1,176.000005371094,4|8,0:1|0:0,0:0:0:0:
24,196,61690,2,0,P|52:124|56:104,1,88.000002685547,2|4,0:0|0:0,0:0:0:0:
152,56,62037,1,2,0:0:0:0:
256,100,62210,1,8,0:0:0:0:
336,20,62384,1,2,0:0:0:0:
256,100,62557,6,0,P|252:184|288:276,1,176.000005371094,6|8,0:0|0:0,0:0:0:0:
392,312,63077,1,2,0:0:0:0:
204,348,63251,2,0,P|164:336|116:332,1,88.000002685547,4|2,0:0|0:0,0:0:0:0:
384,216,63598,2,0,P|424:228|472:232,1,88.000002685547,8|2,0:0|0:0,0:0:0:0:
204,348,63945,6,0,P|184:288|184:244,1,88.000002685547,4|4,0:1|0:0,0:0:0:0:
200,152,64291,1,6,0:0:0:0:
300,280,64465,6,0,P|320:220|320:176,1,88.000002685547,4|0,0:1|0:0,0:0:0:0:
288,88,64811,1,6,0:0:0:0:
84,272,64985,6,0,P|64:212|64:168,1,88.000002685547,4|0,0:1|0:0,0:0:0:0:
80,76,65331,1,6,0:0:0:0:
384,216,65505,6,0,P|404:156|404:112,1,88.000002685547,4|4,0:1|0:0,0:0:0:0:
372,24,65851,1,6,0:0:0:0:
300,280,66025,6,0,P|260:268|200:252,1,88.000002685547,4|0,0:1|0:0,0:0:0:0:
180,28,66372,2,0,P|223:42|280:56,1,88.000002685547,4|0,0:1|0:0,0:0:0:0:
384,216,66719,6,0,B|372:120|372:120|416:132,1,132.00000402832,4|0,0:1|0:0,0:0:0:0:
288,164,67066,2,0,L|192:144,1,88.000002685547,4|0,0:1|0:0,0:0:0:0:
40,140,67413,2,0,P|52:80|44:40,1,88.000002685547,4|2,0:0|0:0,0:0:0:0:
116,228,67760,2,0,P|104:288|112:328,1,88.000002685547,8|2,0:0|0:0,0:0:0:0:
216,356,68106,6,0,P|296:320|420:328,1,176.000005371094,6|8,0:0|0:0,0:0:0:0:
511,237,68627,2,0,P|468:229|428:212,1,88.000002685547,2|4,0:0|0:0,0:0:0:0:
288,137,68973,2,0,P|331:129|372:111,2,88.000002685547,2|8|2,0:0|0:0|0:0,0:0:0:0:
180,96,69494,6,0,P|152:176|160:292,1,176.000005371094,6|8,0:0|0:0,0:0:0:0:
48,308,70014,2,0,P|135:306|218:334,1,176.000005371094,2|2,0:0|0:0,0:0:0:0:
332,356,70534,2,0,P|380:340|424:304,1,88.000002685547,8|2,0:0|0:0,0:0:0:0:
480,228,70881,6,0,P|432:136|424:56,1,176.000005371094,6|8,0:0|0:0,0:0:0:0:
320,12,71401,2,0,P|243:55|157:68,1,176.000005371094,2|2,0:0|0:0,0:0:0:0:
84,156,71921,1,8,0:0:0:0:
0,88,72095,1,2,0:0:0:0:
84,156,72268,6,0,P|72:236|64:252,1,88.000002685547,4|0,0:1|0:0,0:0:0:0:
164,308,72615,1,8,0:0:0:0:
268,260,72788,2,0,P|332:272|368:296,1,88.000002685547,2|4,0:0|0:0,0:0:0:0:
434,115,73135,2,0,P|392:127|356:152,1,88.000002685547,2|8,0:0|0:0,0:0:0:0:
280,13,73482,2,0,P|256:49|244:92,1,88.000002685547,2|4,0:0|0:0,0:0:0:0:
140,144,73829,6,0,P|164:180|176:222,1,88.000002685547,2|8,0:0|0:0,0:0:0:0:
68,336,74176,2,0,P|43:299|31:257,1,88.000002685547,2|4,0:0|0:0,0:0:0:0:
20,144,74523,1,2,0:0:0:0:
92,56,74696,1,8,0:0:0:0:
204,84,74869,5,2,0:0:0:0:
204,84,74956,1,0,0:0:0:0:
204,84,75043,2,0,P|296:72|376:28,1,176.000005371094,6|8,0:0|0:0,0:0:0:0:
484,40,75563,2,0,P|524:116|532:228,1,176.000005371094,2|2,0:0|0:0,0:0:0:0:
484,308,76083,1,8,0:0:0:0:
412,220,76257,1,2,0:0:0:0:
300,232,76430,6,0,P|280:288|280:332,1,88.000002685547,6|0,0:0|0:0,0:0:0:0:
172,356,76777,1,8,0:0:0:0:
216,168,76950,2,0,P|211:124|194:83,1,88.000002685547,2|4,0:0|0:0,0:0:0:0:
88,40,77297,1,2,0:0:0:0:
16,212,77471,2,0,L|120:192,1,88.000002685547,8|2,0:0|0:0,0:0:0:0:
368,96,77817,6,0,P|332:152|344:240,1,132.00000402832,4|0,0:1|0:0,0:0:0:0:
352,236,78164,2,0,P|384:268|400:312,1,88.000002685547,0|0,1:0|1:0,0:0:0:0:
169,253,78511,2,0,P|126:264|80:256,1,88.000002685547,0|0,1:0|1:0,0:0:0:0:
248,88,78858,2,0,P|259:44|289:8,1,88.000002685547,0|0,1:0|1:0,0:0:0:0:
256,192,79205,5,4,0:1:0:0:
280,204,80245,2,0,L|288:260,1,44.0000013427735,8|0,0:0|0:0,0:0:0:0:
268,272,80419,2,0,L|276:328,1,44.0000013427735
256,340,80592,6,0,P|168:304|48:308,1,176.000005371094,4|8,0:1|0:0,0:0:0:0:
28,204,81112,2,0,P|52:152|60:108,1,88.000002685547,2|4,0:0|0:0,0:0:0:0:
144,44,81459,1,2,0:0:0:0:
224,124,81632,1,8,0:0:0:0:
328,80,81806,1,2,0:0:0:0:
416,152,81979,6,0,P|456:136|536:120,1,88.000002685547,6|0,0:0|0:0,0:0:0:0:
412,272,82326,1,8,0:0:0:0:
311,215,82499,2,0,P|295:175|284:132,1,88.000002685547,2|4,0:0|0:0,0:0:0:0:
207,260,82846,2,0,P|197:302|180:343,1,88.000002685547,2|8,0:0|0:0,0:0:0:0:
104,212,83193,1,2,0:0:0:0:
312,344,83366,6,0,P|372:344|456:296,1,132.00000402832,4|8,0:1|0:0,0:0:0:0:
456,280,83713,1,10,0:0:0:0:
352,232,83887,2,0,P|336:176|340:132,1,88.000002685547,8|4,3:0|0:0,0:0:0:0:
416,64,84234,1,4,0:0:0:0:
337,146,84407,2,0,P|267:133|169:114,1,132.00000402832,6|0,0:0|0:0,0:0:0:0:
124,100,84754,1,4,0:1:0:0:
256,192,84840,12,0,87528,0:0:0:0:
