osu file format v12

[General]
AudioFilename: 04. (TV Size Ver.).mp3
AudioLeadIn: 0
PreviewTime: 35402
Countdown: 1
SampleSet: Normal
StackLeniency: 0.7
Mode: 0
LetterboxInBreaks: 1
WidescreenStoryboard: 1

[Editor]
Bookmarks: 33191
DistanceSpacing: 1
BeatDivisor: 4
GridSize: 4

[Metadata]
Title: Niji no Oto (TV Size Ver.)
TitleUnicode:虹の音 (TV Size Ver.)
Artist:Aoi Eir
ArtistUnicode:藍井エイル
Creator:-RInx-
Version:Easy
Source:Sword Art Online: Extra Edition
Tags:SAO ソードアート・オンライン Ending
BeatmapID:346923
BeatmapSetID:138837

[Difficulty]
HPDrainRate:2
CircleSize:3
OverallDifficulty:2
ApproachRate:3
SliderMultiplier:1.20000000596046
SliderTickRate:2

[Events]
//Background and Video events
0,0,"bg1.jpg",0,0
//Break Periods
//Storyboard Layer 0 (Background)
//Storyboard Layer 1 (Fail)
//Storyboard Layer 2 (Pass)
//Storyboard Layer 3 (Foreground)
//Storyboard Sound Samples
//Background Colour Transformations
3,100,163,162,255

[TimingPoints]
2545,714.285714285714,4,1,1,40,1,0
8259,-100,4,2,1,60,0,0
33973,-100,4,1,1,60,0,0
35402,714.285714285714,4,1,1,60,1,1
35402,-100,4,1,1,60,0,1
36116,-100,4,1,2,60,0,1
79687,-100,4,1,1,50,0,0

[Colours]
Combo1 : 0,255,0
Combo2 : 141,61,194
Combo3 : 10,139,245
Combo4 : 38,203,217

[HitObjects]
224,284,2545,2,0,P|180:248|154:191,1,120.000000596046,6|2,0:0|0:0,0:0:0:0:
248,116,3973,2,0,P|300:164|320:228,1,120.000000596046,2|2,0:0|0:0,0:0:0:0:
256,192,5401,12,0,7544,0:0:0:0:
348,96,8258,6,0,P|384:180|384:232,1,120.000000596046
320,308,9687,1,0,0:0:0:0:
200,308,10401,1,0,0:0:0:0:
104,236,11115,6,0,P|80:140|80:96,1,120.000000596046
192,80,12544,1,0,0:0:0:0:
312,80,13258,1,0,0:0:0:0:
432,100,13973,6,0,L|484:228,1,120.000000596046
400,304,15401,1,0,0:0:0:0:
288,264,16115,1,0,0:0:0:0:
288,144,16830,6,0,L|140:144,1,120.000000596046
168,264,18258,2,0,L|308:264,1,120.000000596046
408,264,19687,5,0,0:0:0:0:
408,144,20401,1,0,0:0:0:0:
304,200,21115,2,0,L|212:92,1,120.000000596046
160,12,22544,5,0,0:0:0:0:
52,64,23258,1,0,0:0:0:0:
36,184,23973,2,0,P|60:244|116:296,1,120.000000596046
204,336,25401,6,0,P|296:304|336:304,1,120.000000596046
428,344,26830,2,0,P|464:264|464:208,1,120.000000596046
348,204,28258,2,0,L|292:92,2,120.000000596046
232,236,30402,1,0,0:0:0:0:
152,148,31115,5,0,0:0:0:0:
120,264,31830,1,0,0:0:0:0:
220,328,32544,2,0,P|300:336|348:304,1,120.000000596046
428,244,33973,5,2,0:0:0:0:
384,128,34687,1,2,0:0:0:0:
284,64,35401,6,8,L|196:64,2,60.000000298023
168,96,36830,1,0,0:0:0:0:
168,216,37544,1,0,0:0:0:0:
232,316,38258,6,0,L|312:316,2,60.000000298023
340,268,39687,1,10,0:0:0:0:
340,148,40401,1,10,0:0:0:0:
252,68,41115,6,8,L|188:196,1,120.000000596046,2|2,0:0|0:0,0:0:0:0:
120,268,42544,2,8,L|72:132,1,120.000000596046,2|2,0:0|0:0,0:0:0:0:
192,112,43973,5,8,0:0:0:0:
312,112,44687,1,8,0:0:0:0:
348,228,45401,2,8,L|404:360,1,120.000000596046,2|2,0:0|0:0,0:0:0:0:
496,276,46830,6,0,P|480:180|464:140,1,120.000000596046,4|0,0:0|0:0,0:0:0:0:
372,92,48258,1,0,0:0:0:0:
252,92,48973,1,8,0:0:0:0:
308,200,49687,6,0,P|260:268|220:312,1,120.000000596046,2|8,0:0|0:0,0:0:0:0:
116,288,51115,2,0,P|88:196|88:144,1,120.000000596046,2|8,0:0|0:0,0:0:0:0:
92,52,52544,5,8,0:0:0:0:
212,52,53258,1,8,0:0:0:0:
168,164,53973,2,8,L|220:292,1,120.000000596046
256,192,55401,12,8,57544,0:0:0:0:
336,304,58258,6,8,P|372:224|372:168,1,120.000000596046
308,92,59687,1,8,0:0:0:0:
188,92,60401,1,8,0:0:0:0:
80,148,61115,6,8,L|24:280,1,120.000000596046
136,320,62544,2,8,L|192:192,1,120.000000596046
264,120,63973,5,8,0:0:0:0:
384,120,64687,1,8,0:0:0:0:
384,240,65401,1,8,0:0:0:0:
264,240,66115,1,8,0:0:0:0:
164,308,66830,6,8,P|124:256|124:196,1,120.000000596046
224,140,68258,2,8,P|264:184|264:244,1,120.000000596046
328,344,69687,5,8,0:0:0:0:
428,276,70401,1,8,0:0:0:0:
420,156,71115,2,8,P|356:112|304:92,1,120.000000596046
200,72,72544,6,8,L|124:184,1,120.000000596046
88,284,73973,1,8,0:0:0:0:
208,284,74687,1,8,0:0:0:0:
328,296,75401,6,8,L|408:176,1,120.000000596046
300,120,76830,1,8,0:0:0:0:
196,60,77544,1,8,0:0:0:0:
120,152,78259,6,0,L|120:228,2,60.000000298023
216,220,79687,2,0,P|264:240|352:256,2,120.000000596046
304,124,82901,6,0,P|316:76|328:44,3,60.000000298023
256,192,84330,12,4,87544,0:0:0:0:
