osu file format v14

[General]
AudioFilename: 01. SYNCHRONIZATION.mp3
AudioLeadIn: 0
PreviewTime: 26129
Countdown: 1
SampleSet: Soft
StackLeniency: 0.7
Mode: 2
LetterboxInBreaks: 1
WidescreenStoryboard: 1

[Editor]
Bookmarks: 13935,26322,38709,51096,63483,75483,88258,100645,113032,125419,137806,150580,162580,187354,196645,221419
DistanceSpacing: 0.8
BeatDivisor: 4
GridSize: 4
TimelineZoom: 1

[Metadata]
Title:SYNCHRONIZATION
TitleUnicode:SYNCHRONIZATION
Artist:Aoi
ArtistUnicode:葵
Creator:MagicToaster
Version:Cup
Source:SYNCHRONICITY
Tags:synchronicity synchronization comiket 91 eternal melody Aoi 葵 The Sea Where the Home Planet is Reflected 故郷の星が映る海 Touhou 15 Kanjuden Proyect Legacy of Lunatic Kingdom 東方紺珠伝 ZUN
BeatmapID:1253711
BeatmapSetID:591187

[Difficulty]
HPDrainRate:6
CircleSize:4
OverallDifficulty:5
ApproachRate:6
SliderMultiplier:1.2
SliderTickRate:1

[Events]
//Background and Video events
0,0,"01111.jpg",0,0
//Break Periods
2,112844,124369
2,187555,195595
//Storyboard Layer 0 (Background)
//Storyboard Layer 1 (Fail)
//Storyboard Layer 2 (Pass)
//Storyboard Layer 3 (Foreground)
//Storyboard Sound Samples

[TimingPoints]
0,387.096774193548,4,2,0,100,1,0
63483,-100,4,2,0,100,0,1
88064,-100,4,2,0,100,0,0
88258,-100,4,2,0,100,0,1
113032,-100,4,2,0,100,0,0
125419,-142.857142857143,4,2,0,100,0,0
137806,-100,4,2,0,100,0,1
162387,-100,4,2,0,100,0,0

[Colours]
Combo1 : 255,255,255
Combo2 : 160,160,160
Combo3 : 10,120,255

[HitObjects]
40,268,1548,6,0,L|156:200,2,120
72,196,2709,1,0,0:0:0:0:
196,200,3096,2,0,L|296:292,2,120
248,280,4258,1,0,0:0:0:0:
360,284,4645,2,0,L|472:224,2,120
428,208,5806,1,0,0:0:0:0:
324,204,6193,1,0,0:0:0:0:
376,112,6580,1,0,0:0:0:0:
272,108,6967,1,0,0:0:0:0:
224,200,7354,1,0,0:0:0:0:
176,108,7741,5,0,0:0:0:0:
124,200,8129,2,0,L|236:264,1,120
336,136,8903,2,0,L|436:208,2,120
232,136,10064,1,0,0:0:0:0:
128,132,10451,1,0,0:0:0:0:
176,224,10838,1,0,0:0:0:0:
280,220,11225,2,0,L|408:296,1,120
464,232,11999,2,0,L|364:164,1,120
268,152,12774,1,0,0:0:0:0:
172,148,13161,1,0,0:0:0:0:
256,152,13548,1,0,0:0:0:0:
344,208,13935,6,0,L|464:284,2,120
400,288,15096,1,0,0:0:0:0:
308,292,15483,2,0,L|196:376,2,120
244,220,16645,1,0,0:0:0:0:
140,212,17032,2,0,L|44:300,2,120
72,144,18193,1,0,0:0:0:0:
176,132,18580,1,0,0:0:0:0:
128,40,18967,1,0,0:0:0:0:
232,40,19354,1,0,0:0:0:0:
176,132,19741,1,0,0:0:0:0:
224,216,20129,6,0,L|316:128,1,120
404,196,20903,1,0,0:0:0:0:
380,288,21290,2,0,L|288:376,1,120
164,284,22064,5,0,0:0:0:0:
232,216,22451,1,0,0:0:0:0:
300,148,22838,1,0,0:0:0:0:
204,144,23225,1,0,0:0:0:0:
268,216,23612,2,0,L|156:288,1,120
108,128,24387,2,0,L|200:220,1,120
324,128,25161,1,0,0:0:0:0:
420,128,25548,1,0,0:0:0:0:
380,216,25935,1,0,0:0:0:0:
476,220,26322,6,0,L|376:308,1,120
380,128,27096,2,0,L|276:212,1,120
272,224,27870,2,0,L|156:308,1,120
148,128,28645,2,0,L|256:208,1,120
328,204,29419,5,0,0:0:0:0:
424,200,29806,1,0,0:0:0:0:
372,120,30193,1,0,0:0:0:0:
276,120,30580,1,0,0:0:0:0:
208,188,30967,2,0,L|92:256,1,120
92,284,31741,2,0,L|204:212,1,120
144,212,32516,6,0,P|240:160|156:116,1,240
244,168,33677,1,0,0:0:0:0:
340,168,34064,2,0,L|436:252,1,120
392,104,34838,1,0,0:0:0:0:
296,100,35225,1,0,0:0:0:0:
392,104,35612,1,0,0:0:0:0:
316,160,35999,2,0,L|208:232,1,120
120,100,36774,2,0,L|240:100,1,120
336,108,37548,1,0,0:0:0:0:
432,108,37935,1,0,0:0:0:0:
336,108,38322,1,0,0:0:0:0:
268,176,38709,6,0,L|380:108,2,120
336,244,39870,1,0,0:0:0:0:
240,244,40258,2,0,L|144:320,2,120
176,172,41419,1,0,0:0:0:0:
272,172,41806,2,0,L|368:256,1,120
456,248,42580,1,0,0:0:0:0:
360,248,42967,1,0,0:0:0:0:
412,168,43354,1,0,0:0:0:0:
316,172,43741,1,0,0:0:0:0:
264,252,44129,1,0,0:0:0:0:
360,248,44516,1,0,0:0:0:0:
316,172,44903,6,0,P|236:268|316:328,1,240
384,280,46064,2,0,L|272:352,1,120
168,296,46838,1,0,0:0:0:0:
128,208,47225,2,0,B|232:152|160:120|328:72,1,240
256,192,48387,12,0,50710,0:0:0:0:
436,256,51096,5,0,0:0:0:0:
392,168,51483,2,0,L|308:168,2,60
336,248,52258,2,0,L|208:248,1,120
184,156,53032,2,0,L|244:160,2,60
104,104,53806,2,0,P|180:80|220:104,1,120
304,124,54580,2,0,L|376:128,2,60
364,200,55354,2,0,L|240:200,1,120
224,108,56129,5,0,0:0:0:0:
156,40,56516,1,0,0:0:0:0:
84,104,56903,1,0,0:0:0:0:
60,196,57290,2,0,P|152:300|228:244,1,240
264,176,58451,1,0,0:0:0:0:
168,180,58838,2,0,P|240:284|336:244,1,240
404,192,59999,2,0,L|312:104,1,120
260,240,60967,1,0,0:0:0:0:
148,148,61548,2,0,L|56:252,1,120
244,316,62516,2,0,L|400:208,1,180
440,132,63483,5,0,0:0:0:0:
344,136,63870,1,0,0:0:0:0:
248,144,64258,2,0,L|120:144,1,120
68,220,65032,1,0,0:0:0:0:
164,216,65419,1,0,0:0:0:0:
260,216,65806,2,0,L|328:216,2,60
164,216,66580,6,0,L|64:112,1,120
160,72,67354,1,0,0:0:0:0:
80,128,67741,1,0,0:0:0:0:
160,180,68129,1,0,0:0:0:0:
112,264,68516,2,0,L|176:264,1,60
188,308,68903,2,0,L|256:308,1,60
276,268,69290,1,0,0:0:0:0:
372,264,69677,6,0,P|432:220|328:136,1,240
244,128,70838,1,0,0:0:0:0:
148,144,71225,1,0,0:0:0:0:
64,192,71612,1,0,0:0:0:0:
152,224,71999,2,0,L|276:224,1,120
264,128,72774,2,0,B|492:124|640:216|456:324|76:312,1,720
96,216,75483,6,0,L|176:216,1,60
204,212,75870,1,0,0:0:0:0:
312,204,76258,1,0,0:0:0:0:
404,172,76645,1,0,0:0:0:0:
344,100,77032,1,0,0:0:0:0:
248,92,77419,2,0,L|124:96,1,120
88,184,78193,2,0,L|24:184,2,60
164,124,78967,6,0,L|284:124,1,120
332,132,79548,1,0,0:0:0:0:
376,148,79741,1,0,0:0:0:0:
452,208,80129,1,0,0:0:0:0:
396,288,80516,1,0,0:0:0:0:
304,256,80903,2,0,L|220:256,1,60
236,208,81290,2,0,L|160:208,1,60
156,164,81677,1,0,0:0:0:0:
208,80,82064,6,0,L|336:80,1,120
420,104,82838,1,0,0:0:0:0:
352,172,83225,1,0,0:0:0:0:
304,172,83419,1,0,0:0:0:0:
256,172,83612,1,0,0:0:0:0:
160,168,83999,2,0,L|32:164,1,120
112,100,84774,1,0,0:0:0:0:
200,56,85161,2,0,P|444:144|392:328,1,480
364,328,86903,1,0,0:0:0:0:
312,320,87096,2,0,L|184:320,1,120
148,284,87677,1,0,0:0:0:0:
100,276,87870,1,0,0:0:0:0:
80,180,88258,6,0,L|216:180,1,120
296,188,89032,1,0,0:0:0:0:
392,184,89419,1,0,0:0:0:0:
296,188,89806,2,0,L|152:192,1,120
132,168,90387,1,0,0:0:0:0:
108,124,90580,2,0,L|24:124,2,60
204,124,91354,5,0,0:0:0:0:
300,116,91741,2,0,L|424:116,2,120
220,172,92903,1,0,0:0:0:0:
132,212,93290,2,0,L|216:212,1,60
184,260,93677,2,0,L|268:264,1,60
272,224,94064,1,0,0:0:0:0:
368,208,94451,6,0,P|312:92|208:92,1,240
188,128,95419,1,0,0:0:0:0:
164,172,95612,2,0,L|32:172,2,120
260,168,96774,1,0,0:0:0:0:
308,172,96967,1,0,0:0:0:0:
356,180,97161,1,0,0:0:0:0:
452,176,97548,2,0,P|340:316|64:252,1,480
84,216,99290,1,0,0:0:0:0:
132,160,99483,2,0,L|208:164,1,60
240,156,99870,1,0,0:0:0:0:
284,140,100064,1,0,0:0:0:0:
328,124,100258,1,0,0:0:0:0:
364,212,100645,6,0,L|488:208,2,120
308,288,101806,1,0,0:0:0:0:
260,292,101999,1,0,0:0:0:0:
212,284,102193,2,0,L|84:280,1,120
64,188,102967,2,0,L|0:188,2,60
128,116,103741,2,0,L|252:116,1,120
292,132,104322,1,0,0:0:0:0:
336,152,104516,2,0,L|464:152,1,120
432,244,105290,1,0,0:0:0:0:
392,216,105483,2,0,L|328:216,1,60
316,260,105870,2,0,L|256:256,1,60
248,208,106258,2,0,L|168:200,1,60
108,148,106838,6,0,P|216:72|328:120,1,240
400,140,107999,1,0,0:0:0:0:
440,164,108193,1,0,0:0:0:0:
476,196,108387,1,0,0:0:0:0:
460,240,108580,1,0,0:0:0:0:
416,268,108774,2,0,L|284:268,1,120
256,192,109935,12,0,112644,0:0:0:0:
424,276,125419,6,0,B|344:212|368:156|244:104,1,251.999992309571
180,100,126967,2,0,P|80:204|148:252,1,251.999992309571
188,280,128516,2,0,B|316:256|280:168|368:112,1,251.999992309571
424,148,130064,2,0,P|408:224|328:292,1,167.999994873047
280,264,131225,2,0,L|212:208,1,83.9999974365235
80,120,132387,2,0,L|164:68,1,83.9999974365235
220,68,133161,1,0,0:0:0:0:
288,64,133548,1,0,0:0:0:0:
356,72,133935,1,0,0:0:0:0:
424,188,134709,2,0,P|272:280|196:264,1,251.999992309571
144,248,136258,6,0,L|88:248,1,41.9999987182618
68,252,136645,1,0,0:0:0:0:
80,220,136838,2,0,L|132:220,1,41.9999987182618
156,224,137225,1,0,0:0:0:0:
188,236,137419,1,0,0:0:0:0:
284,272,137806,6,0,L|404:272,1,120
444,244,138387,1,0,0:0:0:0:
448,196,138580,2,0,L|332:152,1,120
240,144,139354,2,0,L|116:140,1,120
72,148,139935,2,0,L|4:144,3,60
88,200,140903,5,0,0:0:0:0:
184,204,141290,2,0,L|308:208,1,120
400,208,142064,2,0,L|472:216,2,60
320,260,142838,2,0,L|192:256,1,120
148,252,143419,1,0,0:0:0:0:
100,252,143612,1,0,0:0:0:0:
40,176,143999,6,0,P|76:96|228:56,1,240
308,64,145161,2,0,L|380:64,1,60
416,68,145548,1,0,0:0:0:0:
472,144,145935,1,0,0:0:0:0:
396,204,146322,1,0,0:0:0:0:
300,208,146709,2,0,L|172:208,1,120
116,136,147483,6,0,L|56:136,2,60
176,208,148258,2,0,L|112:208,2,60
244,140,149032,2,0,L|180:140,2,60
292,132,149612,2,0,L|368:132,1,60
400,136,149999,1,0,0:0:0:0:
432,172,150193,1,0,0:0:0:0:
440,268,150580,6,0,L|308:264,1,120
272,276,151161,1,0,0:0:0:0:
232,304,151354,1,0,0:0:0:0:
136,300,151741,1,0,0:0:0:0:
96,224,152129,2,0,L|228:224,1,120
248,188,152709,1,0,0:0:0:0:
272,144,152903,2,0,L|124:148,1,120
112,60,153677,5,0,0:0:0:0:
208,60,154064,1,0,0:0:0:0:
304,64,154451,2,0,L|376:76,1,60
408,92,154838,1,0,0:0:0:0:
456,92,155032,1,0,0:0:0:0:
460,140,155225,2,0,L|384:140,1,60
352,148,155612,2,0,L|288:152,3,60
244,152,156387,2,0,L|120:152,1,120
40,104,157161,2,0,L|180:88,1,120
248,52,157935,5,0,0:0:0:0:
344,68,158322,1,0,0:0:0:0:
424,124,158709,1,0,0:0:0:0:
476,204,159096,1,0,0:0:0:0:
464,300,159483,2,0,P|248:336|40:172,1,480
112,116,161419,6,0,L|240:120,1,120
328,112,162193,1,0,0:0:0:0:
424,116,162580,1,0,0:0:0:0:
100,104,164129,1,0,0:0:0:0:
400,112,165677,1,0,0:0:0:0:
216,116,167225,1,0,0:0:0:0:
408,116,167999,2,0,L|288:116,1,120
192,116,168774,1,0,0:0:0:0:
56,252,169548,2,0,L|192:252,1,120
272,260,170322,2,0,L|400:260,1,120
456,188,171096,1,0,0:0:0:0:
408,104,171483,1,0,0:0:0:0:
324,56,171870,2,0,P|72:168|116:332,1,480
440,320,174967,6,0,B|300:256|208:160|344:136|156:96,1,360
104,168,176516,2,0,P|252:112|248:264,1,360
176,204,178064,2,0,P|272:320|464:256,1,360
464,176,179612,2,0,L|216:104,1,240
136,104,180774,1,0,0:0:0:0:
80,180,181161,2,0,B|196:184|232:264|320:272,1,240
392,248,182322,1,0,0:0:0:0:
456,176,182709,1,0,0:0:0:0:
404,96,183096,1,0,0:0:0:0:
320,52,183483,2,0,L|64:48,1,240
256,192,184645,12,0,187355,0:0:0:0:
424,240,196645,6,0,L|348:240,1,60
336,204,197032,2,0,L|268:204,1,60
228,208,197419,1,0,0:0:0:0:
132,208,197806,1,0,0:0:0:0:
60,168,198193,6,0,L|128:164,1,60
168,156,198580,2,0,L|112:112,1,60
84,88,198967,2,0,L|156:84,1,60
192,84,199354,1,0,0:0:0:0:
284,56,199741,6,0,L|364:56,1,60
372,96,200129,2,0,L|444:96,1,60
476,156,200516,2,0,L|352:156,1,120
260,172,201290,6,0,L|388:172,1,120
424,188,201870,1,0,0:0:0:0:
452,228,202064,1,0,0:0:0:0:
444,276,202258,2,0,L|360:280,1,60
288,280,202838,6,0,L|156:284,1,120
108,212,203612,1,0,0:0:0:0:
192,168,203999,1,0,0:0:0:0:
208,72,204387,2,0,L|80:72,1,120
40,156,205161,1,0,0:0:0:0:
88,156,205354,1,0,0:0:0:0:
136,156,205548,1,0,0:0:0:0:
196,228,205935,6,0,L|328:224,1,120
400,180,206709,1,0,0:0:0:0:
312,140,207096,1,0,0:0:0:0:
248,68,207483,2,0,L|184:68,1,60
168,112,207870,2,0,L|232:112,1,60
276,112,208258,1,0,0:0:0:0:
324,116,208451,1,0,0:0:0:0:
372,116,208645,1,0,0:0:0:0:
440,184,209032,6,0,L|368:184,1,60
332,188,209419,1,0,0:0:0:0:
332,188,209612,1,0,0:0:0:0:
284,196,209806,2,0,L|360:196,1,60
392,196,210193,1,0,0:0:0:0:
392,196,210387,1,0,0:0:0:0:
428,228,210580,2,0,L|348:228,1,60
320,228,210967,1,0,0:0:0:0:
272,232,211161,1,0,0:0:0:0:
224,228,211354,2,0,L|100:232,1,120
72,184,212129,6,0,L|144:184,1,60
180,188,212516,1,0,0:0:0:0:
180,188,212709,1,0,0:0:0:0:
228,196,212903,2,0,L|152:196,1,60
120,196,213290,1,0,0:0:0:0:
120,196,213484,1,0,0:0:0:0:
84,228,213677,2,0,L|164:228,1,60
192,228,214064,1,0,0:0:0:0:
240,232,214258,1,0,0:0:0:0:
288,228,214451,2,0,L|412:232,1,120
436,140,215225,6,0,L|372:140,1,60
328,140,215612,2,0,L|260:140,1,60
220,140,215999,1,0,0:0:0:0:
172,140,216193,1,0,0:0:0:0:
200,100,216387,2,0,L|272:100,1,60
276,144,216774,2,0,L|336:144,1,60
384,144,217161,1,0,0:0:0:0:
384,144,217354,1,0,0:0:0:0:
432,144,217548,1,0,0:0:0:0:
480,144,217741,1,0,0:0:0:0:
432,144,217935,1,0,0:0:0:0:
428,240,218322,6,0,L|364:240,1,60
320,240,218709,2,0,L|252:240,1,60
212,240,219096,1,0,0:0:0:0:
164,240,219290,1,0,0:0:0:0:
192,200,219484,2,0,L|264:200,1,60
268,244,219871,2,0,L|328:244,1,60
376,244,220258,1,0,0:0:0:0:
376,244,220451,1,0,0:0:0:0:
424,244,220645,1,0,0:0:0:0:
472,244,220838,1,0,0:0:0:0:
424,244,221032,1,0,0:0:0:0:
328,244,221419,1,0,0:0:0:0:
