osu file format v9

[General]
AudioFilename: tiger ED.mp3
AudioLeadIn: 0
PreviewTime: 45349
Countdown: 1
SampleSet: Normal
StackLeniency: 0.7
Mode: 0
LetterboxInBreaks: 1

[Editor]
Bookmarks: 15349,35774,45987,56200,66412,76625,86838
DistanceSpacing: 0.8
BeatDivisor: 2
GridSize: 8

[Metadata]
Title:Hoshi no Sumika
Artist:Aobozu
Creator:Jarby
Version:Normal
Source:Tiger & Bunny
Tags:randomjibberish kana KanaRin ending

[Difficulty]
HPDrainRate:5
CircleSize:3
OverallDifficulty:5
ApproachRate:5
SliderMultiplier:1.2
SliderTickRate:1

[Events]
//Background and Video events
0,0,"tiger.jpg"
Video,0,"tiger.avi"
//Break Periods
2,35984,39052
//Storyboard Layer 0 (Background)
//Storyboard Layer 1 (Fail)
//Storyboard Layer 2 (Pass)
//Storyboard Layer 3 (Foreground)
//Storyboard Sound Samples
//Background Colour Transformations
3,100,163,162,255

[TimingPoints]
40,319.148936170213,4,1,0,75,1,0
45997,-100,4,1,0,75,0,1
66383,-100,4,1,0,75,0,0
66422,-100,4,1,0,75,0,1
86848,-100,4,2,0,20,0,0

[HitObjects]
64,80,15359,5,4
64,80,15518,1,0
128,152,15837,1,2
80,232,16157,2,0,B|167:262|256:232,1,180,0|0
392,184,17114,1,2
176,88,17912,5,0
280,192,18391,1,2
176,296,18869,1,8
464,312,19827,6,2,B|395:316|352:280,1,120,2|8
432,224,20465,1,0
392,136,20784,1,0
392,136,20944,1,2
288,240,21422,2,0,B|160:280|64:192,1,240,8|8
64,96,22380,1,2
160,112,22699,1,8
256,128,23018,5,0
328,248,23497,1,2
184,248,23976,1,8
184,248,24135,1,8
184,248,24295,1,8
308,44,25093,5,4
448,80,25571,1,0
448,80,25730,1,0
384,152,26049,1,2
432,232,26369,2,0,B|345:262|256:232,1,180,0|0
120,184,27326,1,2
336,88,28124,5,0
232,192,28603,1,2
336,296,29081,1,8
48,312,30039,6,2,B|117:316|160:280,1,120,2|8
80,224,30677,1,0
120,136,30996,1,0
120,136,31156,1,2
224,240,31634,2,0,B|352:280|448:192,1,240,8|8
448,96,32592,1,2
352,112,32911,1,8
256,128,33230,5,0
184,248,33709,1,2
328,248,34188,1,8
328,248,34347,1,2
384,112,34827,5,8
304,64,35146,1,0
208,64,35465,1,8
128,112,35784,1,4
176,40,40252,5,0
112,112,40571,1,0
208,128,40891,1,4
144,200,41210,1,0
80,272,41529,1,8
176,288,41848,2,2,B|248:304|296:264,1,120,2|4
336,48,42805,5,0
400,120,43124,1,0
304,136,43444,1,4
368,208,43763,1,0
432,280,44082,1,8
336,296,44401,2,2,B|264:312|216:272,1,120,2|4
24,128,45359,5,2
24,128,45519,1,0
0,32,45837,2,0,B|96:0|176:40,1,180,4|8
216,64,46476,2,2,B|248:160|192:240,1,180,2|8
168,280,47114,2,2,B|248:336|344:320,1,180,2|8
432,304,47912,1,0
166,192,48550,6,2,B|346:192,1,180,2|0
304,104,49348,1,8
208,104,49667,1,2
488,128,50465,5,2
488,128,50625,1,8
512,32,50944,2,2,B|416:0|336:40,1,180,2|8
296,64,51582,2,2,B|264:160|320:240,1,180,2|8
344,280,52220,2,2,B|264:336|168:320,1,180,2|8
256,148,53337,5,8
168,104,53657,2,2,B|192:32|256:17|320:32|344:104,1,240,2|8
328,248,54774,5,0
328,248,54933,1,2
184,248,55412,1,8
184,248,55571,1,2
256,72,56210,1,4
296,260,56848,6,8,B|364:316|468:300,2,180,2|4|8
336,232,57965,1,0
424,192,58284,1,8
296,124,58763,6,2,B|364:68|468:84,1,180,6|2
472,180,59561,1,8
384,220,59880,1,4
332,352,60359,5,8
256,292,60678,1,2
180,352,60997,1,8
164,256,61316,2,2,B|136:148|256:67|376:148|348:256,1,360,2|8
80,144,63231,5,2
112,56,63550,1,8
208,32,63869,1,6
304,32,64188,1,12
400,56,64508,1,6
432,144,64827,1,12
488,256,65784,5,2
488,256,65944,1,8
512,352,66263,2,0,B|416:384|336:344,1,180,4|8
296,320,66901,2,2,B|264:224|320:144,1,180,2|8
344,104,67539,2,2,B|264:48|168:64,1,180,2|8
80,80,68337,1,0
346,192,68975,6,2,B|166:192,1,180,2|0
208,280,69773,1,8
304,280,70092,1,2
24,256,70890,5,2
24,256,71050,1,8
0,352,71369,2,2,B|96:384|176:344,1,180,2|8
216,320,72007,2,2,B|248:224|192:144,1,180,2|8
168,104,72645,2,2,B|248:48|344:64,1,180,2|8
256,236,73762,5,8
344,280,74082,2,2,B|320:352|256:367|192:352|168:280,1,240,2|8
184,136,75199,5,0
184,136,75358,1,2
328,136,75837,1,8
328,136,75996,1,2
256,312,76635,1,4
216,124,77273,6,8,B|148:68|44:84,2,180,2|4|8
176,152,78390,1,0
88,192,78709,1,8
216,260,79188,6,2,B|148:316|44:300,1,180,6|2
40,204,79986,1,8
128,164,80305,1,4
180,32,80784,5,8
256,92,81103,1,2
332,32,81422,1,8
348,128,81741,2,2,B|376:236|256:317|136:236|164:128,1,360,2|8
56,288,83337,5,8
120,360,83656,1,2
176,280,83975,1,8
256,336,84294,1,6
336,280,84614,1,12
392,360,84933,1,6
456,288,85252,1,12
256,192,85571,12,0,86848
