osu file format v9

[General]
AudioFilename: tiger ED.mp3
AudioLeadIn: 0
PreviewTime: 45349
Countdown: 1
SampleSet: Normal
StackLeniency: 0.7
Mode: 0
LetterboxInBreaks: 1

[Editor]
Bookmarks: 15349,35774,45987,56200,66412,76625,79188,86838
DistanceSpacing: 0.8
BeatDivisor: 2
GridSize: 4

[Metadata]
Title:Hoshi no Sumika
Artist:Aobozu
Creator:Jarby
Version:Easy
Source:Tiger & Bunny
Tags:randomjibberish kana KanaRin ending

[Difficulty]
HPDrainRate:3
CircleSize:3
OverallDifficulty:3
ApproachRate:3
SliderMultiplier:0.8
SliderTickRate:1

[Events]
//Background and Video events
0,0,"tiger.jpg"
Video,0,"tiger.avi"
//Break Periods
2,35784,39451
//Storyboard Layer 0 (Background)
//Storyboard Layer 1 (Fail)
//Storyboard Layer 2 (Pass)
//Storyboard Layer 3 (Foreground)
//Storyboard Sound Samples
//Background Colour Transformations
3,100,163,162,255

[TimingPoints]
40,319.148936170213,4,1,0,75,1,0
45997,-100,4,1,0,75,0,1
66383,-100,4,1,0,75,0,0
66422,-100,4,1,0,75,0,1
86848,-100,4,2,0,20,0,0

[HitObjects]
280,24,15359,6,0,B|344:24|385:72,1,120,4|2
232,112,16635,2,0,B|168:111|127:63,1,120,0|2
120,224,17912,5,0
184,296,18391,1,2
248,368,18869,1,8
328,192,19827,6,2,B|352:152|328:88,1,80,2|8
296,64,20465,2,0,B|232:64|191:112,1,120,0|2
160,200,21422,2,0,B|161:286|227:342,2,160,8|2|0
224,184,23018,5,0
312,232,23497,1,2
400,280,23975,1,8
336,64,25093,6,4,B|256:48|176:88,1,160,4|0
120,112,26050,1,2
152,168,26369,2,4,B|232:152|312:192,1,160,0|0
368,216,27326,1,2
336,376,28125,5,0
256,328,28603,1,2
176,280,29082,1,8
64,120,30040,6,2,B|168:72,1,80,2|8
200,64,30678,2,0,B|272:56|312:128,1,120,0|2
312,208,31635,2,8,B|256:280|160:264,1,160,0|2
56,208,32912,1,8
88,152,33231,5,0
176,112,33710,1,2
264,72,34188,2,8,B|352:88|400:200,1,160,8|0
168,128,40891,6,0,B|176:72|256:24|336:72|344:128,2,240,4|2|0
168,192,43125,1,0
168,256,43444,2,0,B|176:312|256:360|336:312|344:256,2,240,4|2|0
256,192,45837,5,4
320,80,46476,1,2
192,80,47114,2,8,B|120:88|96:152,2,120,2|8|0
184,176,48550,5,2
256,240,49029,2,0,B|256:344|360:352,1,160,0|2
336,176,50465,5,2
248,144,50944,1,0
128,104,51583,1,2
120,232,52221,2,8,B|141:289|213:297,2,120,2|8|0
200,176,53657,5,2
256,144,53976,1,8
312,176,54295,1,2
336,308,54933,2,0,B|168:308,2,160,2|8|4
352,244,56529,6,8,B|320:220|256:220|192:220|160:244,1,200,8|4
256,144,57965,1,2
256,80,58284,1,8
168,136,58763,6,0,B|168:216|256:269|344:216|344:136,1,280,4|4
320,40,60359,1,8
192,40,60997,1,8
168,96,61316,5,2
144,192,61795,1,0
168,288,62274,1,2
352,288,63231,5,2
408,264,63550,1,8
352,232,63869,1,4
408,120,64508,1,4
352,88,64827,1,6
408,56,65146,1,4
256,96,65784,5,0
256,192,66263,1,4
192,304,66902,1,2
320,304,67540,2,8,B|392:296|416:232,2,120,2|8|0
328,208,68976,5,2
256,144,69454,2,0,B|256:40|152:32,1,160,0|2
176,208,70891,5,2
264,240,71370,1,0
384,280,72009,1,2
392,152,72647,2,8,B|370:94|298:86,2,120,2|8|0
312,208,74083,5,2
256,240,74402,1,8
200,208,74721,1,2
176,76,75359,2,0,B|344:76,2,160,2|8|4
160,140,76955,6,8,B|192:164|256:164|320:164|352:140,1,200,8|4
256,240,78391,1,2
256,304,78710,1,8
344,248,79188,6,0,B|344:168|256:115|168:168|168:248,1,280,4|4
192,344,80785,1,8
320,344,81423,1,8
336,280,81742,5,2
312,184,82221,1,0
288,88,82700,1,2
224,88,83018,5,0
200,184,83497,1,0
176,280,83976,1,2
256,192,84295,12,0,86848
