osu file format v9

[General]
AudioFilename: kibou no uta.mp3
AudioLeadIn: 0
PreviewTime: 48508
Countdown: 0
SampleSet: Normal
StackLeniency: 0.3
Mode: 0
LetterboxInBreaks: 1

[Editor]
DistanceSpacing: 1
BeatDivisor: 4
GridSize: 4

[Metadata]
Title:Kibou no Uta (Full Ver.)
Artist:Aoba Ringo
Creator:yamao0404
Version:Hard
Source:Trample on Schatten!!
Tags:

[Difficulty]
HPDrainRate:5
CircleSize:4
OverallDifficulty:5
ApproachRate:6
SliderMultiplier:1.4
SliderTickRate:1

[Events]
//Background and Video events
0,0,"shatten.png"
//Break Periods
2,70031,79448
2,133698,151281
//Storyboard Layer 0 (Background)
//Storyboard Layer 1 (Fail)
//Storyboard Layer 2 (Pass)
//Storyboard Layer 3 (Foreground)
//Storyboard Sound Samples
//Background Colour Transformations
3,100,163,162,255

[TimingPoints]
5831.43531617988,333.333333333333,4,1,1,60,1,0
11081,-100,4,2,1,60,0,0
11248,-100,4,1,1,60,0,0
11581,-100,4,2,1,60,0,0
11748,-100,4,1,1,60,0,0
12248,-100,4,2,1,60,0,0
12414,-100,4,1,1,60,0,0
16748,-100,4,1,2,60,0,0
17248,-100,4,2,2,60,0,0
17748,-100,4,1,2,60,0,0
19081,-100,4,2,2,60,0,0
19248,-100,4,1,2,60,0,0
19914,-100,4,2,2,60,0,0
20414,-100,4,1,2,60,0,0
21748,-100,4,2,2,60,0,0
21914,-100,4,1,2,60,0,0
22581,-100,4,2,2,60,0,0
23081,-100,4,1,2,60,0,0
27081,-100,4,2,2,60,0,0
27248,-100,4,1,2,60,0,0
27914,-100,4,2,2,60,0,0
28081,-100,4,1,2,60,0,0
28248,-100,4,2,2,60,0,0
28414,-100,4,1,2,60,0,0
29748,-100,4,2,2,60,0,0
29914,-100,4,1,2,60,0,0
30581,-100,4,2,2,60,0,0
30748,-100,4,1,2,60,0,0
30914,-100,4,2,2,60,0,0
31081,-100,4,1,2,60,0,0
32414,-100,4,2,2,60,0,0
32581,-100,4,1,2,60,0,0
43081,-100,4,2,2,60,0,0
43248,-100,4,1,2,60,0,0
43581,-100,4,2,2,60,0,0
43748,-100,4,1,2,60,0,0
48498,-100,4,1,1,60,0,1
59081,-100,4,2,1,60,0,1
59248,-100,4,1,1,60,0,1
67498,-100,4,1,1,60,0,0
80414,-100,4,2,2,60,0,0
80581,-100,4,1,1,60,0,0
81248,-100,4,2,2,60,0,0
81748,-100,4,1,1,60,0,0
83081,-100,4,2,2,60,0,0
83248,-100,4,1,1,60,0,0
83914,-100,4,2,2,60,0,0
84414,-100,4,1,1,60,0,0
85748,-100,4,2,2,60,0,0
85914,-100,4,1,1,60,0,0
86581,-100,4,2,2,60,0,0
87081,-100,4,1,1,60,0,0
91081,-100,4,2,2,60,0,0
91248,-100,4,1,1,60,0,0
91914,-100,4,2,2,60,0,0
92414,-100,4,1,1,60,0,0
93748,-100,4,2,2,60,0,0
93914,-100,4,1,1,60,0,0
94581,-100,4,2,2,60,0,0
94748,-100,4,1,1,60,0,0
94914,-100,4,2,2,60,0,0
95081,-100,4,1,1,60,0,0
96414,-100,4,2,2,60,0,0
96581,-100,4,1,1,60,0,0
97248,-100,4,2,2,60,0,0
97748,-100,4,1,1,60,0,0
107081,-100,4,2,2,60,0,0
107248,-100,4,1,1,60,0,0
108248,-100,4,2,2,60,0,0
108414,-100,4,1,1,60,0,0
112498,-100,4,1,1,60,0,1
131581,-100,4,1,1,60,0,0
152248,-100,4,2,1,60,0,0
157914,-100,4,1,1,60,0,0
158248,-100,4,2,1,60,0,0
158414,-100,4,1,1,60,0,0
164498,-100,4,1,1,60,0,1
183664,-100,4,1,1,60,0,0
191081,-100,4,2,1,60,0,0
191248,-100,4,1,1,60,0,0
191581,-100,4,2,1,60,0,0
191748,-100,4,1,1,60,0,0
192248,-100,4,2,1,60,0,0
192414,-100,4,1,1,60,0,0
201748,-100,4,2,1,5,0,0

[Colours]
Combo1 : 255,0,255
Combo2 : 0,128,255
Combo3 : 5,5,240
Combo4 : 128,255,255

[HitObjects]
256,192,5831,2,0,B|264:104|200:72,1,140,0|8
64,48,6498,1,0
144,168,6831,1,8
8,192,7164,2,0,B|16:280|104:296,1,140,0|8
232,296,7831,2,0,B|304:296,2,70,0|0|8
192,160,8498,6,0,B|184:80|248:32,1,140,0|8
280,168,9164,2,0,B|304:96|384:80,1,140,0|8
344,216,9831,2,0,B|400:160|472:200,1,140,0|8
424,328,10498,2,0,B|496:328,2,70,0|0|8
316,240,11164,6,0,B|296:160|228:136,1,140,4|0
276,84,11664,2,0,B|348:124|368:192,1,140,4|0
256,272,12331,2,0,B|248:188|184:180|97:168,1,210,4|0
96,32,13164,2,0,B|166:32,2,70
256,192,13831,12,0,16498
464,48,16831,6,0,B|392:8|328:48,1,140
272,88,17331,1,8
400,144,17664,2,0,B|472:168|472:256,1,140,8|0
440,320,18164,2,0,B|472:344|504:320,2,70
392,264,18664,2,0,B|328:304|256:264,1,140
259,266,19164,1,8
128,320,19498,6,0,B|56:256|56:128,1,210,0|8
168,40,20331,1,8
352,144,20831,2,0,B|392:160|424:144,2,70
288,112,21331,2,0,B|240:176|288:240,1,140
288,240,21831,1,8
424,248,22164,6,0,B|456:232|472:192,2,70
360,272,22664,1,8
216,272,22998,2,0,B|152:332|92:272,1,140,8|0
152,232,23498,2,0,B|152:88,1,140
284,52,24164,1,0
284,52,24498,6,0,B|344:-4|412:60,1,140,2|0
408,196,25164,2,0,B|344:256|284:196,1,140
172,112,25831,2,0,B|108:56|44:112,1,140,2|0
32,180,26331,2,0,B|32:324,1,140,2|2
32,320,26831,1,2
168,360,27164,1,8
192,228,27498,2,0,B|256:176|320:232,1,140
288,296,27998,2,0,B|320:316|356:296,1,70
392,236,28331,2,0,B|436:164|392:100,1,140,8|0
344,56,28831,1,0
256,164,29164,1,0
256,164,29331,1,0
464,128,29831,1,8
344,56,30164,6,0,B|272:84|208:56,1,140
140,32,30664,2,0,B|100:40|80:76,1,70
152,100,30998,2,0,B|88:148|88:228|152:284,1,210,8|0
192,336,31664,2,0,B|160:368|104:344,2,70
220,272,32164,2,0,B|276:328|344:272,1,140,0|8
328,124,32831,5,0
188,120,33164,1,0
124,144,33331,2,0,B|108:104|132:72,1,70
192,44,33664,2,0,B|256:-16|316:44,1,140
256,84,34164,2,0,B|256:168,1,70
352,256,34664,1,0
448,152,34998,1,0
448,152,35164,6,0,B|448:68|384:36,1,140,2|0
244,36,35831,2,0,B|176:36,2,70,2|0|0
384,36,36498,1,2
500,116,36831,1,2
504,256,37164,1,2
392,344,37498,1,4
252,344,37831,6,0,B|180:344,2,70
260,204,38498,2,0,B|300:196|332:204,2,70
252,344,39164,2,0,B|176:320|168:240,1,140
164,172,39664,2,0,B|184:88|264:76,1,140
464,76,40498,6,0,B|396:76,2,70
396,192,41164,2,0,B|324:192,1,70
256,192,41498,1,0
116,192,41831,2,0,B|188:192,1,70
256,192,42164,2,0,B|256:264,1,70
328,264,42498,2,0,B|400:264,2,70
188,268,43164,6,0,B|128:308|52:268,1,140,4|0
80,204,43664,2,0,B|16:144|80:80,1,140,4|0
148,80,44164,1,0
148,80,44331,1,4
304,248,44831,2,0,B|364:312|428:248,1,140
368,124,45498,1,0
256,192,45831,12,0,46998
256,192,47164,5,0
256,192,47331,1,0
256,192,47498,1,0
256,192,47664,1,4
440,88,48164,6,0,B|440:128,2,35
440,88,48498,2,0,B|380:48|304:48,1,140,0|8
168,44,49164,1,0
168,44,49498,2,0,B|96:80|96:156,1,140,8|0
96,296,50164,1,8
236,296,50498,2,0,B|236:368,2,70,0|0|8
236,156,51164,1,0
316,44,51498,2,0,B|384:84|448:44,1,140,8|0
448,184,52164,2,0,B|380:144|312:180,1,140,8|0
324,320,52831,2,0,B|256:356|188:320,1,140,8|0
68,252,53498,1,8
172,160,53831,5,0
68,68,54164,2,0,B|68:156,2,80,8|0|0
184,32,54831,1,8
324,36,55164,2,0,B|396:36,2,70
392,156,55831,2,0,B|324:156,1,70
252,156,56164,2,0,B|184:156,2,70,8|0|0
324,276,56831,1,8
184,276,57164,2,0,B|144:284|112:276,1,70
216,180,57664,6,0,B|284:156|312:84,1,140
360,136,58164,2,0,B|312:84,1,70
248,60,58498,2,0,B|220:28|184:28,1,70,2|0
192,100,58831,2,0,B|156:100|124:124,1,70,2|0
76,172,59164,6,0,B|36:240|76:312,1,140,4|8
212,308,59831,2,0,B|256:240|220:172,1,140,0|8
152,52,60498,1,0
292,52,60831,2,0,B|360:52,2,70,8|0|0
152,52,61498,2,0,B|84:52,1,70,8|0
76,120,61831,6,0,B|140:172|204:120,1,140
203,121,62331,1,4
312,32,62664,1,4
416,128,62998,2,0,B|364:96|312:128,2,105
460,180,63664,2,0,B|476:216|460:252,2,70
392,196,64164,1,0
320,84,64498,6,0,B|256:36|188:84,1,140
256,204,65164,1,0
196,328,65498,2,0,B|256:384|324:328,1,140
256,204,66164,1,0
116,204,66498,2,0,B|44:204,2,70
116,204,66998,1,0
256,192,67164,12,0,69831
256,192,80498,5,8
256,48,80831,2,0,B|196:96|128:48,1,140
128,48,81331,1,8
28,148,81664,1,8
136,240,81998,1,0
136,240,82164,2,0,B|148:324|236:324,1,140
232,252,82664,2,0,B|316:252|316:160,1,140
316,164,83164,1,8
396,48,83498,6,0,B|316:48,2,80
396,48,83998,1,8
440,180,84331,1,8
492,312,84664,1,0
492,312,84831,2,0,B|428:360|360:316,1,140
320,260,85331,2,0,B|256:212|188:260,1,140
192,256,85831,1,8
68,320,86164,5,0
68,320,86331,2,0,B|32:252|68:184,1,140,0|8
92,48,86998,2,0,B|156:96|224:48,1,140,8|0
292,52,87498,1,0
292,52,87664,2,0,B|356:96|424:56,1,140
424,56,88164,1,0
424,196,88498,6,0,B|360:240|292:196,1,140,2|0
200,92,89164,2,0,B|136:128|148:212,1,140
184,348,89831,6,0,B|112:348,2,70,2|0|2
256,348,90331,1,0
328,352,90498,2,0,B|400:352,2,70,2|0|2
256,232,91164,1,8
396,232,91498,1,0
396,232,91664,2,0,B|476:232|476:140,1,140,0|8
356,64,92331,1,8
148,60,92831,2,0,B|72:60,1,70
80,132,93164,2,0,B|152:132,2,70
220,136,93831,1,8
92,196,94164,5,0
92,196,94331,1,0
56,332,94664,2,0,B|88:352|124:332,1,70,8|0
184,296,94998,2,0,B|324:296,1,140,8|0
324,296,95498,1,0
392,172,95831,2,0,B|252:172,1,140
112,168,96498,1,8
52,296,96831,6,0,B|116:340|184:296,1,140
240,256,97331,1,8
372,304,97664,2,0,B|460:256|460:120,1,210,8|0
460,124,98331,1,0
344,44,98664,2,0,B|276:16|204:44,1,140
200,112,99164,2,0,B|136:160|72:112,1,140,2|0
64,252,99831,2,0,B|64:320,2,70,2|0|0
72,112,100498,5,2
184,28,100831,1,2
324,28,101164,1,2
440,112,101498,1,2
428,252,101831,6,0,B|396:180|320:168,1,140
184,168,102498,1,0
76,256,102831,2,0,B|128:180|208:160,1,140
324,168,103498,1,0
256,288,103831,2,0,B|256:356,2,70
256,148,104498,2,0,B|236:72|148:72,1,140
52,168,105164,2,0,B|68:252|152:252,1,140
256,148,105831,6,0,B|396:148,1,140
324,272,106498,2,0,B|324:340,2,70
256,148,107164,6,0,B|116:148,1,140,4|0
116,148,107664,1,0
188,272,107998,1,0
188,272,108164,2,0,B|188:344,1,70,0|4
256,148,108831,1,0
388,92,109164,2,0,B|340:32|268:32,1,140
128,32,109831,1,0
128,172,110164,1,0
128,312,110498,2,0,B|60:312,2,70
256,260,111164,5,0
256,260,111331,1,0
256,260,111498,1,0
256,260,111664,1,4
360,104,112164,6,0,B|360:140,2,35
320,48,112498,2,0,B|256:16|184:48,1,140,0|8
84,144,113164,2,0,B|224:144,1,140,0|8
224,284,113831,2,0,B|84:284,1,140,0|8
84,144,114498,2,0,B|224:144,1,140,0|8
340,224,115164,6,0,B|428:224|440:144,1,140,0|8
440,76,115664,1,0
308,24,115998,2,0,B|376:24,2,70,0|8|0
256,72,116498,1,0
200,28,116664,2,0,B|128:28,2,70,0|8|0
256,72,117164,2,0,B|256:216,1,140,0|8
256,316,117831,5,0
116,300,118164,2,0,B|36:300|24:212,1,140,8|0
160,180,118831,1,8
200,48,119164,2,0,B|148:104|164:212,1,140,0|8
296,220,119831,2,0,B|240:284|172:252,1,140,0|8
68,156,120498,6,0,B|92:88,1,70
152,128,120831,2,0,B|176:64,2,70,8|0|0
128,192,121331,1,0
260,188,121664,6,0,B|188:232|128:192,1,140
100,256,122164,2,0,B|128:192,1,70
152,128,122498,2,0,B|188:112|220:128,1,70
288,124,122831,2,0,B|324:108|356:128,1,70
380,192,123164,5,4
384,332,123498,2,0,B|316:384|256:332,1,140,8|0
256,260,123998,1,0
256,120,124331,2,0,B|184:76|120:124,1,140
124,192,124831,2,0,B|84:192|60:152,1,70
64,88,125164,2,0,B|80:52|120:44,1,70
256,56,125664,5,0
256,56,125831,2,0,B|256:196,1,140,4|0
256,268,126331,1,0
188,148,126664,1,0
328,152,126998,2,0,B|408:152|428:72,1,140,4|0
376,28,127498,1,0
324,72,127664,2,0,B|184:72,1,140
128,28,128164,1,0
80,160,128498,6,0,B|80:240|148:276,1,140
256,188,129164,1,0
256,188,129498,1,0
364,276,129831,2,0,B|424:240|432:160,1,140
320,76,130498,2,0,B|388:76,2,70
180,76,131164,2,0,B|112:76,2,70
256,192,131581,12,0,133498
256,196,152331,5,0
256,124,152498,2,0,B|116:124,1,140
140,264,153164,2,0,B|68:264,2,70,8|0|0
256,340,153831,1,8
256,340,154164,1,0
380,272,154498,2,0,B|452:272,2,70,8|0|8
324,144,155164,1,0
324,144,155498,2,0,B|180:144,1,140,0|8
80,236,156164,1,8
80,236,156331,2,0,B|224:236,1,140,8|0
292,236,156831,2,0,B|432:236,1,140,8|8
292,236,157498,1,8
400,152,157831,6,0,B|368:80|292:76,1,140,4|0
220,76,158331,2,0,B|132:80|112:156,1,140,4|0
116,220,158831,2,0,B|188:220,1,70
396,220,159498,2,0,B|252:220,2,140
396,80,160498,6,0,B|328:80,1,70
256,80,160831,1,0
116,80,161164,2,0,B|188:80,1,70
256,80,161498,1,0
256,220,161831,5,0
256,220,161998,1,0
256,220,162164,1,0
256,220,162331,1,4
256,312,163164,5,0
256,312,163331,1,0
256,312,163498,1,0
256,312,163664,1,4
160,124,164164,6,0,B|116:124,2,35
192,60,164498,2,0,B|256:16|324:60,1,140,0|8
396,176,165164,2,0,B|396:244,2,70
256,172,165831,2,0,B|256:244,2,70,0|0|8
116,168,166498,2,0,B|116:236,2,70,0|0|8
52,292,167164,6,0,B|116:340|184:292,1,140,0|8
181,293,167664,1,0
256,176,167998,1,0
328,56,168331,2,0,B|388:100|460:56,1,140
480,124,168831,1,0
464,192,168998,2,0,B|392:156|328:192,1,140
330,190,169498,1,0
256,308,169831,5,4
116,308,170164,2,0,B|32:308|32:212,1,140,8|0
32,148,170664,2,0,B|104:148,1,70,0|8
172,148,170998,1,0
352,40,171498,5,8
420,40,171664,1,0
492,40,171831,2,0,B|492:116|428:160,1,140,0|8
356,160,172331,1,0
284,160,172498,6,0,B|284:232,1,70
212,232,172831,2,0,B|212:156,1,70,8|0
212,92,173164,2,0,B|144:48|80:96,1,140
80,164,173664,6,0,B|148:208|216:160,1,140
212,92,174164,2,0,B|212:24,2,70,8|0|0
284,92,174664,2,0,B|284:20,2,70,0|8|0
284,164,175164,5,4
424,164,175498,1,8
424,304,175831,2,0,B|360:348|292:304,1,140
240,256,176331,2,0,B|176:200|216:128,1,140
256,76,176831,1,8
328,76,176998,2,0,B|396:76,2,70
256,76,177498,1,0
188,76,177664,6,0,B|120:76,1,70
188,200,178164,2,0,B|120:200,1,70
116,340,178664,2,0,B|256:340,1,140,4|0
360,244,179331,2,0,B|284:244,1,70
220,244,179664,2,0,B|152:244,2,70
256,184,180164,1,0
256,44,180498,6,0,B|332:40|388:84,1,140
387,83,180998,1,0
256,44,181331,1,0
256,116,181498,1,0
256,184,181664,1,0
256,256,181831,2,0,B|172:256|140:192,1,140
256,256,182498,2,0,B|340:256|376:196,1,140
376,128,182998,1,0
376,60,183164,2,0,B|444:60,2,70
256,192,183664,12,0,185498
256,192,185831,6,0,B|264:108|344:100,1,140
452,188,186498,1,0
352,288,186831,1,0
220,328,187164,2,0,B|136:332|108:252,1,140
220,168,187831,2,0,B|292:168,2,70
84,196,188498,6,0,B|64:128|104:56,1,140
156,188,189164,2,0,B|184:108|260:96,1,140
216,232,189831,2,0,B|268:172|344:200,1,140
400,240,190331,1,0
400,240,190498,2,0,B|400:312,2,70
400,100,191164,2,0,B|436:84|472:104,2,70,4|0|0
432,160,191664,2,0,B|392:180|360:152,2,70,4|0|0
352,44,192331,2,0,B|256:108|156:40,1,210,4|0
92,164,193164,2,0,B|24:164,2,70
232,156,193831,6,0,B|204:88,1,70
272,72,194164,2,0,B|340:44,1,70
356,112,194498,2,0,B|384:176,1,70
316,196,194831,2,0,B|244:228,1,70
196,264,195164,2,0,B|124:264,2,70
256,136,195831,5,0
256,136,196164,2,0,B|256:208,1,70
256,192,196498,12,0,201831
