osu file format v14

[General]
AudioFilename: Aoba Ringo - Hirogaru Hoshizora no Shita de.mp3
AudioLeadIn: 0
PreviewTime: 67871
Countdown: 0
SampleSet: Soft
StackLeniency: 0.5
Mode: 0
LetterboxInBreaks: 1
WidescreenStoryboard: 0

[Editor]
DistanceSpacing: 1
BeatDivisor: 4
GridSize: 4
TimelineZoom: 1

[Metadata]
Title:Hirogaru Hoshizora no Shita de
TitleUnicode:広がる星空の下で
Artist:Aoba Ringo
ArtistUnicode:青葉りんご
Creator:Walaaa
Version:Normal
Source:Hoshizora e Kakaru Hashi
Tags:feng anime gal pc game ed ending
BeatmapID:258633
BeatmapSetID:57406

[Difficulty]
HPDrainRate:5
CircleSize:3
OverallDifficulty:5
ApproachRate:6
SliderMultiplier:1.2
SliderTickRate:1

[Events]
//Background and Video events
0,0,"Background.JPG",0,0
//Break Periods
2,96298,102004
2,110211,124613
//Storyboard Layer 0 (Background)
//Storyboard Layer 1 (Fail)
//Storyboard Layer 2 (Pass)
//Storyboard Layer 3 (Foreground)
//Storyboard Sound Samples

[TimingPoints]
446,434.782608695652,4,2,2,70,1,0
17619,-100,4,2,2,30,0,0
19576,-100,4,2,2,70,0,0
20011,-100,4,1,0,70,0,0
20445,-100,4,2,2,70,0,0
66532,-100,4,2,2,30,0,0
67837,-100,4,2,2,5,0,0
68272,-100,4,2,2,90,0,1
80445,-100,4,2,2,30,0,1
81750,-100,4,2,2,5,0,1
82185,-100,4,2,2,90,0,1
94141,-100,4,2,2,30,0,1
96098,-100,4,2,2,70,0,0
125663,-100,4,2,2,90,0,1
137837,-100,4,2,2,30,0,1
139141,-100,4,2,2,5,0,1
139576,-100,4,2,2,90,0,1
151532,-100,4,2,2,30,0,1
153489,-100,4,2,2,90,0,0
167185,-100,4,2,2,30,0,0
170880,-100,4,2,2,5,0,0

[Colours]
Combo1 : 60,255,35
Combo2 : 128,128,255
Combo3 : 255,128,64
Combo4 : 128,0,255
Combo5 : 255,255,0

[HitObjects]
312,152,7402,6,0,B|376:184|376:248,1,120,4|2,0:0|0:0,0:0:0:0:
256,248,8272,1,0,0:0:0:0:
256,248,8489,1,0,0:0:0:0:
136,248,8924,6,0,B|136:144|232:112,1,180,0|2,0:0|0:0,0:0:0:0:
344,72,10011,1,0,0:0:0:0:
344,72,10228,1,0,0:0:0:0:
384,248,10880,6,0,B|384:312|312:336,1,120,4|2,0:0|0:0,0:0:0:0:
264,224,11750,1,0,0:0:0:0:
264,224,11967,1,0,0:0:0:0:
144,232,12402,6,0,B|88:144|144:64,1,180,0|2,0:0|0:0,0:0:0:0:
184,16,13272,1,0,0:0:0:0:
224,64,13489,1,0,0:0:0:0:
264,112,13706,1,0,0:0:0:0:
304,160,13924,1,0,0:0:0:0:
344,208,14141,1,0,0:0:0:0:
320,264,14359,6,0,B|272:312|208:312,1,120,4|2,0:0|0:0,0:0:0:0:
112,248,15228,1,0,0:0:0:0:
112,248,15445,1,0,0:0:0:0:
148,133,15880,6,0,B|217:141|218:216,1,120,0|0,0:0|0:0,0:0:0:0:
218,215,16532,1,2,0:0:0:0:
278,217,16750,2,0,B|278:290|348:298,1,120,0|0,0:0|0:0,0:0:0:0:
347,298,17402,1,2,0:0:0:0:
256,192,17619,12,4,19576,0:0:0:0:
320,88,20011,5,8,0:0:0:0:
208,128,20445,1,0,0:0:0:0:
208,128,20663,1,2,0:0:0:0:
304,200,21098,1,0,0:0:0:0:
304,200,21315,1,4,0:0:0:0:
203,265,21750,5,2,0:0:0:0:
144,256,21967,2,0,B|112:240|112:208,1,60
112,152,22402,2,0,B|112:120|136:96,1,60,0|2,0:0|0:0,0:0:0:0:
184,64,22837,6,0,B|272:64|272:128|360:128,1,180,0|2,0:0|0:0,0:0:0:0:
392,168,23706,1,0,0:0:0:0:
432,216,23924,2,0,B|448:240|448:272,1,60
384,280,24359,2,0,B|368:304|328:304,1,60,2|0,0:0|0:0,0:0:0:0:
274,321,24793,6,0,B|231:362,2,60,0|0|2,0:0|0:0|0:0,0:0:0:0:
287,262,25445,1,0,0:0:0:0:
234,231,25663,2,0,B|250:191|234:167,1,60
180,192,26098,1,2,0:0:0:0:
144,80,26315,2,0,B|200:48|264:64,1,120,0|0,0:0|0:0,0:0:0:0:
320,64,26967,1,2,0:0:0:0:
440,64,27185,1,0,0:0:0:0:
384,168,27619,1,0,0:0:0:0:
384,168,27837,1,2,0:0:0:0:
324,172,28272,6,0,B|308:204|324:232,1,60,4|0,0:0|0:0,0:0:0:0:
324,288,28706,2,0,B|338:262|322:230,1,60,2|0,0:0|0:0,0:0:0:0:
376,203,29141,1,0,0:0:0:0:
418,160,29359,1,0,0:0:0:0:
379,114,29576,1,2,0:0:0:0:
327,83,29793,6,0,B|276:46|207:67,1,120
212,65,30445,1,2,0:0:0:0:
229,123,30663,2,0,B|173:163|117:147,1,120
115,146,31315,1,2,0:0:0:0:
99,204,31532,6,0,B|157:275|254:286,1,180,0|0,0:0|0:0,0:0:0:0:
313,293,32402,1,0,0:0:0:0:
404,217,32837,1,0,0:0:0:0:
287,187,33272,1,0,0:0:0:0:
240,148,33489,6,0,B|176:148|120:148,1,120,0|2,0:0|0:0,0:0:0:0:
46,242,34359,2,0,B|94:242|166:242,1,120,0|2,0:0|0:0,0:0:0:0:
165,242,35228,5,4,0:0:0:0:
100,135,35663,1,2,0:0:0:0:
130,83,35880,2,0,B|154:59|186:59,1,60
186,119,36315,2,0,B|218:119|242:95,1,60,0|2,0:0|0:0,0:0:0:0:
296,75,36750,6,0,B|333:122|313:188,1,120,0|0,0:0|0:0,0:0:0:0:
314,188,37402,1,2,0:0:0:0:
257,166,37619,2,0,B|232:229|272:283,1,120
271,279,38272,1,2,0:0:0:0:
220,311,38489,6,0,B|124:311|92:263|44:271,1,180,0|2,0:0|0:0,0:0:0:0:
118,174,39576,1,0,0:0:0:0:
61,152,39793,2,0,B|37:136|37:96,1,60,0|2,0:0|0:0,0:0:0:0:
83,61,40228,6,0,B|147:45|203:37,1,120
236,86,40880,1,2,0:0:0:0:
293,66,41098,1,0,0:0:0:0:
340,103,41315,1,0,0:0:0:0:
337,163,41532,1,0,0:0:0:0:
283,128,41750,2,0,B|235:168,1,60,2|0,0:0|0:0,0:0:0:0:
191,205,42185,5,4,0:0:0:0:
106,120,42619,1,2,0:0:0:0:
21,204,43054,1,0,0:0:0:0:
51,255,43272,2,0,B|69:285|99:291,1,60,0|2,0:0|0:0,0:0:0:0:
149,320,43706,6,0,B|241:347|313:275,1,180,0|2,0:0|0:0,0:0:0:0:
277,225,44576,2,0,B|370:202|396:104,1,180,0|2,0:0|0:0,0:0:0:0:
349,65,45445,5,0,0:0:0:0:
323,119,45663,1,0,0:0:0:0:
278,159,45880,1,0,0:0:0:0:
225,187,46098,2,0,P|165:195|113:168,1,120,2|0,0:0|0:0,0:0:0:0:
156,124,46750,2,0,P|192:132|220:116,1,60,0|2,0:0|0:0,0:0:0:0:
264,92,47185,1,0,0:0:0:0:
169,308,47837,5,2,0:0:0:0:
169,308,48272,2,0,B|211:342|249:307,2,90,6|6|6,0:0|0:0|0:0,0:0:0:0:
256,84,49793,5,0,0:0:0:0:
256,84,50011,1,0,0:0:0:0:
256,84,50228,1,0,0:0:0:0:
136,68,50663,2,0,P|116:129|143:176,1,120
141,174,51315,1,2,0:0:0:0:
200,164,51532,2,0,P|219:225|192:273,1,120
193,271,52185,1,2,0:0:0:0:
164,324,52402,2,0,P|192:328|224:324,1,60
404,304,53272,6,0,B|452:352,2,60
352,196,54141,2,0,P|333:135|285:95,1,120
292,98,54793,1,2,0:0:0:0:
257,147,55011,2,0,P|200:101|152:96,1,120
155,95,55663,1,2,0:0:0:0:
103,62,55880,2,0,P|95:94|99:122,1,60,0|4,0:0|0:0,0:0:0:0:
88,300,56750,6,0,B|37:332,2,60
124,185,57619,2,0,B|139:98|139:98|227:74,1,180,0|2,0:0|0:0,0:0:0:0:
287,73,58489,2,0,B|374:88|374:88|398:176,1,180,0|2,0:0|0:0,0:0:0:0:
397,236,59359,2,0,B|382:323|382:323|294:347,1,180,0|2,0:0|0:0,0:0:0:0:
233,347,60228,2,0,B|146:332|146:332|122:244,1,180,0|2,0:0|0:0,0:0:0:0:
206,158,61315,5,2,0:0:0:0:
280,63,61750,1,2,0:0:0:0:
354,158,62185,1,2,0:0:0:0:
428,64,62619,1,2,0:0:0:0:
456,117,62837,6,0,P|464:177|435:227,1,120
375,229,63489,2,0,P|337:273|335:333,1,120,0|0,0:0|0:0,0:0:0:0:
334,332,64141,1,0,0:0:0:0:
334,332,64359,1,0,0:0:0:0:
392,343,64576,6,0,B|449:317|476:257,1,120
422,229,65228,1,0,0:0:0:0:
370,199,65445,1,0,0:0:0:0:
422,168,65663,1,0,0:0:0:0:
370,137,65880,1,0,0:0:0:0:
422,106,66097,1,0,0:0:0:0:
370,75,66315,1,0,0:0:0:0:
256,192,66532,12,0,67837,0:0:0:0:
208,240,68272,6,0,B|149:224|131:155,1,120,6|0,0:0|0:0,0:0:0:0:
182,46,69141,2,0,B|240:71|259:133,1,120,2|0,0:0|0:0,0:0:0:0:
312,240,70011,1,2,0:0:0:0:
396,155,70445,1,0,0:0:0:0:
311,239,70880,1,2,0:0:0:0:
395,154,71315,1,0,0:0:0:0:
332,51,71750,6,0,B|268:51|222:95,1,120,6|0,0:0|0:0,0:0:0:0:
325,157,72619,2,0,B|280:201|211:196,1,120,2|0,0:0|0:0,0:0:0:0:
128,113,73489,2,0,P|76:145|76:202,1,120,2|0,0:0|0:0,0:0:0:0:
194,207,74359,1,2,0:0:0:0:
155,253,74576,1,0,0:0:0:0:
213,265,74793,1,2,0:0:0:0:
253,220,75011,1,0,0:0:0:0:
274,275,75228,1,2,0:0:0:0:
236,160,75663,6,0,B|224:90|277:53,1,120,0|2,0:0|0:0,0:0:0:0:
363,135,76532,2,0,B|378:201|324:241,1,120,0|2,0:0|0:0,0:0:0:0:
228,313,77402,1,0,0:0:0:0:
122,256,77837,1,2,0:0:0:0:
72,146,78272,1,0,0:0:0:0:
178,201,78706,6,0,B|140:143|176:89,1,120,4|0,0:0|0:0,0:0:0:0:
282,145,79576,2,0,B|311:212|272:260,1,120,4|0,0:0|0:0,0:0:0:0:
256,192,80445,12,0,81750,0:0:0:0:
288,272,82185,6,0,B|320:224|320:158,1,120,6|0,0:0|0:0,0:0:0:0:
249,60,83054,2,0,B|217:106|218:175,1,120,2|0,0:0|0:0,0:0:0:0:
195,292,83924,1,2,0:0:0:0:
98,220,84359,1,0,0:0:0:0:
86,339,84793,1,2,0:0:0:0:
196,292,85228,1,0,0:0:0:0:
263,192,85663,6,0,B|295:251|360:251,1,120,6|0,0:0|0:0,0:0:0:0:
457,192,86532,2,0,B|425:251|360:251,1,120,2|0,0:0|0:0,0:0:0:0:
258,313,87402,2,0,B|132:253|132:253|116:153,1,240,2|2,0:0|0:0,0:0:0:0:
172,47,88706,1,0,0:0:0:0:
256,132,89141,5,6,0:0:0:0:
187,230,89576,1,0,0:0:0:0:
187,230,89793,1,2,0:0:0:0:
307,230,90228,5,0,0:0:0:0:
336,177,90445,1,0,0:0:0:0:
366,228,90663,1,2,0:0:0:0:
311,335,91098,5,0,0:0:0:0:
277,285,91315,1,0,0:0:0:0:
337,281,91532,1,2,0:0:0:0:
438,216,91967,5,0,0:0:0:0:
408,163,92185,1,0,0:0:0:0:
372,114,92402,2,0,B|238:64|76:114,1,300,2|0,0:0|0:0,0:0:0:0:
256,192,94141,12,4,96098,0:0:0:0:
256,112,103054,6,0,B|376:112,1,120,2|0,0:0|0:0,0:0:0:0:
436,112,103706,1,4,0:0:0:0:
266,281,104576,2,0,B|144:281,1,120,2|0,0:0|0:0,0:0:0:0:
85,281,105228,1,4,0:0:0:0:
129,169,105663,2,0,B|163:115,1,60,2|0,0:0|0:0,0:0:0:0:
221,119,106098,2,0,B|266:177,1,60,2|0,0:0|0:0,0:0:0:0:
257,226,106532,6,0,B|257:345,1,120,0|2,0:0|0:0,0:0:0:0:
185,249,107402,2,0,B|185:129,1,120,0|2,0:0|0:0,0:0:0:0:
113,33,108272,2,0,B|113:153,1,120,0|2,0:0|0:0,0:0:0:0:
41,249,109141,2,0,B|41:185,2,60,2|0|2,0:0|0:0|0:0,0:0:0:0:
41,129,110011,1,4,0:0:0:0:
256,320,125663,6,0,B|168:232,1,120,6|0,0:0|0:0,0:0:0:0:
248,144,126532,2,0,B|336:56,1,120,2|0,0:0|0:0,0:0:0:0:
384,168,127402,1,2,0:0:0:0:
332,59,127837,1,0,0:0:0:0:
451,71,128272,1,2,0:0:0:0:
383,169,128706,1,0,0:0:0:0:
330,277,129141,6,0,B|231:357,1,120,6|0,0:0|0:0,0:0:0:0:
174,249,130011,2,0,B|109:145,1,120,2|0,0:0|0:0,0:0:0:0:
223,107,130880,2,0,L|343:107,1,120,2|0,0:0|0:0,0:0:0:0:
424,196,131750,1,2,0:0:0:0:
397,250,131967,1,0,0:0:0:0:
336,242,132185,1,2,0:0:0:0:
326,182,132402,1,0,0:0:0:0:
380,153,132619,1,2,0:0:0:0:
280,87,133054,6,0,P|264:57|232:51,2,60,0|0|2,0:0|0:0|0:0,0:0:0:0:
160,83,133924,2,0,P|142:111|152:142,2,60,0|0|2,0:0|0:0|0:0,0:0:0:0:
211,191,134793,2,0,P|244:192|266:167,2,60,0|0|2,0:0|0:0|0:0,0:0:0:0:
211,191,135663,1,0,0:0:0:0:
153,296,136098,6,0,B|274:294,1,120,4|0,0:0|0:0,0:0:0:0:
334,191,136967,2,0,B|456:191,1,120,4|0,0:0|0:0,0:0:0:0:
256,192,137836,12,0,139141,0:0:0:0:
275,77,139576,6,0,B|337:89|352:158,1,120,6|0,0:0|0:0,0:0:0:0:
232,163,140445,2,2,B|169:180|155:248,1,120,2|0,0:0|0:0,0:0:0:0:
275,252,141315,1,2,0:0:0:0:
351,159,141750,1,0,0:0:0:0:
276,253,142185,1,2,0:0:0:0:
352,160,142619,1,0,0:0:0:0:
394,272,143054,6,0,B|442:248|469:176,1,120,6|0,0:0|0:0,0:0:0:0:
426,67,143924,2,0,B|367:109|351:159,1,120,2|0,0:0|0:0,0:0:0:0:
303,268,144793,2,0,B|230:333|230:333|117:238,1,240,2|2,0:0|0:0,0:0:0:0:
36,156,146098,1,0,0:0:0:0:
120,71,146532,5,6,0:0:0:0:
203,156,146967,1,0,0:0:0:0:
203,156,147185,1,2,0:0:0:0:
296,80,147619,5,0,0:0:0:0:
340,39,147837,1,0,0:0:0:0:
357,96,148054,1,2,0:0:0:0:
403,206,148489,5,0,0:0:0:0:
461,220,148706,1,0,0:0:0:0:
420,264,148924,1,2,0:0:0:0:
299,244,149359,5,0,0:0:0:0:
265,293,149576,1,0,0:0:0:0:
236,240,149793,2,0,B|200:288,5,60,0|2|0|2|0|2,0:0|0:0|0:0|0:0|0:0|0:0,0:0:0:0:
256,192,151532,12,4,153489,0:0:0:0:
119,92,154359,5,0,0:0:0:0:
119,92,154576,1,0,0:0:0:0:
166,202,155011,2,0,B|213:292|315:273,1,180,0|2,0:0|0:0,0:0:0:0:
429,234,156098,2,0,B|492:207,1,60
392,132,156750,6,0,B|422:119,2,30,0|0|4,0:0|0:0|0:0,0:0:0:0:
392,132,157402,1,2,0:0:0:0:
296,204,157837,2,0,B|240:227,1,60
138,164,158489,1,0,0:0:0:0:
175,278,158924,2,0,B|195:328|245:329,4,90
233,263,160445,6,0,B|283:213,1,60,4|0,0:0|0:0,0:0:0:0:
317,177,160880,2,0,B|364:127,1,60,2|0,0:0|0:0,0:0:0:0:
397,87,161315,2,0,B|440:40,1,60,0|0,0:0|0:0,0:0:0:0:
419,161,161967,5,4,0:0:0:0:
209,279,162837,1,4,0:0:0:0:
209,39,163706,1,4,0:0:0:0:
93,177,164359,6,0,P|103:213|117:236,1,60,2|0,0:0|0:0,0:0:0:0:
162,196,164793,2,0,P|172:232|186:255,1,60,2|0,0:0|0:0,0:0:0:0:
232,216,165228,2,0,P|242:252|256:275,1,60,2|0,0:0|0:0,0:0:0:0:
295,228,165663,5,4,0:0:0:0:
93,177,166098,1,6,0:0:0:0:
295,228,166532,1,2,0:0:0:0:
295,228,166750,1,2,0:0:0:0:
256,192,167185,12,0,170880,0:0:0:0:
