osu file format v10

[General]
AudioFilename: song.mp3
AudioLeadIn: 0
PreviewTime: 47111
Countdown: 0
SampleSet: Soft
StackLeniency: 0.7
Mode: 0
LetterboxInBreaks: 0

[Editor]
DistanceSpacing: 1
BeatDivisor: 4
GridSize: 4

[Metadata]
Title:Asgardh (Short Ver.)
TitleUnicode:Asgardh (Short Ver.)
Artist:Aoba Ringo
ArtistUnicode:Aoba Ringo
Creator:merchat7
Version:Normal
Source:Shirogane no Soleil -Successor of Wyrd-
Tags:CoverVersion Unmei no Keishousha soleil of silvery white marie MANYO littlewing little wing skyfish hentai eroge game visual novel opening Miya -Sekai- Sekai ikari_kyon
BeatmapID:156459
BeatmapSetID:50112

[Difficulty]
HPDrainRate:4
CircleSize:3
OverallDifficulty:3
ApproachRate:4
SliderMultiplier:1.4
SliderTickRate:2

[Events]
//Background and Video events
Video,-960,"video.avi"
0,0,"background.jpg"
//Break Periods
//Storyboard Layer 0 (Background)
//Storyboard Layer 1 (Fail)
//Storyboard Layer 2 (Pass)
//Storyboard Layer 3 (Foreground)
//Storyboard Sound Samples
//Background Colour Transformations
3,100,163,162,255

[TimingPoints]
6864,405.405405405405,4,1,1,60,1,0
7066,-100,4,1,1,20,0,0
7674,-100,4,1,1,60,0,0
8688,-100,4,1,1,20,0,0
8891,-100,4,1,1,60,0,0
9093,-100,4,1,1,20,0,0
9296,-100,4,1,1,60,0,0
10309,-100,4,1,1,20,0,0
10512,-100,4,1,1,60,0,0
11120,-100,4,1,1,20,0,0
11323,-100,4,1,1,60,0,0
12336,-100,4,1,1,20,0,0
12539,-100,4,1,1,60,0,0
12742,-100,4,1,1,20,0,0
12945,-100,4,1,1,60,0,0
13553,-100,4,1,1,20,0,0
13958,-100,4,1,1,60,0,0
15174,-100,4,1,1,20,0,0
15580,-100,4,1,1,60,0,0
16796,-100,4,1,1,20,0,0
16999,-100,4,1,1,60,0,0
17201,-100,4,1,1,20,0,0
17404,-100,4,1,1,60,0,0
18418,-100,4,1,1,20,0,0
18620,-100,4,1,1,60,0,0
18823,-100,4,1,1,20,0,0
19026,-100,4,1,1,60,0,0
19836,-100,4,2,2,50,0,0
19887,-100,4,2,2,80,0,0
26323,-100,4,2,2,50,0,0
26728,-100,4,2,2,80,0,0
32404,-100,4,2,1,80,0,0
32809,-100,4,2,2,50,0,0
33215,-100,4,2,2,70,0,0
33418,-100,4,2,1,70,0,0
33823,-100,4,2,2,70,0,0
35445,-100,4,2,1,50,0,0
35647,-100,4,2,2,70,0,0
36053,-100,4,2,2,50,0,0
36103,-100,4,2,2,70,0,0
36661,-100,4,2,1,70,0,0
37066,-100,4,2,2,70,0,0
38688,-100,4,2,2,50,0,0
38891,-100,4,2,2,70,0,0
39296,-100,4,2,1,50,0,0
39701,-100,4,2,1,80,0,0
40107,-100,4,2,2,80,0,0
40512,-100,4,2,1,80,0,0
40918,-100,4,2,2,80,0,0
41323,-100,4,2,1,80,0,0
41526,-100,4,2,2,80,0,0
42134,-100,4,2,1,80,0,0
42539,-100,4,2,1,50,0,0
42590,-100,4,2,1,80,0,0
44161,-100,4,2,0,70,0,0
45782,-100,4,2,1,80,0,0
46391,-100,4,2,1,30,0,0
47404,-100,4,2,2,60,0,1
47455,-100,4,2,2,100,0,1
47607,-100,4,2,2,60,0,1
47657,-100,4,2,2,100,0,1
48012,-100,4,2,2,60,0,1
48063,-100,4,2,2,100,0,1
48823,-100,4,2,2,60,0,1
48874,-100,4,2,2,100,0,1
49634,-100,4,2,1,100,0,1
50039,-100,4,2,2,100,0,1
50850,-100,4,2,2,60,0,1
51103,-100,4,2,2,100,0,1
51255,-100,4,2,1,100,0,1
51863,-100,4,2,2,100,0,1
52066,-100,4,2,2,60,0,1
52117,-100,4,2,2,100,0,1
52877,-100,4,2,1,100,0,1
53282,-100,4,2,2,100,0,1
53891,-100,4,2,2,50,0,1
54093,-100,4,2,2,100,0,1
54499,-100,4,2,1,100,0,1
54701,-100,4,2,2,100,0,1
55309,-100,4,2,2,60,0,1
55360,-100,4,2,2,100,0,1
55918,-100,4,2,2,60,0,1
55968,-100,4,2,2,100,0,1
56120,-100,4,2,1,100,0,1
56526,-100,4,2,2,100,0,1
57134,-100,4,2,2,60,0,1
57184,-100,4,2,2,100,0,1
57336,-100,4,2,2,60,0,1
57387,-100,4,2,2,100,0,1
57539,-100,4,2,1,100,0,1
57742,-100,4,2,2,65,0,1
57793,-100,4,2,2,100,0,1
57945,-100,4,2,2,60,0,1
57995,-100,4,2,2,100,0,1
58553,-100,4,2,0,70,0,1
58603,-100,4,2,2,100,0,1
58755,-100,4,2,2,60,0,1
59009,-100,4,2,2,100,0,1
59161,-100,4,2,1,100,0,1
59566,-100,4,2,2,100,0,1
60377,-100,4,2,2,60,0,1
60428,-100,4,2,2,100,0,1
60580,-100,4,2,2,60,0,1
60630,-100,4,2,2,100,0,1
61796,-100,4,2,2,60,0,1
61847,-100,4,2,2,100,0,1
62607,-100,4,2,2,60,0,1
62657,-100,4,2,2,100,0,1
63012,-100,4,2,2,60,0,1
63063,-100,4,2,2,100,0,1
63823,-100,4,2,2,60,0,1
63874,-100,4,2,2,100,0,1
64228,-100,4,2,1,100,0,1
64431,-100,4,2,2,100,0,1
65445,-100,4,2,2,60,0,1
65495,-100,4,2,2,100,0,1
65850,-100,4,2,1,100,0,1
66053,-100,4,2,1,60,0,1
66103,-100,4,2,1,100,0,1
66255,-100,4,2,2,100,0,1
66863,-100,4,2,2,60,0,1
67269,-100,4,2,2,100,0,1
67472,-100,4,2,1,100,0,1
67877,-100,4,2,2,100,0,1
69093,-100,4,2,2,60,0,1
69144,-100,4,2,2,100,0,1
69499,-100,4,2,2,60,0,1
69549,-100,4,2,2,100,0,1
70107,-100,4,2,2,60,0,1
70157,-100,4,2,2,100,0,1
70309,-100,4,2,2,60,0,1
70563,-100,4,2,2,100,0,1
70715,-100,4,2,2,65,0,1
71120,-100,4,2,2,100,0,1
71323,-100,4,2,1,100,0,1
71728,-100,4,2,2,65,0,1
71779,-100,4,2,2,100,0,1
71931,-100,4,2,2,60,0,1
72184,-100,4,2,2,100,0,1
72336,-100,4,2,2,70,0,1
72945,-100,4,2,1,100,0,1
73147,-100,4,2,2,100,0,1
73350,-100,4,2,1,70,0,0
73553,-100,4,2,1,40,0,0
73806,-100,4,2,1,70,0,0
73958,-100,4,2,2,70,0,0
74972,-100,4,2,2,50,0,0
75377,-100,4,2,2,70,0,0
75580,-100,4,2,2,50,0,0
75630,-100,4,2,2,70,0,0
76593,-100,4,2,0,40,0,0
78215,-100,4,2,0,30,0,0
79836,-100,4,2,0,20,0,0

[Colours]
Combo1 : 240,240,160
Combo2 : 170,220,240
Combo3 : 255,225,160
Combo4 : 160,250,190

[HitObjects]
16,132,6864,2,0,B|108:76|196:172|288:116,1,280
408,48,8080,1,0,0:0:0
376,184,8485,2,0,B|421:156|466:204|512:176,2,140
268,272,9701,1,0,0:0:0
152,352,10107,6,0,B|72:352|32:268,1,140
84,148,10918,2,0,B|164:148|204:232,1,140
152,352,11728,1,0,0:0:0
288,312,12134,2,0,B|344:320|380:292|380:292|420:308,2,140
152,352,13350,6,0,B|160:236|64:156,1,210,2|0,0:0|0:0,0:0:0
200,104,14363,2,0,B|252:56,1,70
364,144,14972,2,0,B|356:260|452:340,1,210,2|0,0:0|0:0,0:0:0
304,312,15985,2,0,B|252:360,1,70
188,232,16593,6,0,B|120:252|48:232,2,140,0|0|0,0:0|0:0|0:0,0:0:0
316,176,17809,1,0,0:0:0
216,76,18215,2,0,B|176:80|152:56|152:56|132:80|84:72,2,140
316,176,19431,1,0,0:0:0
400,288,19836,6,0,B|256:288,1,140,4|8,0:0|0:0,0:0:0
208,340,20445,2,0,B|136:340,1,70,0|8,0:0|0:0,0:0:0
8,288,21053,1,8,0:0:0
8,148,21457,6,0,B|152:148,1,140,8|8,0:0|0:0,0:0:0
200,96,22066,2,0,B|272:96,1,70,0|8,0:0|0:0,0:0:0
400,148,22674,1,8,0:0:0
360,284,23080,6,0,B|256:312|152:284,1,210,8|2,0:0|0:0,0:0:0
128,148,24093,1,0,0:0:0
256,96,24499,1,0,0:0:0
384,148,24904,2,0,B|456:148,2,70,0|8|2,0:0|0:0|0:0,0:0:0
256,208,25715,1,2,0:0:0
128,148,26120,6,0,B|72:96,1,70,0|4,0:0|0:0,0:0:0
76,240,26728,2,0,B|132:292,2,70,8|2|8,0:0|0:0|0:0,0:0:0
216,232,27539,1,8,0:0:0
332,312,27945,2,0,B|412:312|452:228,1,140,8|8,0:0|0:0,0:0:0
400,108,28756,2,0,B|320:108|280:192,1,140,8|8,0:0|0:0,0:0:0
332,312,29566,6,0,B|224:348|120:312,1,210,8|2,0:0|0:0,0:0:0
56,116,30782,2,0,B|100:72|188:72,1,140,8|8,0:0|0:0,0:0:0
224,208,31593,2,0,B|309:208|353:164,1,140,8|8,0:0|0:0,0:0:0
480,100,32404,6,0,B|480:252,1,140,8|4,0:0|0:0,0:0:0
380,336,33215,2,0,B|312:312,1,70,2|8,0:0|0:0,0:0:0
176,328,33823,2,0,B|108:304,2,70,8|10|0,0:0|0:0|0:0,0:0:0
224,276,34431,2,0,B|288:192|224:72,1,210,8|0,0:0|0:0,0:0:0
134,183,35445,6,0,B|134:255,2,70,12|0|8,0:0|0:0|0:0,0:0:0
132,111,36053,2,0,B|48:91|5:148,1,140,4|2,0:0|0:0,0:0:0
8,216,36661,2,0,B|50:273|134:253,1,140,8|8,0:0|0:0,0:0:0
268,212,37472,6,0,B|340:236,2,70,0|8|10,0:0|0:0|0:0,0:0:0
224,156,38080,2,0,B|296:124|300:44,1,140,2|2,0:0|0:0,0:0:0
368,36,38688,2,0,B|404:32|432:60,1,70,4|0,0:0|0:0,0:0:0
508,176,39296,1,4,0:0:0
420,284,39701,6,0,B|355:314|283:290,2,140,8|2|8,0:0|0:0|0:0,0:0:0
364,156,40918,2,0,B|292:132|216:168,1,140,2|8,0:0|0:0,0:0:0
176,208,41526,2,0,B|68:180|56:52,1,210,8|8,0:0|0:0,0:0:0
196,48,42539,2,0,B|348:48,2,140,4|2|8,0:0|0:0|0:0,0:0:0
256,176,43755,1,0,0:0:0
256,192,44161,12,2,45782,0:0:0
152,192,46391,6,0,B|252:236|356:192,1,210
368,52,47404,6,0,B|436:28|508:52,2,140,4|8|8,0:0|0:0|0:0,0:0:0
432,176,48620,2,0,B|432:256|352:284,1,140,8|8,0:0|0:0,0:0:0
256,184,49431,2,0,B|192:156,1,70,8|8,0:0|0:0,0:0:0
76,236,50039,2,0,B|140:264,1,70,0|8,0:0|0:0,0:0:0
44,160,50647,6,0,B|60:48|196:32,1,210,8|8,0:0|0:0,0:0:0
300,212,51863,2,0,B|224:220|176:152,1,140,8|8,0:0|0:0,0:0:0
308,100,52674,2,0,B|372:72,1,70,8|8,0:0|0:0,0:0:0
504,120,53282,2,0,B|440:148,1,70,0|8,0:0|0:0,0:0:0
400,284,53891,6,0,B|440:288|464:260,2,70,4|0|8,0:0|0:0|0:0,0:0:0
332,272,54499,2,0,B|322:233|287:220,2,70,8|8|2,0:0|0:0|0:0,0:0:0
352,340,55107,2,0,B|284:356|216:324,1,140,8|8,0:0|0:0,0:0:0
148,348,55715,2,0,B|100:296|116:216,1,140,0|8,0:0|0:0,0:0:0
200,104,56526,1,0,0:0:0
260,304,57134,6,0,B|328:288|396:320,1,140,4|8,0:0|0:0,0:0:0
432,260,57742,2,0,B|448:192|416:124,1,140,4|8,0:0|0:0,0:0:0
288,184,58553,2,0,B|164:196|112:92,1,210,4|8,0:0|0:0,0:0:0
100,232,59566,2,0,B|64:296,2,70,8|0|8,0:0|0:0|0:0,0:0:0
113,94,60377,6,0,B|173:54|249:66,1,140,4|8,0:0|0:0,0:0:0
360,144,61188,1,8,0:0:0
276,256,61593,2,0,B|336:296|409:284,1,140,8|8,0:0|0:0,0:0:0
288,356,62404,2,0,B|228:316|154:327,2,140,8|8|8,0:0|0:0|0:0,0:0:0
208,240,63620,6,0,B|134:252|74:212,1,140,8|8,0:0|0:0,0:0:0
16,176,64228,2,0,B|32:148|76:132,1,70,8|8,0:0|0:0,0:0:0
208,100,64836,1,8,0:0:0
208,240,65242,2,0,B|276:272|348:244,1,140,8|8,0:0|0:0,0:0:0
376,308,65850,2,0,B|444:281|512:313,1,140,8|0,0:0|0:0,0:0:0
460,184,66661,6,0,B|452:104,1,70,0|4,0:0|0:0,0:0:0
344,24,67269,2,0,B|352:104,1,70,8|8,0:0|0:0,0:0:0
368,232,67877,1,2,0:0:0
260,144,68282,2,0,B|268:224,1,70,0|8,0:0|0:0,0:0:0
304,348,68891,2,0,B|372:368|456:344,2,140,8|8|8,0:0|0:0|0:0,0:0:0
164,332,70107,6,0,B|128:252|56:260|56:260|36:188,1,210,4|4,0:0|0:0,0:0:0
88,60,71120,2,0,B|108:128,1,70,8|8,0:0|0:0,0:0:0
200,232,71728,2,0,B|236:152|308:160|308:160|328:88,1,210,4|4,0:0|0:0,0:0:0
336,308,72945,6,0,B|400:280,1,70,8|2,0:0|0:0,0:0:0
468,304,73350,2,0,B|520:208|464:96,1,210,8|0,0:0|0:0,0:0:0
336,52,74363,1,0,0:0:0
236,152,74769,2,0,B|244:192|292:228,1,70,0|4,0:0|0:0,0:0:0
408,164,75377,2,0,B|401:87|333:51,2,140,0|2|2,0:0|0:0|0:0,0:0:0
256,192,76593,12,4,79836,0:0:0
