osu file format v12

[General]
AudioFilename: ju.mp3
AudioLeadIn: 0
PreviewTime: 61355
Countdown: 0
SampleSet: Soft
StackLeniency: 0.7
Mode: 0
LetterboxInBreaks: 1

[Editor]
DistanceSpacing: 1
BeatDivisor: 4
GridSize: 4

[Metadata]
Title:Junshin na Hanauranai
TitleUnicode:Junshin na Hanauranai
Artist:Anzu Hana
ArtistUnicode:Anzu Hana
Creator:jamxx
Version:Normal
Source:
Tags:
BeatmapID:224518
BeatmapSetID:80658

[Difficulty]
HPDrainRate:3
CircleSize:3
OverallDifficulty:3
ApproachRate:5
SliderMultiplier:1
SliderTickRate:1

[Events]
//Background and Video events
0,0,"bg.jpg",1,1
//Break Periods
2,23754,33326
//Storyboard Layer 0 (Background)
//Storyboard Layer 1 (Fail)
//Storyboard Layer 2 (Pass)
//Storyboard Layer 3 (Foreground)
//Storyboard Sound Samples
//Background Colour Transformations
3,100,163,162,255

[TimingPoints]
4355,342.857142857143,4,1,0,60,1,0
34440,-100,4,2,0,50,0,0
62469,-100,4,2,0,50,0,1
62897,-100,4,1,0,60,0,1
67440,-100,4,1,0,60,0,0
67955,-100,4,1,0,60,0,1
79783,-100,4,1,0,60,0,0
88697,-100,4,2,0,50,0,0
89383,-100,4,2,0,30,0,0
90069,-100,4,2,0,20,0,0
90755,-100,4,2,0,10,0,0
92126,-100,4,2,0,5,0,0

[Colours]
Combo1 : 128,255,128
Combo2 : 0,128,255
Combo3 : 255,128,192
Combo4 : 255,128,64

[HitObjects]
204,192,4354,2,0,P|160:128|212:20,1,200,4|0,0:0|0:0,0:0:0:0:
256,108,5383,1,8,0:0:0:0:
308,192,5726,2,0,P|336:240|372:268,2,100,4|8|0,0:0|0:0|0:0,0:0:0:0:
336,44,7097,6,0,P|376:128|308:192,1,200
256,276,8126,1,8,0:0:0:0:
204,192,8469,2,0,P|136:128|176:44,1,200
308,192,9840,6,0,P|280:264|224:316,1,150
184,292,10526,2,0,P|128:300|88:316,1,100,0|8,0:0|0:0,0:0:0:0:
64,220,11212,2,0,P|88:148|132:88,1,150
172,60,11897,1,0,0:0:0:0:
256,112,12240,1,8,0:0:0:0:
340,60,12583,6,0,P|368:132|472:192,2,200
256,112,14297,2,0,L|256:216,2,100
172,60,15326,6,0,P|108:104|80:172,1,150,4|0,0:2|0:0,0:0:0:0:
80,268,16183,1,8,0:0:0:0:
228,268,16697,6,0,P|292:224|320:156,1,150,4|0,0:2|0:0,0:0:0:0:
320,60,17554,1,8,0:0:0:0:
460,112,18069,6,0,P|486:177|472:253,1,150,4|0,0:2|0:0,0:0:0:0:
400,320,18926,1,8,0:0:0:0:
256,276,19440,6,0,L|256:120,1,150,4|0,0:2|0:0,0:0:0:0:
256,24,20297,1,8,0:0:0:0:
128,104,20812,6,0,P|64:216|160:336,1,300,4|8,0:0|0:0,0:0:0:0:
256,360,22183,2,0,P|300:264|332:232,1,150,4|4,0:2|0:0,0:0:0:0:
408,168,23040,2,0,P|353:134|272:152,1,150,4|2,0:2|2:0,0:0:0:0:
196,112,34526,5,4,0:0:0:0:
256,192,34869,2,0,P|336:196|444:140,1,200,0|0,1:0|1:0,0:0:0:0:
432,44,35897,2,0,P|380:64|352:104,1,100,0|0,1:0|1:0,0:0:0:0:
304,108,36412,2,0,P|217:106|157:90,1,150,0|0,1:0|1:0,0:0:0:0:
60,60,37269,5,0,1:0:0:0:
80,160,37612,2,0,B|84:212|64:260|64:260|116:252|164:268,1,200,0|0,1:0|1:0,0:0:0:0:
256,300,38640,1,0,1:0:0:0:
351,266,38983,2,0,B|396:252|448:260|448:260|428:212|432:160,1,200,0|0,1:0|1:0,0:0:0:0:
392,68,40012,6,0,P|352:104|334:148,1,100,0|0,1:0|1:0,0:0:0:0:
304,184,40526,2,0,P|224:156|168:112,1,150,0|0,1:0|1:0,0:0:0:0:
88,64,41383,2,0,P|64:108|52:156,1,100,0|0,1:0|1:0,0:0:0:0:
92,188,41897,2,0,B|136:232|136:332,1,150,0|0,1:0|1:0,0:0:0:0:
232,356,42755,6,0,B|240:300|213:265|213:265|216:208|256:172,1,200,0|0,1:0|1:0,0:0:0:0:
256,72,43783,1,0,1:0:0:0:
348,32,44126,2,0,P|256:173|164:32,1,400,0|2,1:0|1:0,0:0:0:0:
52,132,46012,5,2,1:0:0:0:
256,276,46869,2,0,P|320:200|368:192,1,150,2|2,1:0|1:0,0:0:0:0:
156,56,48240,6,0,B|140:152|99:192|99:192|140:232|156:328,1,300,4|0,1:0|1:0,0:0:0:0:
256,328,49612,2,0,P|328:292|376:240,1,150,4|0,1:2|1:0,0:0:0:0:
374,142,50469,2,0,P|328:92|256:56,1,150,4|2,1:2|1:0,0:0:0:0:
106,55,51497,5,2,1:0:0:0:
172,296,52355,2,0,P|256:320|320:320,1,150,2|2,1:1|1:0,0:0:0:0:
392,80,53726,6,0,B|296:64|256:23|256:23|216:64|120:80,1,300,4|0,1:0|1:0,0:0:0:0:
68,164,55097,2,0,P|132:204|208:208,1,150,4|0,1:2|1:0,0:0:0:0:
307,208,55955,2,0,P|380:204|444:164,1,150,4|0,1:2|1:0,0:0:0:0:
376,92,56812,6,0,P|272:92|180:68,1,200,0|0,1:0|1:0,0:0:0:0:
84,44,57840,2,0,B|78:131|149:160|149:160|160:248|92:304,1,300,0|0,1:0|1:0,0:0:0:0:
28,228,59212,6,0,B|104:164|184:228|189:272|189:272|228:292|288:280,1,300,0|0,1:0|1:0,0:0:0:0:
376,236,60583,2,0,P|432:224|480:232,2,100,0|0|0,1:0|1:0|1:0,0:0:0:0:
256,76,61955,5,0,1:0:0:0:
256,76,62469,2,0,L|256:228,1,150,4|8,1:2|0:0,0:0:0:0:
316,308,63326,2,0,P|400:300|476:204,1,200
472,116,64355,1,8,0:0:0:0:
384,160,64697,6,0,P|336:140|292:104,1,100,0|8,0:0|0:0,0:0:0:0:
256,80,65212,2,0,P|212:144|192:216,1,150,0|8,0:0|0:0,0:0:0:0:
192,312,66069,1,0,0:0:0:0:
333,262,66583,1,0,0:0:0:0:
92,192,67440,5,0,0:0:0:0:
92,192,67955,2,0,L|244:192,1,150,4|8,0:2|0:0,0:0:0:0:
344,192,68812,2,0,P|416:112|440:24,1,200
340,24,69840,1,8,0:0:0:0:
240,24,70183,6,0,P|208:64|160:96,1,100,0|8,0:0|0:0,0:0:0:0:
118,91,70697,2,0,P|72:152|56:236,1,150,0|8,0:0|0:0,0:0:0:0:
124,296,71555,2,0,P|176:280|224:276,1,100,0|8,0:0|0:0,0:0:0:0:
271,275,72069,1,0,0:0:0:0:
396,192,72583,1,8,0:0:0:0:
396,92,72926,6,0,P|440:56|480:40,2,100,4|8|0,0:0|0:0|0:0,0:0:0:0:
309,143,73955,1,8,0:0:0:0:
396,192,74297,2,0,P|351:308|181:342,1,300,0|8,0:0|0:0,0:0:0:0:
112,284,75669,6,0,P|60:292|20:320,2,100,0|8|0,0:0|0:0|0:0,0:0:0:0:
205,248,76697,1,8,0:0:0:0:
272,176,77040,6,0,P|244:128|204:100,1,100,0|8,0:0|0:0,0:0:0:0:
168,72,77555,2,0,P|280:48|416:64,1,250,0|0,0:0|0:0,0:0:0:0:
492,248,79097,2,0,P|380:272|276:264,1,200,0|4,0:0|0:0,0:0:0:0:
256,72,80469,5,0,0:0:0:0:
216,267,81155,2,0,P|132:272|20:248,1,200,4|0,0:0|0:0,0:0:0:0:
200,160,82526,6,0,P|280:180|324:284,1,200
408,336,83555,1,8,0:0:0:0:
416,236,83897,2,0,B|416:152|360:76|360:76|304:80|232:40,1,300,0|8,0:0|0:0,0:0:0:0:
148,88,85269,6,0,B|148:172|204:248|204:248|260:244|332:284,1,300,0|8,0:0|0:0,0:0:0:0:
416,236,86640,2,0,P|404:152|372:92,1,150
284,136,87497,2,0,P|226:165|142:177,1,150,0|4,0:0|0:0,0:0:0:0:
256,192,88097,12,0,92126,0:0:0:0:
