osu file format v14

[General]
AudioFilename: Breathe Beneath- Anticipate.mp3
AudioLeadIn: 0
PreviewTime: 151778
Countdown: 1
SampleSet: None
StackLeniency: 0.7
Mode: 0
LetterboxInBreaks: 1
WidescreenStoryboard: 0

[Editor]
Bookmarks: 16150,30978,42978,69378,94178,116578,123778,138978,144578,157578,193378,194578,195778,204178
DistanceSpacing: 2
BeatDivisor: 4
GridSize: 4
TimelineZoom: 1.3

[Metadata]
Title:Breathe Beneath
TitleUnicode:Breathe Beneath
Artist:Anticipate
ArtistUnicode:Anticipate
Creator:przepson
Version:Boss Stage
Source:Dj Maniax
Tags:
BeatmapID:1118921
BeatmapSetID:527383

[Difficulty]
HPDrainRate:7
CircleSize:3.2
OverallDifficulty:9
ApproachRate:9
SliderMultiplier:1.6
SliderTickRate:1

[Events]
//Background and Video events
0,0,"comment_gfgVl94RptIHqrT86F4DTLKCQ2t8a8R7.jpg",0,0
//Break Periods
2,31178,32778
2,69578,71178
2,123978,125578
2,151978,156978
//Storyboard Layer 0 (Background)
//Storyboard Layer 1 (Fail)
//Storyboard Layer 2 (Pass)
//Storyboard Layer 3 (Foreground)
//Storyboard Sound Samples

[TimingPoints]
3209,392.156862745098,4,2,0,5,1,0
3209,-133.333333333333,4,2,0,5,0,0
17378,400,4,1,0,30,1,0
17378,-100,4,1,0,30,0,0
42978,-83.3333333333333,4,1,0,22,0,1
50278,-83.3333333333333,4,1,0,22,0,0
55778,-83.3333333333333,4,1,0,22,0,1
63078,-83.3333333333333,4,1,0,22,0,0
68578,-100,4,1,0,30,0,0
94178,-83.3333333333333,4,1,0,22,0,1
101478,-83.3333333333333,4,1,0,22,0,0
106978,-83.3333333333333,4,1,0,22,0,1
114278,-83.3333333333333,4,1,0,22,0,0
116578,-83.3333333333333,4,1,0,30,0,1
123878,-100,4,1,0,22,0,0
144578,-50,4,1,0,22,0,0
144978,-100,4,1,0,22,0,0
146578,-66.6666666666667,4,1,0,22,0,0
147578,-100,4,1,0,22,0,0
149778,-66.6666666666667,4,1,0,22,0,0
150778,-100,4,1,0,22,0,0
157778,-50,4,1,0,22,0,0
158178,-83.3333333333333,4,1,0,22,0,1
164578,-76.9230769230769,4,1,0,22,0,1
171878,-76.9230769230769,4,1,0,22,0,0
177378,-66.6666666666667,4,1,0,22,0,1
193378,-66.6666666666667,4,1,0,25,0,1
196578,-83.3333333333333,4,1,0,25,0,1
202978,-83.3333333333333,4,1,0,28,0,0

[HitObjects]
64,136,3209,6,0,P|72:104|88:80,1,60.0000022888185
168,108,3601,2,0,P|160:140|144:172,1,60.0000022888185
64,136,3993,2,0,P|72:104|88:80,1,60.0000022888185
168,108,4385,2,0,P|160:140|144:172,1,60.0000022888185
64,136,4777,2,0,P|72:104|88:80,1,60.0000022888185
168,108,5169,2,0,P|160:140|144:172,1,60.0000022888185
248,56,5561,2,0,L|248:136,1,80.0000030517579
248,200,6019,1,0,0:0:0:0:
316,252,6215,1,0,0:0:0:0:
248,304,6411,1,0,0:0:0:0:
55,171,6542,5,0,0:0:0:0:
55,171,6607,2,0,P|78:191|107:199,1,60.0000022888184
144,124,6999,2,0,P|121:104|92:96,1,60.0000022888184
55,171,7391,2,0,P|78:191|107:199,1,60.0000022888184
144,124,7783,2,0,P|121:104|92:96,1,60.0000022888184
55,171,8175,2,0,P|78:191|107:199,1,60.0000022888184
144,124,8567,2,0,P|121:104|92:96,1,60.0000022888184
320,44,8993,5,0,0:0:0:0:
324,128,9189,1,0,0:0:0:0:
320,44,9385,1,0,0:0:0:0:
324,128,9581,1,0,0:0:0:0:
244,208,9810,5,0,0:0:0:0:
244,208,10006,1,0,0:0:0:0:
172,252,10202,2,0,L|152:192,1,60.0000022888185
104,88,10594,1,0,0:0:0:0:
104,88,10790,1,0,0:0:0:0:
164,28,10986,2,0,L|224:64,1,60.0000022888185
304,140,11378,1,0,0:0:0:0:
304,140,11575,1,0,0:0:0:0:
376,100,11771,2,0,L|392:176,1,60.0000022888185
184,300,12163,6,0,P|168:264|180:236,1,60.0000022888185
272,300,12555,2,0,P|287:274|282:245,1,60.0000022888185
176,224,12947,5,2,2:0:0:0:
256,168,13143,1,2,2:0:0:0:
152,248,13339,1,2,2:0:0:0:
276,140,13535,1,2,2:0:0:0:
132,280,13731,1,2,2:0:0:0:
292,108,13927,1,2,2:0:0:0:
124,312,14124,1,2,2:0:0:0:
296,72,14320,1,2,2:0:0:0:
200,308,14516,5,2,2:0:0:0:
224,96,14712,1,2,2:0:0:0:
204,260,14908,1,2,2:0:0:0:
220,144,15104,1,2,2:0:0:0:
208,212,15300,1,10,2:0:0:0:
256,192,16150,12,0,17326,0:0:0:0:
296,116,17378,5,0,0:0:0:0:
208,228,17578,1,0,0:0:0:0:
120,76,17778,1,0,0:0:0:0:
240,192,17978,1,0,0:0:0:0:
44,272,18178,1,0,0:0:0:0:
384,48,18778,5,0,0:0:0:0:
320,312,19178,2,0,L|204:336,1,80
152,104,19778,1,0,0:0:0:0:
320,312,19978,1,0,0:0:0:0:
292,144,20378,1,0,0:0:0:0:
460,352,20578,5,0,0:0:0:0:
452,232,20778,1,0,0:0:0:0:
444,192,20878,1,0,0:0:0:0:
436,152,20978,1,0,0:0:0:0:
160,72,21378,5,0,0:0:0:0:
64,304,21778,2,0,L|140:348,1,80
448,192,22378,1,0,0:0:0:0:
152,144,22778,5,0,0:0:0:0:
340,56,22978,1,0,0:0:0:0:
96,64,23178,1,0,0:0:0:0:
80,100,23278,1,0,0:0:0:0:
72,140,23378,1,0,0:0:0:0:
356,304,23778,5,0,0:0:0:0:
370,277,23878,1,0,0:0:0:0:
384,251,23978,1,0,0:0:0:0:
398,224,24078,1,0,0:0:0:0:
412,198,24178,1,0,0:0:0:0:
426,171,24278,1,0,0:0:0:0:
441,145,24378,1,0,0:0:0:0:
455,118,24478,1,0,0:0:0:0:
469,92,24578,1,0,0:0:0:0:
132,40,24978,5,0,0:0:0:0:
116,68,25078,1,0,0:0:0:0:
100,96,25178,1,0,0:0:0:0:
400,328,25578,1,0,0:0:0:0:
432,336,25678,1,0,0:0:0:0:
464,344,25778,1,0,0:0:0:0:
80,340,26178,5,0,0:0:0:0:
74,310,26278,1,0,0:0:0:0:
69,280,26378,1,0,0:0:0:0:
64,251,26478,1,0,0:0:0:0:
59,221,26578,1,0,0:0:0:0:
53,192,26678,1,0,0:0:0:0:
48,162,26778,1,0,0:0:0:0:
43,133,26878,1,0,0:0:0:0:
38,103,26978,1,0,0:0:0:0:
116,112,27078,5,0,0:0:0:0:
145,118,27178,1,0,0:0:0:0:
174,125,27278,1,0,0:0:0:0:
203,131,27378,1,0,0:0:0:0:
233,138,27478,1,0,0:0:0:0:
262,144,27578,1,0,0:0:0:0:
291,151,27678,1,0,0:0:0:0:
320,157,27778,1,0,0:0:0:0:
100,344,28178,5,0,0:0:0:0:
100,344,28278,1,0,0:0:0:0:
100,344,28378,1,0,0:0:0:0:
456,44,28778,1,0,0:0:0:0:
452,76,28878,1,0,0:0:0:0:
444,108,28978,1,0,0:0:0:0:
144,108,29378,5,0,0:0:0:0:
352,264,29578,1,0,0:0:0:0:
160,264,29778,5,0,0:0:0:0:
368,108,29978,1,0,0:0:0:0:
184,344,30178,5,0,0:0:0:0:
147,326,30278,1,0,0:0:0:0:
116,301,30378,1,0,0:0:0:0:
92,270,30478,1,0,0:0:0:0:
75,234,30578,1,0,0:0:0:0:
66,195,30678,1,0,0:0:0:0:
67,155,30778,1,0,0:0:0:0:
77,116,30878,1,0,0:0:0:0:
95,81,30978,1,0,0:0:0:0:
348,60,33378,5,0,0:0:0:0:
140,196,33578,1,0,0:0:0:0:
400,316,33778,1,0,0:0:0:0:
88,276,33978,1,0,0:0:0:0:
472,100,34178,1,0,0:0:0:0:
228,48,34578,5,0,0:0:0:0:
228,48,34778,1,0,0:0:0:0:
144,332,35178,1,0,0:0:0:0:
468,204,35578,1,0,0:0:0:0:
452,176,35678,1,0,0:0:0:0:
436,148,35778,1,0,0:0:0:0:
44,180,35978,1,0,0:0:0:0:
60,208,36078,1,0,0:0:0:0:
76,236,36178,1,0,0:0:0:0:
344,72,36578,5,0,0:0:0:0:
303,54,36678,1,0,0:0:0:0:
261,60,36778,1,0,0:0:0:0:
245,98,36878,1,0,0:0:0:0:
267,135,36978,1,0,0:0:0:0:
304,158,37078,1,0,0:0:0:0:
343,171,37178,1,0,0:0:0:0:
322,209,37278,1,0,0:0:0:0:
289,238,37378,1,0,0:0:0:0:
40,40,37778,5,0,0:0:0:0:
84,48,37878,1,0,0:0:0:0:
120,72,37978,1,0,0:0:0:0:
452,312,38378,1,0,0:0:0:0:
412,332,38478,1,0,0:0:0:0:
368,336,38578,1,0,0:0:0:0:
320,40,38978,5,0,0:0:0:0:
281,51,39078,1,0,0:0:0:0:
243,62,39178,1,0,0:0:0:0:
204,73,39278,1,0,0:0:0:0:
166,84,39378,1,0,0:0:0:0:
127,95,39478,1,0,0:0:0:0:
89,106,39578,1,0,0:0:0:0:
50,117,39678,1,0,0:0:0:0:
41,133,39778,5,0,0:0:0:0:
73,157,39878,1,0,0:0:0:0:
105,180,39978,1,0,0:0:0:0:
138,204,40078,1,0,0:0:0:0:
170,227,40178,1,0,0:0:0:0:
202,251,40278,1,0,0:0:0:0:
235,274,40378,1,0,0:0:0:0:
267,298,40478,1,0,0:0:0:0:
299,321,40578,1,0,0:0:0:0:
36,76,40978,5,0,0:0:0:0:
36,76,41078,1,0,0:0:0:0:
36,76,41178,1,0,0:0:0:0:
464,80,41578,1,0,0:0:0:0:
452,124,41678,1,0,0:0:0:0:
440,168,41778,1,0,0:0:0:0:
248,272,42178,5,0,0:0:0:0:
164,56,42378,1,0,0:0:0:0:
248,272,42578,1,0,0:0:0:0:
164,56,42778,1,0,0:0:0:0:
384,124,42978,6,0,P|408:184|400:240,1,95.9999970703126
176,344,43378,2,0,L|52:304,1,95.9999970703126
360,164,43778,1,0,0:0:0:0:
64,80,43978,1,0,0:0:0:0:
372,48,44178,1,0,0:0:0:0:
104,204,44378,1,0,0:0:0:0:
104,204,44578,1,0,0:0:0:0:
444,272,44778,2,0,P|468:220|468:160,1,95.9999970703126
304,72,45378,5,0,0:0:0:0:
136,292,45578,1,0,0:0:0:0:
380,158,45778,1,0,0:0:0:0:
103,156,45978,1,0,0:0:0:0:
328,320,46178,2,0,P|376:336|368:280,1,95.9999970703126
388,81,46578,2,0,P|366:43|328:63,1,95.9999970703126
240,336,46978,1,0,0:0:0:0:
156,56,47378,5,0,0:0:0:0:
156,56,47578,1,0,0:0:0:0:
408,176,47778,5,0,0:0:0:0:
368,212,47878,1,0,0:0:0:0:
324,240,47978,1,0,0:0:0:0:
272,252,48078,1,0,0:0:0:0:
260,156,48178,5,0,0:0:0:0:
260,104,48278,1,0,0:0:0:0:
208,92,48378,1,0,0:0:0:0:
164,120,48478,1,0,0:0:0:0:
80,72,48578,5,0,0:0:0:0:
88,124,48678,1,0,0:0:0:0:
104,172,48778,1,0,0:0:0:0:
124,220,48878,1,0,0:0:0:0:
152,264,48978,1,0,0:0:0:0:
196,292,49078,1,0,0:0:0:0:
248,304,49178,1,0,0:0:0:0:
300,300,49278,1,0,0:0:0:0:
348,284,49378,5,0,0:0:0:0:
480,88,49578,1,0,0:0:0:0:
268,40,49778,1,0,0:0:0:0:
380,320,49978,1,0,0:0:0:0:
36,348,50178,1,0,0:0:0:0:
48,356,50778,5,0,0:0:0:0:
68,368,51178,2,0,P|84:376|156:352,1,95.9999970703126
180,232,51778,2,0,P|156:216|92:232,1,95.9999970703126
308,152,52378,1,0,0:0:0:0:
440,36,52578,5,0,0:0:0:0:
476,224,52778,1,0,0:0:0:0:
288,261,52978,1,0,0:0:0:0:
251,72,53178,1,0,0:0:0:0:
452,336,53378,1,0,0:0:0:0:
292,36,53978,5,0,0:0:0:0:
412,280,54378,2,0,L|480:360,1,95.9999970703126
292,36,54978,1,0,0:0:0:0:
296,340,55178,1,0,0:0:0:0:
188,48,55378,1,0,0:0:0:0:
192,352,55578,1,0,0:0:0:0:
472,144,55778,6,0,L|420:24,1,95.9999970703126
320,344,56178,2,0,L|281:255,1,95.9999970703126
464,44,56578,5,0,0:0:0:0:
392,176,56778,1,0,0:0:0:0:
304,48,56978,1,0,0:0:0:0:
196,344,57178,5,0,0:0:0:0:
376,272,57378,1,0,0:0:0:0:
240,84,57578,1,0,0:0:0:0:
240,84,57778,1,0,0:0:0:0:
368,40,57978,1,0,0:0:0:0:
288,324,58178,5,0,0:0:0:0:
120,100,58378,1,0,0:0:0:0:
384,36,58578,1,0,0:0:0:0:
336,344,58778,1,0,0:0:0:0:
464,200,58978,5,0,0:0:0:0:
348,96,59178,1,0,0:0:0:0:
196,120,59378,1,0,0:0:0:0:
252,264,59578,1,0,0:0:0:0:
72,256,59778,1,0,0:0:0:0:
216,40,60178,5,0,0:0:0:0:
216,40,60378,1,0,0:0:0:0:
464,256,60578,5,0,0:0:0:0:
448,200,60678,1,0,0:0:0:0:
420,152,60778,1,0,0:0:0:0:
372,120,60878,1,0,0:0:0:0:
344,212,60978,5,0,0:0:0:0:
320,264,61078,1,0,0:0:0:0:
272,296,61178,1,0,0:0:0:0:
216,304,61278,1,0,0:0:0:0:
308,324,61378,5,0,0:0:0:0:
288,264,61478,1,0,0:0:0:0:
244,220,61578,1,0,0:0:0:0:
184,208,61678,1,0,0:0:0:0:
124,184,61778,1,0,0:0:0:0:
96,128,61878,1,0,0:0:0:0:
120,72,61978,1,0,0:0:0:0:
176,48,62078,1,0,0:0:0:0:
240,44,62178,5,0,0:0:0:0:
432,180,62378,1,0,0:0:0:0:
188,244,62578,1,0,0:0:0:0:
376,28,62778,1,0,0:0:0:0:
276,340,62978,1,0,0:0:0:0:
288,348,63578,1,0,0:0:0:0:
304,360,63978,2,0,L|224:288,1,95.9999970703126
144,208,64578,2,0,L|216:280,1,95.9999970703126
464,144,65178,6,0,L|376:200,1,95.9999970703126
232,272,65578,1,0,0:0:0:0:
284,84,65778,1,0,0:0:0:0:
80,212,65978,1,0,0:0:0:0:
416,100,66178,1,0,0:0:0:0:
112,48,66778,5,0,0:0:0:0:
112,48,66978,1,0,0:0:0:0:
48,296,67178,1,0,0:0:0:0:
232,224,67378,1,0,0:0:0:0:
204,48,67578,1,0,0:0:0:0:
132,344,67778,1,0,0:0:0:0:
48,216,67978,1,0,0:0:0:0:
400,120,68178,1,0,0:0:0:0:
460,28,68378,1,0,0:0:0:0:
64,40,68578,5,0,0:0:0:0:
78,77,68678,1,0,0:0:0:0:
93,114,68778,1,0,0:0:0:0:
107,151,68878,1,0,0:0:0:0:
122,189,68978,1,0,0:0:0:0:
136,226,69078,1,0,0:0:0:0:
151,263,69178,1,0,0:0:0:0:
165,300,69278,1,0,0:0:0:0:
180,338,69378,1,0,0:0:0:0:
204,56,71778,5,0,0:0:0:0:
218,93,71878,1,0,0:0:0:0:
233,130,71978,1,0,0:0:0:0:
247,167,72078,1,0,0:0:0:0:
262,205,72178,1,0,0:0:0:0:
276,242,72278,1,0,0:0:0:0:
291,279,72378,1,0,0:0:0:0:
305,316,72478,1,0,0:0:0:0:
320,354,72578,1,0,0:0:0:0:
464,92,73978,5,0,0:0:0:0:
392,60,74078,1,0,0:0:0:0:
312,44,74178,1,0,0:0:0:0:
312,44,74378,1,0,0:0:0:0:
312,44,74778,1,0,0:0:0:0:
312,44,74978,5,0,0:0:0:0:
282,47,75078,1,0,0:0:0:0:
253,55,75178,1,0,0:0:0:0:
225,66,75278,1,0,0:0:0:0:
199,81,75378,1,0,0:0:0:0:
175,99,75478,1,0,0:0:0:0:
154,120,75578,1,0,0:0:0:0:
136,144,75678,1,0,0:0:0:0:
121,170,75778,1,0,0:0:0:0:
400,324,76178,5,0,0:0:0:0:
400,324,76278,1,0,0:0:0:0:
400,324,76378,1,0,0:0:0:0:
400,324,76778,1,0,0:0:0:0:
400,324,76878,1,0,0:0:0:0:
400,324,76978,1,0,0:0:0:0:
60,336,77378,5,0,0:0:0:0:
70,293,77478,1,0,0:0:0:0:
80,250,77578,1,0,0:0:0:0:
90,207,77678,1,0,0:0:0:0:
101,164,77778,1,0,0:0:0:0:
111,122,77878,1,0,0:0:0:0:
121,79,77978,1,0,0:0:0:0:
132,36,78078,1,0,0:0:0:0:
208,40,78178,5,0,0:0:0:0:
198,82,78278,1,0,0:0:0:0:
188,125,78378,1,0,0:0:0:0:
179,168,78478,1,0,0:0:0:0:
169,211,78578,1,0,0:0:0:0:
160,254,78678,1,0,0:0:0:0:
150,297,78778,1,0,0:0:0:0:
141,340,78878,1,0,0:0:0:0:
128,384,78978,1,0,0:0:0:0:
380,208,79378,5,0,0:0:0:0:
416,232,79478,1,0,0:0:0:0:
452,260,79578,1,0,0:0:0:0:
40,64,79978,1,0,0:0:0:0:
76,88,80078,1,0,0:0:0:0:
112,116,80178,1,0,0:0:0:0:
420,120,80578,5,0,0:0:0:0:
406,83,80678,1,0,0:0:0:0:
373,60,80778,1,0,0:0:0:0:
334,62,80878,1,0,0:0:0:0:
303,86,80978,1,0,0:0:0:0:
291,123,81078,1,0,0:0:0:0:
304,160,81178,1,0,0:0:0:0:
337,183,81278,1,0,0:0:0:0:
376,183,81378,5,0,0:0:0:0:
376,183,81478,1,0,0:0:0:0:
376,183,81578,1,0,0:0:0:0:
304,320,81778,1,0,0:0:0:0:
204,112,81978,1,0,0:0:0:0:
384,272,82178,1,0,0:0:0:0:
396,284,82778,5,0,0:0:0:0:
48,136,83178,2,0,P|32:100|68:44,1,80
468,62,83778,2,0,P|479:100|464:136,1,80
180,52,84378,5,0,0:0:0:0:
132,344,84578,1,0,0:0:0:0:
170,332,84678,1,0,0:0:0:0:
208,321,84778,1,0,0:0:0:0:
247,310,84878,1,0,0:0:0:0:
285,299,84978,1,0,0:0:0:0:
306,268,85078,1,0,0:0:0:0:
321,231,85178,1,0,0:0:0:0:
335,194,85278,1,0,0:0:0:0:
350,157,85378,1,0,0:0:0:0:
60,112,85778,6,0,L|44:220,1,80
60,112,86378,1,0,0:0:0:0:
444,268,86778,5,0,0:0:0:0:
368,296,86878,1,0,0:0:0:0:
292,316,86978,1,0,0:0:0:0:
132,304,87178,1,0,0:0:0:0:
132,304,87578,1,0,0:0:0:0:
132,304,87778,5,0,0:0:0:0:
112,264,87878,1,0,0:0:0:0:
99,222,87978,1,0,0:0:0:0:
95,179,88078,1,0,0:0:0:0:
101,135,88178,1,0,0:0:0:0:
118,95,88278,1,0,0:0:0:0:
147,62,88378,1,0,0:0:0:0:
184,40,88478,1,0,0:0:0:0:
216,70,88578,1,0,0:0:0:0:
432,280,88978,6,0,L|472:312,2,40
292,64,89578,2,0,L|308:20,2,40
276,340,90178,5,0,0:0:0:0:
227,320,90278,1,0,0:0:0:0:
182,294,90378,1,0,0:0:0:0:
140,263,90478,1,0,0:0:0:0:
101,229,90578,1,0,0:0:0:0:
65,192,90678,1,0,0:0:0:0:
73,174,90778,1,0,0:0:0:0:
124,179,90878,1,0,0:0:0:0:
88,108,90978,5,0,0:0:0:0:
129,139,91078,1,0,0:0:0:0:
170,170,91178,1,0,0:0:0:0:
212,201,91278,1,0,0:0:0:0:
254,232,91378,1,0,0:0:0:0:
250,246,91478,1,0,0:0:0:0:
199,237,91578,1,0,0:0:0:0:
149,221,91678,1,0,0:0:0:0:
101,203,91778,1,0,0:0:0:0:
100,204,92178,5,0,0:0:0:0:
100,204,92278,1,0,0:0:0:0:
100,204,92378,1,0,0:0:0:0:
360,48,92778,1,0,0:0:0:0:
360,48,92878,2,0,L|400:72,1,40
296,288,93378,5,0,0:0:0:0:
112,72,93578,1,0,0:0:0:0:
296,200,93778,1,0,0:0:0:0:
28,356,93978,1,0,0:0:0:0:
208,132,94178,5,0,0:0:0:0:
208,132,94378,1,0,0:0:0:0:
208,132,94578,1,0,0:0:0:0:
208,132,94778,1,0,0:0:0:0:
468,312,94978,1,0,0:0:0:0:
208,44,95578,1,0,0:0:0:0:
208,44,95778,1,0,0:0:0:0:
88,284,95978,2,0,L|88:384,1,95.9999970703126
364,268,96578,5,0,0:0:0:0:
112,44,96778,1,0,0:0:0:0:
412,40,96978,1,0,0:0:0:0:
232,352,97178,1,0,0:0:0:0:
148,196,97378,5,0,0:0:0:0:
148,196,97578,1,0,0:0:0:0:
148,196,97778,1,0,0:0:0:0:
148,196,97978,1,0,0:0:0:0:
472,48,98178,1,0,0:0:0:0:
432,184,98378,1,0,0:0:0:0:
164,40,98578,1,0,0:0:0:0:
116,352,98778,1,0,0:0:0:0:
388,304,98978,5,0,0:0:0:0:
436,244,99078,1,0,0:0:0:0:
480,180,99178,1,0,0:0:0:0:
296,124,99378,5,0,0:0:0:0:
254,78,99478,1,0,0:0:0:0:
194,65,99578,1,0,0:0:0:0:
137,88,99678,1,0,0:0:0:0:
196,164,99778,5,0,0:0:0:0:
243,203,99878,1,0,0:0:0:0:
303,216,99978,1,0,0:0:0:0:
359,190,100078,1,0,0:0:0:0:
399,158,100178,1,0,0:0:0:0:
389,219,100278,1,0,0:0:0:0:
364,276,100378,1,0,0:0:0:0:
314,311,100478,1,0,0:0:0:0:
252,314,100578,5,0,0:0:0:0:
116,248,100778,1,0,0:0:0:0:
364,252,100978,1,0,0:0:0:0:
140,148,101178,1,0,0:0:0:0:
424,340,101378,1,0,0:0:0:0:
44,220,101978,5,0,0:0:0:0:
456,80,102378,1,0,0:0:0:0:
448,248,102578,1,0,0:0:0:0:
448,248,102778,1,0,0:0:0:0:
176,40,102978,1,0,0:0:0:0:
176,40,103178,1,0,0:0:0:0:
176,40,103378,1,0,0:0:0:0:
132,328,103578,1,0,0:0:0:0:
296,304,103778,5,0,0:0:0:0:
160,192,103978,1,0,0:0:0:0:
176,312,104178,1,0,0:0:0:0:
296,172,104378,1,0,0:0:0:0:
0,32,104578,1,0,0:0:0:0:
16,40,105178,5,0,0:0:0:0:
140,344,105578,1,0,0:0:0:0:
140,344,105778,1,0,0:0:0:0:
140,344,105978,1,0,0:0:0:0:
388,104,106178,5,0,0:0:0:0:
92,144,106378,1,0,0:0:0:0:
388,104,106578,1,0,0:0:0:0:
76,312,106778,1,0,0:0:0:0:
176,48,106978,6,0,P|216:44|276:64,3,95.9999970703126
56,344,107778,1,0,0:0:0:0:
480,52,108378,5,0,0:0:0:0:
400,328,108778,2,0,L|312:368,1,95.9999970703126
164,44,109378,1,0,0:0:0:0:
164,352,109578,1,0,0:0:0:0:
356,88,109778,1,0,0:0:0:0:
16,88,109978,1,0,0:0:0:0:
256,232,110178,5,0,0:0:0:0:
312,252,110378,1,0,0:0:0:0:
304,188,110578,1,0,0:0:0:0:
328,128,110778,1,0,0:0:0:0:
36,296,110978,1,0,0:0:0:0:
220,348,111178,1,0,0:0:0:0:
24,96,111378,1,0,0:0:0:0:
376,32,111578,1,0,0:0:0:0:
448,288,111778,5,0,0:0:0:0:
448,288,111878,1,0,0:0:0:0:
448,288,111978,1,0,0:0:0:0:
28,28,112178,5,0,0:0:0:0:
28,28,112278,1,0,0:0:0:0:
28,28,112378,1,0,0:0:0:0:
492,44,112578,5,0,0:0:0:0:
487,106,112678,1,0,0:0:0:0:
474,167,112778,1,0,0:0:0:0:
437,216,112878,1,0,0:0:0:0:
384,248,112978,1,0,0:0:0:0:
326,271,113078,1,0,0:0:0:0:
266,288,113178,1,0,0:0:0:0:
205,303,113278,1,0,0:0:0:0:
144,312,113378,5,0,0:0:0:0:
144,312,113578,1,0,0:0:0:0:
28,192,113778,1,0,0:0:0:0:
28,192,113978,1,0,0:0:0:0:
376,32,114178,1,0,0:0:0:0:
388,44,114778,5,0,0:0:0:0:
28,192,115178,1,0,0:0:0:0:
28,192,115378,1,0,0:0:0:0:
28,192,115578,1,0,0:0:0:0:
332,348,115778,1,0,0:0:0:0:
468,220,115978,2,0,P|432:176|368:160,1,95.9999970703126
48,100,116378,1,0,0:0:0:0:
200,260,116578,5,0,0:0:0:0:
244,92,116778,1,0,0:0:0:0:
344,268,116978,1,0,0:0:0:0:
148,160,117178,1,0,0:0:0:0:
412,112,117378,1,0,0:0:0:0:
412,112,117478,1,0,0:0:0:0:
412,112,117578,1,0,0:0:0:0:
412,112,117678,1,0,0:0:0:0:
412,112,117778,1,0,0:0:0:0:
412,112,117878,1,0,0:0:0:0:
412,112,117978,1,0,0:0:0:0:
412,112,118078,1,0,0:0:0:0:
412,112,118178,5,0,0:0:0:0:
256,328,118378,1,0,0:0:0:0:
88,108,118578,1,0,0:0:0:0:
376,56,118778,1,0,0:0:0:0:
152,264,118978,1,0,0:0:0:0:
152,264,119078,1,0,0:0:0:0:
152,264,119178,1,0,0:0:0:0:
152,264,119278,1,0,0:0:0:0:
152,264,119378,1,0,0:0:0:0:
152,264,119478,1,0,0:0:0:0:
152,264,119578,1,0,0:0:0:0:
152,264,119678,1,0,0:0:0:0:
152,264,119778,5,0,0:0:0:0:
448,136,119978,1,0,0:0:0:0:
144,16,120178,1,0,0:0:0:0:
376,264,120378,1,0,0:0:0:0:
52,104,120578,1,0,0:0:0:0:
52,104,120678,1,0,0:0:0:0:
52,104,120778,1,0,0:0:0:0:
52,104,120878,1,0,0:0:0:0:
52,104,120978,1,0,0:0:0:0:
52,104,121078,1,0,0:0:0:0:
52,104,121178,1,0,0:0:0:0:
52,104,121278,1,0,0:0:0:0:
52,104,121378,5,0,0:0:0:0:
424,128,121578,1,0,0:0:0:0:
116,368,121778,1,0,0:0:0:0:
276,0,121978,1,0,0:0:0:0:
480,352,122178,1,0,0:0:0:0:
472,348,122278,1,0,0:0:0:0:
464,344,122378,1,0,0:0:0:0:
456,340,122478,1,0,0:0:0:0:
448,336,122578,1,0,0:0:0:0:
440,332,122678,1,0,0:0:0:0:
432,328,122778,1,0,0:0:0:0:
424,324,122878,1,0,0:0:0:0:
416,320,122978,5,0,0:0:0:0:
88,72,123178,1,0,0:0:0:0:
508,16,123378,1,0,0:0:0:0:
36,56,123578,1,0,0:0:0:0:
472,280,123778,1,0,0:0:0:0:
360,304,126178,5,0,0:0:0:0:
389,301,126278,1,0,0:0:0:0:
410,282,126378,1,0,0:0:0:0:
415,253,126478,1,0,0:0:0:0:
400,227,126578,1,0,0:0:0:0:
373,217,126678,1,0,0:0:0:0:
345,226,126778,1,0,0:0:0:0:
329,250,126878,1,0,0:0:0:0:
331,279,126978,1,0,0:0:0:0:
212,48,127378,6,0,P|156:56|144:84,1,80
216,180,127778,2,0,P|188:207|150:204,1,80
88,92,128178,2,0,P|32:100|20:128,1,80
22,116,128478,1,0,0:0:0:0:
22,116,128578,1,0,0:0:0:0:
196,300,128778,1,0,0:0:0:0:
320,72,128978,1,0,0:0:0:0:
328,316,129178,1,0,0:0:0:0:
170,93,129378,5,0,0:0:0:0:
160,65,129478,1,0,0:0:0:0:
136,50,129578,1,0,0:0:0:0:
107,52,129678,1,0,0:0:0:0:
85,73,129778,1,0,0:0:0:0:
82,101,129878,1,0,0:0:0:0:
98,126,129978,1,0,0:0:0:0:
125,136,130078,1,0,0:0:0:0:
153,127,130178,1,0,0:0:0:0:
392,76,130578,6,0,L|448:152,1,80
304,176,130978,2,0,L|248:252,1,80
396,260,131378,2,0,L|452:336,1,80
443,324,131678,1,0,0:0:0:0:
443,324,131778,1,0,0:0:0:0:
176,248,131978,1,0,0:0:0:0:
448,172,132178,1,0,0:0:0:0:
160,96,132378,1,0,0:0:0:0:
328,304,132578,5,0,0:0:0:0:
296,280,132678,1,0,0:0:0:0:
264,256,132778,1,0,0:0:0:0:
288,223,132878,1,0,0:0:0:0:
312,192,132978,1,0,0:0:0:0:
344,216,133078,1,0,0:0:0:0:
376,240,133178,1,0,0:0:0:0:
352,272,133278,1,0,0:0:0:0:
329,304,133378,1,0,0:0:0:0:
88,144,133778,6,0,P|68:108|96:44,1,80
216,212,134178,2,0,P|196:176|224:112,1,80
340,284,134578,2,0,P|320:248|348:184,1,80
324,210,134878,2,0,L|344:176,1,40
480,28,135178,1,0,0:0:0:0:
288,256,135378,1,0,0:0:0:0:
480,28,135578,1,0,0:0:0:0:
200,184,135778,5,0,0:0:0:0:
166,205,135878,1,0,0:0:0:0:
133,227,135978,1,0,0:0:0:0:
110,193,136078,1,0,0:0:0:0:
89,160,136178,1,0,0:0:0:0:
122,138,136278,1,0,0:0:0:0:
156,117,136378,1,0,0:0:0:0:
178,150,136478,1,0,0:0:0:0:
200,183,136578,1,0,0:0:0:0:
460,208,136978,5,0,0:0:0:0:
264,36,137378,1,0,0:0:0:0:
460,208,137778,1,0,0:0:0:0:
264,36,137978,1,0,0:0:0:0:
264,36,138078,1,0,0:0:0:0:
264,36,138178,1,0,0:0:0:0:
132,284,138378,1,0,0:0:0:0:
408,132,138578,1,0,0:0:0:0:
96,64,138778,1,0,0:0:0:0:
320,344,138978,5,0,0:0:0:0:
300,338,139078,1,0,0:0:0:0:
281,332,139178,1,0,0:0:0:0:
262,326,139278,1,0,0:0:0:0:
243,321,139378,1,0,0:0:0:0:
224,315,139478,1,0,0:0:0:0:
205,309,139578,1,0,0:0:0:0:
185,303,139678,1,0,0:0:0:0:
166,298,139778,1,0,0:0:0:0:
32,144,140578,5,0,0:0:0:0:
33,124,140678,1,0,0:0:0:0:
39,105,140778,1,0,0:0:0:0:
50,88,140878,1,0,0:0:0:0:
65,75,140978,1,0,0:0:0:0:
83,66,141078,1,0,0:0:0:0:
102,62,141178,1,0,0:0:0:0:
122,63,141278,1,0,0:0:0:0:
141,69,141378,1,0,0:0:0:0:
452,88,142178,5,0,0:0:0:0:
460,114,142278,1,0,0:0:0:0:
468,141,142378,1,0,0:0:0:0:
476,168,142478,1,0,0:0:0:0:
465,174,142578,1,0,0:0:0:0:
438,164,142678,1,0,0:0:0:0:
412,154,142778,1,0,0:0:0:0:
386,145,142878,1,0,0:0:0:0:
360,135,142978,1,0,0:0:0:0:
132,64,143778,5,0,0:0:0:0:
95,46,143878,1,0,0:0:0:0:
63,36,143978,1,0,0:0:0:0:
62,76,144078,1,0,0:0:0:0:
69,115,144178,1,0,0:0:0:0:
81,154,144278,1,0,0:0:0:0:
96,191,144378,1,0,0:0:0:0:
112,227,144478,1,0,0:0:0:0:
132,268,144578,2,0,B|148:296|160:316|220:352|220:352|184:228|312:172,1,320
480,100,145378,5,0,0:0:0:0:
438,75,145478,1,0,0:0:0:0:
394,56,145578,1,0,0:0:0:0:
348,43,145678,1,0,0:0:0:0:
301,36,145778,1,0,0:0:0:0:
253,36,145878,1,0,0:0:0:0:
205,42,145978,1,0,0:0:0:0:
159,54,146078,1,0,0:0:0:0:
114,72,146178,1,0,0:0:0:0:
32,224,146578,6,0,L|128:324,1,120.000004577637
184,212,146978,2,0,L|280:312,1,120.000004577637
336,200,147378,2,0,L|432:300,1,120.000004577637
419,286,147678,1,0,0:0:0:0:
419,286,147778,1,0,0:0:0:0:
372,24,147978,1,0,0:0:0:0:
160,240,148178,1,0,0:0:0:0:
488,304,148378,1,0,0:0:0:0:
140,328,148578,5,0,0:0:0:0:
99,303,148678,1,0,0:0:0:0:
73,263,148778,1,0,0:0:0:0:
67,215,148878,1,0,0:0:0:0:
83,170,148978,1,0,0:0:0:0:
116,136,149078,1,0,0:0:0:0:
161,120,149178,1,0,0:0:0:0:
208,125,149278,1,0,0:0:0:0:
249,151,149378,1,0,0:0:0:0:
372,300,149778,6,0,P|404:320|412:260,1,120.000004577637
407,145,150178,2,0,P|440:127|392:90,1,120.000004577637
291,37,150578,2,0,P|292:0|236:22,1,120.000004577637
224,92,150878,1,0,0:0:0:0:
228,164,150978,1,0,0:0:0:0:
468,336,151178,1,0,0:0:0:0:
328,48,151378,1,0,0:0:0:0:
112,316,151578,1,0,0:0:0:0:
452,104,151778,1,0,0:0:0:0:
360,128,157578,6,0,L|380:112,3,20
408,92,157778,2,0,B|424:80|472:68|472:68|496:152|440:156,1,160
92,344,158178,5,0,0:0:0:0:
58,309,158278,1,0,0:0:0:0:
58,264,158378,1,0,0:0:0:0:
92,230,158478,1,0,0:0:0:0:
123,205,158578,1,0,0:0:0:0:
84,176,158678,1,0,0:0:0:0:
63,134,158778,1,0,0:0:0:0:
77,90,158878,1,0,0:0:0:0:
115,61,158978,1,0,0:0:0:0:
320,44,159378,5,0,0:0:0:0:
320,44,159578,1,0,0:0:0:0:
300,204,159778,1,0,0:0:0:0:
476,136,159978,1,0,0:0:0:0:
476,136,160178,1,0,0:0:0:0:
420,304,160378,1,0,0:0:0:0:
200,52,160578,1,0,0:0:0:0:
272,260,160778,2,0,P|296:284|372:296,1,95.9999970703126
156,24,161178,1,0,0:0:0:0:
64,232,161378,5,0,0:0:0:0:
288,188,161578,1,0,0:0:0:0:
128,336,161778,1,0,0:0:0:0:
356,292,161978,1,0,0:0:0:0:
24,112,162178,1,0,0:0:0:0:
24,112,162378,1,0,0:0:0:0:
280,32,162578,2,0,L|280:128,1,95.9999970703126
280,128,162978,1,0,0:0:0:0:
28,336,163178,1,0,0:0:0:0:
56,192,163378,1,0,0:0:0:0:
380,36,163578,5,0,0:0:0:0:
428,96,163678,1,0,0:0:0:0:
456,168,163778,1,0,0:0:0:0:
132,348,163978,5,0,0:0:0:0:
56,216,164178,1,0,0:0:0:0:
132,348,164378,1,0,0:0:0:0:
292,32,164578,6,0,P|320:52|384:144,1,103.999995239258
360,252,164978,2,0,P|392:292|433:324,1,103.999995239258
212,60,165378,1,0,0:0:0:0:
212,60,165578,1,0,0:0:0:0:
212,60,165778,1,0,0:0:0:0:
40,324,165978,1,0,0:0:0:0:
40,324,166178,1,0,0:0:0:0:
116,144,166378,2,0,P|152:168|176:240,1,103.999995239258
476,60,166978,5,0,0:0:0:0:
144,232,167178,1,0,0:0:0:0:
496,336,167378,1,0,0:0:0:0:
248,24,167578,1,0,0:0:0:0:
240,256,167778,1,0,0:0:0:0:
360,316,167978,1,0,0:0:0:0:
336,204,168178,1,0,0:0:0:0:
264,356,168378,1,0,0:0:0:0:
48,116,168578,2,0,P|16:92|76:60,1,103.999995239258
412,88,168978,6,0,L|364:56,1,51.999997619629
412,88,169178,2,0,L|356:136,1,51.999997619629
156,336,169378,5,0,0:0:0:0:
192,295,169478,1,0,0:0:0:0:
175,244,169578,1,0,0:0:0:0:
121,235,169678,1,0,0:0:0:0:
68,324,169778,5,0,0:0:0:0:
117,295,169878,1,0,0:0:0:0:
166,266,169978,1,0,0:0:0:0:
215,237,170078,1,0,0:0:0:0:
124,188,170178,5,0,0:0:0:0:
158,233,170278,1,0,0:0:0:0:
205,266,170378,1,0,0:0:0:0:
256,291,170478,1,0,0:0:0:0:
279,282,170578,1,0,0:0:0:0:
260,228,170678,1,0,0:0:0:0:
228,206,170778,1,0,0:0:0:0:
177,233,170878,1,0,0:0:0:0:
127,261,170978,5,0,0:0:0:0:
64,64,171178,1,0,0:0:0:0:
272,80,171378,1,0,0:0:0:0:
84,168,171578,1,0,0:0:0:0:
436,228,171778,1,0,0:0:0:0:
448,240,172378,5,0,0:0:0:0:
460,256,172778,2,0,L|460:364,1,103.999995239258
472,268,173378,1,0,0:0:0:0:
460,360,173578,2,0,L|460:256,1,103.999995239258
464,24,173978,1,0,0:0:0:0:
272,84,174178,5,0,0:0:0:0:
132,80,174378,1,0,0:0:0:0:
56,232,174578,2,0,P|72:272|160:296,1,103.999995239258
496,332,174978,1,0,0:0:0:0:
508,344,175578,1,0,0:0:0:0:
92,32,175978,1,0,0:0:0:0:
92,32,176078,1,0,0:0:0:0:
92,32,176178,1,0,0:0:0:0:
420,88,176578,5,0,0:0:0:0:
472,188,176778,1,0,0:0:0:0:
72,108,176978,1,0,0:0:0:0:
132,208,177178,1,0,0:0:0:0:
428,36,177378,5,0,0:0:0:0:
152,300,177578,1,0,0:0:0:0:
512,328,177778,1,0,0:0:0:0:
208,20,177978,1,0,0:0:0:0:
164,368,178178,1,0,0:0:0:0:
164,368,178378,1,0,0:0:0:0:
164,368,178578,1,0,0:0:0:0:
488,112,178778,1,0,0:0:0:0:
488,112,178978,1,0,0:0:0:0:
252,28,179178,2,0,L|132:80,1,120.000004577637
480,184,179778,5,0,0:0:0:0:
60,176,179978,1,0,0:0:0:0:
420,272,180178,1,0,0:0:0:0:
0,264,180378,1,0,0:0:0:0:
356,44,180578,6,0,P|400:68|448:172,1,120.000004577637
392,336,180978,2,0,L|248:352,1,120.000004577637
24,68,181378,1,0,0:0:0:0:
24,68,181578,1,0,0:0:0:0:
172,352,181778,1,0,0:0:0:0:
68,8,181978,1,0,0:0:0:0:
456,188,182178,5,0,0:0:0:0:
452,116,182278,1,0,0:0:0:0:
404,60,182378,1,0,0:0:0:0:
332,76,182478,1,0,0:0:0:0:
439,124,182578,5,0,0:0:0:0:
388,172,182678,1,0,0:0:0:0:
316,168,182778,1,0,0:0:0:0:
264,120,182878,1,0,0:0:0:0:
272,240,182978,5,0,0:0:0:0:
344,248,183078,1,0,0:0:0:0:
400,292,183178,1,0,0:0:0:0:
352,348,183278,1,0,0:0:0:0:
284,324,183378,1,0,0:0:0:0:
240,268,183478,1,0,0:0:0:0:
180,228,183578,1,0,0:0:0:0:
112,252,183678,1,0,0:0:0:0:
76,316,183778,5,0,0:0:0:0:
20,76,183978,1,0,0:0:0:0:
204,308,184178,1,0,0:0:0:0:
64,24,184378,1,0,0:0:0:0:
432,332,184578,1,0,0:0:0:0:
437,318,184678,1,0,0:0:0:0:
443,304,184778,1,0,0:0:0:0:
449,290,184878,1,0,0:0:0:0:
455,276,184978,1,0,0:0:0:0:
461,262,185078,1,0,0:0:0:0:
467,249,185178,1,0,0:0:0:0:
473,235,185278,1,0,0:0:0:0:
478,221,185378,5,0,0:0:0:0:
192,36,185578,1,0,0:0:0:0:
88,336,185778,1,0,0:0:0:0:
500,300,185978,1,0,0:0:0:0:
144,32,186178,1,0,0:0:0:0:
129,35,186278,1,0,0:0:0:0:
114,38,186378,1,0,0:0:0:0:
100,41,186478,1,0,0:0:0:0:
85,45,186578,1,0,0:0:0:0:
70,48,186678,1,0,0:0:0:0:
56,51,186778,1,0,0:0:0:0:
41,55,186878,1,0,0:0:0:0:
26,58,186978,5,0,0:0:0:0:
168,344,187178,1,0,0:0:0:0:
340,16,187378,1,0,0:0:0:0:
508,372,187578,1,0,0:0:0:0:
52,360,187778,1,0,0:0:0:0:
48,345,187878,1,0,0:0:0:0:
45,330,187978,1,0,0:0:0:0:
42,316,188078,1,0,0:0:0:0:
38,301,188178,1,0,0:0:0:0:
35,286,188278,1,0,0:0:0:0:
32,272,188378,1,0,0:0:0:0:
28,257,188478,1,0,0:0:0:0:
25,242,188578,5,0,0:0:0:0:
272,24,188778,1,0,0:0:0:0:
488,320,188978,1,0,0:0:0:0:
80,360,189178,1,0,0:0:0:0:
408,20,189378,1,0,0:0:0:0:
405,34,189478,1,0,0:0:0:0:
406,49,189578,1,0,0:0:0:0:
411,63,189678,1,0,0:0:0:0:
419,76,189778,1,0,0:0:0:0:
430,85,189878,1,0,0:0:0:0:
444,92,189978,1,0,0:0:0:0:
459,94,190078,1,0,0:0:0:0:
473,93,190178,5,0,0:0:0:0:
432,320,190378,1,0,0:0:0:0:
324,60,190578,1,0,0:0:0:0:
256,312,190778,1,0,0:0:0:0:
40,24,190978,1,0,0:0:0:0:
48,32,191578,1,0,0:0:0:0:
48,32,191778,1,0,0:0:0:0:
52,264,191978,2,0,L|120:368,1,120.000004577637
117,364,192378,1,0,0:0:0:0:
268,40,192578,5,0,0:0:0:0:
40,312,192778,1,0,0:0:0:0:
440,80,192978,1,0,0:0:0:0:
44,352,193178,1,0,0:0:0:0:
284,36,193378,5,0,0:0:0:0:
456,352,193578,1,0,0:0:0:0:
236,36,193778,1,0,0:0:0:0:
16,364,193978,1,0,0:0:0:0:
504,132,194178,1,0,0:0:0:0:
504,132,194378,1,0,0:0:0:0:
12,188,194578,6,0,L|48:240,1,60.0000022888184
256,20,194778,2,0,L|304:68,1,60.0000022888184
480,320,194978,5,0,0:0:0:0:
480,236,195078,1,0,0:0:0:0:
460,156,195178,1,0,0:0:0:0:
384,116,195278,1,0,0:0:0:0:
400,256,195378,5,0,0:0:0:0:
324,292,195478,1,0,0:0:0:0:
244,312,195578,1,0,0:0:0:0:
160,312,195678,1,0,0:0:0:0:
208,180,195778,6,0,L|236:188,2,20.0000007629395
268,200,195878,1,0,0:0:0:0:
348,176,195978,1,0,0:0:0:0:
364,92,196078,1,0,0:0:0:0:
288,56,196178,1,0,0:0:0:0:
248,132,196278,1,0,0:0:0:0:
296,200,196378,1,0,0:0:0:0:
272,280,196478,1,0,0:0:0:0:
188,276,196578,5,0,0:0:0:0:
24,84,196778,1,0,0:0:0:0:
224,40,196978,1,0,0:0:0:0:
76,224,197178,1,0,0:0:0:0:
488,40,197378,5,0,0:0:0:0:
483,73,197478,1,0,0:0:0:0:
479,106,197578,1,0,0:0:0:0:
474,139,197678,1,0,0:0:0:0:
470,173,197778,1,0,0:0:0:0:
465,206,197878,1,0,0:0:0:0:
461,239,197978,1,0,0:0:0:0:
456,273,198078,1,0,0:0:0:0:
452,306,198178,5,0,0:0:0:0:
204,184,198378,1,0,0:0:0:0:
424,24,198578,1,0,0:0:0:0:
404,296,198778,1,0,0:0:0:0:
64,20,198978,5,0,0:0:0:0:
101,12,199078,1,0,0:0:0:0:
138,20,199178,1,0,0:0:0:0:
170,41,199278,1,0,0:0:0:0:
190,73,199378,1,0,0:0:0:0:
197,111,199478,1,0,0:0:0:0:
188,148,199578,1,0,0:0:0:0:
165,179,199678,1,0,0:0:0:0:
133,198,199778,5,0,0:0:0:0:
388,40,199978,1,0,0:0:0:0:
284,328,200178,1,0,0:0:0:0:
56,120,200378,1,0,0:0:0:0:
464,344,200578,5,0,0:0:0:0:
475,302,200678,1,0,0:0:0:0:
479,259,200778,1,0,0:0:0:0:
478,216,200878,1,0,0:0:0:0:
462,193,200978,1,0,0:0:0:0:
427,219,201078,1,0,0:0:0:0:
399,251,201178,1,0,0:0:0:0:
374,287,201278,1,0,0:0:0:0:
352,324,201378,5,0,0:0:0:0:
511,6,201578,1,0,0:0:0:0:
127,24,201778,1,0,0:0:0:0:
416,302,201978,1,0,0:0:0:0:
18,34,202178,5,0,0:0:0:0:
69,43,202278,1,0,0:0:0:0:
121,53,202378,1,0,0:0:0:0:
173,62,202478,1,0,0:0:0:0:
225,72,202578,1,0,0:0:0:0:
277,82,202678,1,0,0:0:0:0:
329,91,202778,1,0,0:0:0:0:
381,101,202878,1,0,0:0:0:0:
433,111,202978,5,0,0:0:0:0:
456,204,203078,1,0,0:0:0:0:
405,285,203178,1,0,0:0:0:0:
320,330,203278,1,0,0:0:0:0:
224,329,203378,1,0,0:0:0:0:
134,295,203478,1,0,0:0:0:0:
58,235,203578,1,0,0:0:0:0:
42,140,203678,1,0,0:0:0:0:
40,44,203778,2,0,B|40:16|40:16|128:84,1,95.9999970703126
