osu file format v9

[General]
AudioFilename: - .mp3
AudioLeadIn: 0
PreviewTime: -1
Countdown: 1
SampleSet: Normal
StackLeniency: 0.7
Mode: 0
LetterboxInBreaks: 1

[Editor]
DistanceSpacing: 0.8
BeatDivisor: 3
GridSize: 32

[Metadata]
Title:Sex, Drugs & Rock-n-Roll
Artist:AntiMinor
Creator:zuljim
Version:Normal
Source:
Tags:

[Difficulty]
HPDrainRate:5
CircleSize:5
OverallDifficulty:5
ApproachRate:5
SliderMultiplier:1.6
SliderTickRate:2

[Events]
//Background and Video events
0,0,"Guitar.jpg"
//Break Periods
2,70712,81003
//Storyboard Layer 0 (Background)
//Storyboard Layer 1 (Fail)
//Storyboard Layer 2 (Pass)
//Storyboard Layer 3 (Foreground)
//Storyboard Sound Samples
//Background Colour Transformations
3,100,163,162,255

[TimingPoints]
10029.652173913,289.855072463768,4,1,0,100,1,0

[HitObjects]
256,192,4715,1,0
320,192,4908,2,0,B|416:192,1,53.3333333333333
256,192,6937,5,0
256,192,7227,1,0
192,64,7614,5,0
256,64,7904,1,0
320,64,8193,1,0
384,64,8483,2,0,B|384:256,1,160
384,256,8870,5,8
320,256,9160,1,0
256,256,9449,1,0
96,96,9933,5,0
160,96,10126,2,0,B|256:96,1,53.3333333333333
256,96,10512,1,0
160,192,10802,5,0
224,192,11092,1,0
96,64,12348,5,0
160,64,12541,1,0
224,64,12831,2,0,B|384:64,1,160
448,64,13411,1,0
416,128,13701,5,0
416,192,13894,1,0
416,192,14184,5,0
256,192,14570,5,0
192,192,14860,1,0
128,192,15150,2,0,B|128:32,1,160
192,128,15730,1,0
192,128,15923,1,0
192,64,16213,1,0
256,96,16986,5,0
320,96,17276,1,0
384,96,17565,1,0
448,96,17855,1,0
448,160,18145,2,0,B|64:160|32:160,1,373.333333333333
352,96,19305,5,0
288,96,19594,1,0
224,96,19884,1,0
160,96,20174,1,0
160,160,20464,1,0
224,160,20754,1,0
256,160,20947,1,0
256,64,21623,5,0
320,64,21913,2,0,B|320:256|352:256,1,160
384,224,22493,1,0
384,160,22783,1,0
384,96,23073,1,0
448,96,23362,1,0
448,160,23652,1,0
448,160,23942,1,0
256,64,24232,5,0
256,128,24522,2,0,B|256:288,1,160
288,288,25102,1,0
352,192,25488,5,0
384,192,25778,1,0
416,192,26068,1,0
352,192,27227,6,0,B|64:192|64:160|64:64|64:32|416:32,1,640
448,64,28966,1,0
448,128,29256,1,0
448,192,30126,1,0
448,256,30416,1,0
448,320,30705,2,0,B|64:320,1,373.333333333333
256,192,32251,5,8
256,160,32541,1,8
256,128,32831,1,8
192,192,33604,5,0
128,192,33991,1,0
192,128,34763,5,8
128,128,35150,1,8
256,128,35730,5,8
288,128,35826,1,8
288,192,36019,2,0,B|64:192|64:256|96:320|352:288|480:288,1,533.333333333333
448,224,37276,1,0
448,160,37469,1,0
256,192,38048,5,0
192,192,38338,1,0
128,192,38628,1,0
128,128,39498,5,0
192,128,39788,1,0
256,128,40077,1,0
256,192,40367,2,0,B|416:192,1,160
416,256,40850,2,0,B|256:256,1,160
192,256,41527,2,0,B|192:96,2,160
256,160,42879,5,0
352,160,43362,1,0
448,160,44135,1,0
448,224,44425,1,0
288,224,45102,1,0
224,224,45391,1,0
224,160,45681,1,0
288,160,45971,1,0
288,224,46261,1,0
256,192,46358,12,0,48580
256,192,49160,5,0
320,192,49449,1,8
256,192,51768,1,8
192,192,52058,1,8
256,192,54087,1,0
256,256,54377,1,0
256,192,56503,1,0
256,128,56792,1,8
256,192,58821,5,0
256,192,59111,1,0
256,192,59401,1,0
256,192,59691,1,0
256,192,59981,1,0
416,64,60754,5,8
352,64,61140,5,0
288,64,61430,1,0
224,64,61720,1,0
160,64,61913,2,0,B|32:64|32:128|32:352|96:352|448:352|448:224|416:128|160:160,1,800
160,96,63846,1,0
256,192,64135,1,0
352,288,64425,1,0
352,160,64715,1,0
352,64,65102,5,0
288,64,65295,1,0
288,128,66068,1,0
288,192,66358,1,0
352,192,66648,1,0
416,192,67034,1,0
480,192,67324,1,0
384,192,67614,1,0
352,192,67807,1,4
256,192,68000,5,0
256,128,68483,1,0
256,64,68773,1,0
192,64,69063,1,0
192,128,69353,1,0
192,192,69643,1,0
256,192,69933,2,0,B|384:192|416:128|384:32|192:64,1,320
256,192,82203,5,0
320,192,83362,1,0
384,128,84619,1,0
320,128,85778,1,0
256,128,87034,1,0
256,192,88193,1,0
192,192,89353,1,0
192,128,90416,1,0
256,128,91672,5,0
320,128,91962,1,0
384,128,92251,1,0
384,192,92541,1,0
384,256,92831,1,0
320,256,93121,1,0
256,256,93411,1,0
256,192,93701,1,0
256,128,93991,1,0
256,128,94280,1,0
320,128,94570,1,0
384,128,94860,1,0
384,192,95150,1,0
384,256,95440,1,0
320,256,95730,1,0
256,256,96019,1,0
256,256,96889,5,0
256,192,97179,1,0
256,128,97469,1,0
192,128,97759,1,0
128,128,98048,1,0
128,192,98338,1,0
128,256,98628,1,0
64,256,98918,1,0
64,320,99208,1,0
128,320,99498,1,0
192,320,99788,1,0
192,256,100077,1,0
256,256,100367,1,0
256,192,100561,1,0
256,192,100947,12,0,102976
128,128,103266,5,0
160,128,103556,1,0
192,128,103846,1,0
224,128,104135,1,0
128,192,104522,5,0
160,192,104812,1,0
192,192,105102,1,0
224,192,105391,1,0
224,192,108097,5,0
288,192,108580,1,0
352,192,109063,1,0
416,192,109353,1,0
416,192,109546,1,0
416,128,110416,1,0
352,128,110899,1,0
288,128,111575,1,0
224,128,112058,1,0
160,128,112734,1,0
160,192,113314,1,0
224,192,113894,1,0
288,192,114474,1,0
352,192,115053,1,0
352,128,115633,1,0
288,128,116213,1,0
224,128,116792,1,0
160,128,117372,1,0
160,64,117952,1,0
224,64,118532,1,0
288,64,119015,1,0
32,192,119691,6,0,B|416:288|448:64|448:64|416:0|64:0|256:64|32:352,1,1066.66666666667
256,192,123652,5,0
256,192,123749,12,0,125778
