osu file format v14

[General]
AudioFilename: For The Team.mp3
AudioLeadIn: 0
PreviewTime: 22603
Countdown: 0
SampleSet: Soft
StackLeniency: 0.7
Mode: 0
LetterboxInBreaks: 0
WidescreenStoryboard: 0

[Editor]
DistanceSpacing: 1.3
BeatDivisor: 4
GridSize: 4
TimelineZoom: 1

[Metadata]
Title:For The Team
TitleUnicode:For The Team
Artist:Anthony Sorbello, Danny McCarthy
ArtistUnicode:Anthony Sorbello, Danny McCarthy
Creator:Nozhomi
Version:Insane
Source:
Tags:lol league of legends elevator okoratu
BeatmapID:726187
BeatmapSetID:327164

[Difficulty]
HPDrainRate:7
CircleSize:4
OverallDifficulty:8
ApproachRate:8
SliderMultiplier:1.7
SliderTickRate:1

[Events]
//Background and Video events
0,0,"bgg.jpg",0,0
//Break Periods
//Storyboard Layer 0 (Background)
//Storyboard Layer 1 (Fail)
//Storyboard Layer 2 (Pass)
//Storyboard Layer 3 (Foreground)
//Storyboard Sound Samples

[TimingPoints]
211,468.75,4,2,1,80,1,0
6656,-100,4,2,1,50,0,0
6773,-100,4,2,1,80,0,0
20836,-100,4,2,3,70,0,0
22711,-100,4,2,1,80,0,0
37711,-83.3333333333333,4,2,1,90,0,1
52711,-200,4,2,1,80,0,0
53179,-100,4,2,1,60,0,0
54586,-133.333333333333,4,2,1,60,0,0
69586,-100,4,2,1,70,0,0
80836,-100,4,2,1,60,0,0
81304,-100,4,2,1,50,0,0
81773,-100,4,2,1,40,0,0
82242,-100,4,2,1,30,0,0
82711,-100,4,2,3,50,0,0
83179,-100,4,2,3,60,0,0
83648,-100,4,2,3,70,0,0
84117,-100,4,2,3,80,0,0
84586,-100,4,2,1,85,0,0
99586,-83.3333333333333,4,2,1,90,0,1
114586,-100,4,2,0,80,0,0
114820,-100,4,2,0,60,0,0
115054,-100,4,2,0,40,0,0
115289,-100,4,2,0,30,0,0
115523,-100,4,2,0,20,0,0
115757,-100,4,2,0,10,0,0
115992,-100,4,2,0,5,0,0

[Colours]
Combo1 : 103,98,236
Combo2 : 239,118,0
Combo3 : 126,84,194
Combo4 : 255,206,0

[HitObjects]
256,192,2086,12,2,5601,0:0:0:0:
368,76,6070,5,0,0:0:0:0:
316,172,6304,2,0,L|228:136,1,85,2|2,0:0|0:0,0:0:0:0:
172,108,6656,2,0,P|151:167|172:226,1,127.5,0|2,3:0|0:0,0:0:0:0:
302,253,7242,2,0,P|318:205|302:137,1,85,0|0,0:0|0:0,0:0:0:0:
232,24,7711,6,0,B|281:56|281:56|390:35,1,170,2|0,1:2|1:0,0:0:0:0:
500,12,8414,1,0,0:0:0:0:
452,112,8648,1,0,1:0:0:0:
396,208,8882,1,0,3:3:0:0:
367,215,9000,1,8,3:3:0:0:
338,222,9117,1,2,1:2:0:0:
208,196,9351,1,0,0:0:0:0:
328,48,9586,6,0,P|340:87|327:127,1,85,0|0,1:0|0:0,0:0:0:0:
224,88,10054,1,2,1:2:0:0:
120,128,10288,1,0,0:0:0:0:
208,196,10523,1,0,1:3:0:0:
224,88,10757,1,0,3:3:0:0:
230,59,10875,1,0,1:3:0:0:
208,196,11109,1,0,1:0:0:0:
214,225,11227,1,0,3:0:0:0:
332,348,11461,6,0,B|372:376|372:376|348:312|372:243,1,170,2|0,1:2|1:0,0:0:0:0:
396,152,12164,1,0,0:0:0:0:
475,230,12398,1,0,1:0:0:0:
367,257,12632,1,0,0:0:0:0:
338,250,12750,1,8,3:0:0:0:
309,243,12867,1,2,1:2:0:0:
212,160,13101,1,0,0:0:0:0:
310,22,13336,6,0,P|259:49|187:38,1,127.5,0|0,1:0|0:0,0:0:0:0:
140,20,13804,1,2,1:2:0:0:
180,124,14039,1,0,0:0:0:0:
220,228,14273,2,0,L|120:248,1,85,0|0,1:0|3:0,0:0:0:0:
120,320,14625,2,0,L|203:303,1,85,0|0,1:0|1:0,0:0:0:0:
277,283,14976,1,0,3:0:0:0:
428,211,15211,6,0,P|468:282|427:352,1,170,2|0,1:2|1:0,0:0:0:0:
320,384,15914,1,0,0:0:0:0:
277,283,16148,1,0,1:0:0:0:
236,180,16382,1,0,3:0:0:0:
264,192,16500,1,8,3:0:0:0:
292,180,16617,1,2,1:2:0:0:
396,140,16851,1,0,0:0:0:0:
236,75,17086,6,0,P|205:127|236:180,1,127.5,0|0,1:0|0:0,0:0:0:0:
284,204,17554,2,0,L|192:252,1,85,2|0,1:2|0:0,0:0:0:0:
104,280,18023,1,0,1:0:0:0:
76,272,18140,1,0,0:0:0:0:
224,312,18375,1,0,1:0:0:0:
348,340,18609,1,0,1:0:0:0:
376,332,18726,1,0,3:0:0:0:
256,192,18961,12,0,20601,0:0:0:0:
316,212,21070,5,2,0:0:0:0:
239,129,21304,1,0,0:0:0:0:
211,237,21539,1,2,0:0:0:0:
365,279,21773,2,0,P|399:204|354:136,1,170,6|2,3:2|0:0,0:0:0:0:
239,129,22476,1,0,0:0:0:0:
184,308,22711,5,12,0:0:0:0:
84,352,22945,2,0,P|74:310|83:269,1,85,2|8,3:2|0:0,0:0:0:0:
112,164,23414,2,0,P|149:183|191:184,1,85,2|10,3:2|0:0,0:0:0:0:
320,172,23882,1,0,3:0:0:0:
320,172,24000,1,2,3:2:0:0:
320,172,24117,2,0,P|362:172|399:192,1,85,8|2,0:0|3:2,0:0:0:0:
442,313,24586,5,8,0:0:0:0:
334,287,24820,1,2,3:2:0:0:
320,172,25054,2,0,L|312:80,1,85,8|2,0:0|3:2,0:0:0:0:
228,16,25523,1,10,0:0:0:0:
131,67,25757,2,0,P|111:63|89:63,2,42.5,0|2|8,3:0|3:2|0:0,0:0:0:0:
228,124,26226,1,2,3:2:0:0:
120,208,26461,5,8,0:0:0:0:
217,259,26695,2,0,P|256:274|294:258,1,85,2|8,3:2|0:0,0:0:0:0:
372,180,27164,2,0,L|404:274,1,85,2|10,3:2|0:0,0:0:0:0:
321,339,27632,1,0,3:2:0:0:
321,339,27750,1,2,3:2:0:0:
321,339,27867,2,0,L|294:259,1,85,8|2,0:0|3:2,0:0:0:0:
236,108,28336,5,8,0:0:0:0:
136,154,28570,1,2,3:2:0:0:
226,218,28804,1,8,0:0:0:0:
236,108,29039,1,2,3:2:0:0:
152,276,29273,2,0,P|225:312|301:275,1,170,10|10,0:0|0:0,0:0:0:0:
368,188,29976,1,0,3:2:0:0:
232,164,30211,5,8,0:0:0:0:
299,275,30445,2,0,L|360:364,1,85,2|8,3:2|0:0,0:0:0:0:
416,258,30914,2,0,L|367:187,1,85,2|10,3:2|0:0,0:0:0:0:
311,92,31382,2,0,P|291:96|270:92,1,42.5,0|2,3:2|3:2,0:0:0:0:
227,59,31617,2,0,P|228:102|218:143,1,85,8|2,0:0|0:0,0:0:0:0:
148,280,32086,5,8,0:0:0:0:
256,252,32320,1,2,3:2:0:0:
364,279,32554,2,0,P|376:239|363:199,1,85,8|2,0:0|3:2,0:0:0:0:
324,96,33023,1,10,0:0:0:0:
284,200,33257,1,0,3:2:0:0:
284,200,33375,1,2,3:2:0:0:
283,200,33492,2,0,P|323:212|364:200,1,85,8|2,0:0|3:2,0:0:0:0:
508,148,33961,5,8,0:0:0:0:
464,248,34195,2,0,B|452:292|452:292|464:329,1,85,2|8,3:2|0:0,0:0:0:0:
364,281,34664,2,0,B|376:244|376:244|364:200,1,85,2|10,3:2|0:0,0:0:0:0:
294,93,35132,1,0,3:2:0:0:
294,93,35250,1,2,3:2:0:0:
294,93,35367,2,0,P|255:108|217:92,1,85,8|2,0:0|3:2,0:0:0:0:
352,0,35836,5,8,0:0:0:0:
294,93,36070,1,2,3:2:0:0:
352,188,36304,1,8,0:0:0:0:
294,284,36539,1,2,3:2:0:0:
169,261,36773,1,10,0:0:0:0:
141,229,36890,1,0,0:0:0:0:
130,188,37007,1,0,3:2:0:0:
141,146,37125,1,0,3:2:0:0:
169,114,37242,1,10,0:0:0:0:
256,188,37476,1,8,3:2:0:0:
343,114,37711,5,12,0:0:0:0:
303,250,37945,2,0,P|256:267|209:251,1,101.999996887207,2|14,1:2|0:0,0:0:0:0:
209,118,38414,2,0,P|256:101|302:119,1,101.999996887207,2|14,1:2|0:0,0:0:0:0:
400,216,38882,1,0,1:2:0:0:
396,252,39000,1,2,1:2:0:0:
392,288,39117,1,12,0:0:0:0:
256,267,39351,1,2,1:2:0:0:
404,176,39586,5,12,0:0:0:0:
336,64,39820,1,2,1:2:0:0:
304,192,40054,2,0,P|256:207|208:191,1,101.999996887207,14|2,0:0|1:2,0:0:0:0:
176,64,40523,1,14,0:0:0:0:
84,158,40757,1,0,1:2:0:0:
76,192,40875,1,2,1:2:0:0:
84,226,40992,1,12,0:0:0:0:
166,341,41226,1,2,1:2:0:0:
256,192,41461,5,12,0:0:0:0:
364,268,41695,2,0,L|383:167,1,101.999996887207,2|14,1:2|0:0,0:0:0:0:
275,91,42164,2,0,L|256:192,1,101.999996887207,2|14,1:2|0:0,0:0:0:0:
222,320,42632,1,0,1:2:0:0:
256,330,42750,1,2,1:2:0:0:
290,320,42867,1,12,0:0:0:0:
396,244,43101,1,2,1:2:0:0:
208,164,43336,5,12,0:0:0:0:
331,43,43570,2,0,P|348:91|332:139,1,101.999996887207,2|14,1:2|0:0,0:0:0:0:
243,237,44039,1,2,1:2:0:0:
156,336,44273,2,0,P|203:352|251:336,1,101.999996887207,14|0,0:0|1:2,0:0:0:0:
328,228,44742,1,14,0:0:0:0:
264,112,44976,1,2,1:2:0:0:
80,232,45211,5,12,0:0:0:0:
80,232,45445,2,0,B|120:256|120:256|196:248,1,101.999996887207,2|14,1:2|0:0,0:0:0:0:
300,200,45914,2,0,P|315:247|301:295,1,101.999996887207,2|14,1:2|0:0,0:0:0:0:
175,250,46382,1,0,1:2:0:0:
167,215,46500,1,2,1:2:0:0:
159,181,46617,1,12,0:0:0:0:
256,92,46851,1,2,1:2:0:0:
355,181,47086,5,12,0:0:0:0:
256,320,47320,1,2,1:2:0:0:
415,228,47554,2,0,P|432:180|415:133,1,101.999996887207,14|2,0:0|1:2,0:0:0:0:
316,48,48023,1,14,0:0:0:0:
212,128,48257,1,0,1:2:0:0:
176,120,48375,1,2,1:2:0:0:
140,112,48492,1,12,0:0:0:0:
68,224,48726,1,2,1:2:0:0:
176,304,48961,5,12,0:0:0:0:
256,191,49195,2,0,B|278:170|284:148|284:148|291:170|308:192,1,101.999996887207,2|14,1:2|0:0,0:0:0:0:
395,292,49664,2,0,P|427:252|440:203,1,101.999996887207,2|14,1:2|0:0,0:0:0:0:
416,72,50132,1,0,1:2:0:0:
384,88,50250,1,2,1:2:0:0:
348,88,50367,1,12,0:0:0:0:
220,52,50601,1,2,1:2:0:0:
264,176,50836,5,12,0:0:0:0:
284,205,50953,1,0,0:0:0:0:
301,236,51070,1,2,1:2:0:0:
300,271,51187,1,0,0:0:0:0:
277,298,51304,1,14,0:0:0:0:
243,310,51421,1,0,0:0:0:0:
207,302,51539,1,2,1:2:0:0:
184,274,51656,1,0,0:0:0:0:
175,239,51773,5,14,0:0:0:0:
176,203,51890,1,0,0:0:0:0:
165,168,52007,1,8,1:2:0:0:
133,151,52125,1,8,0:0:0:0:
97,157,52242,1,8,0:0:0:0:
79,187,52359,1,8,0:0:0:0:
79,222,52476,1,10,1:2:0:0:
98,251,52593,1,8,0:0:0:0:
126,273,52711,6,0,P|169:251|198:221,1,85,4|0,0:3|0:0,0:0:0:0:
256,125,53414,1,2,0:0:0:0:
288,12,53648,2,0,P|340:92|416:136,1,170,2|2,0:0|0:0,0:0:0:0:
316,304,54586,6,0,B|256:283|256:283|196:304,1,127.500004863739,2|0,0:0|0:0,0:0:0:0:
256,368,55289,2,0,L|256:228,1,127.500004863739,2|0,0:0|0:0,0:0:0:0:
259,155,55992,2,0,P|351:112|257:74,1,255.000009727478,2|0,0:0|0:0,0:0:0:0:
192,184,57164,2,0,B|218:229|273:243|299:240,1,127.500004863739,2|0,0:0|0:0,0:0:0:0:
380,220,57867,1,2,0:0:0:0:
222,60,58336,6,0,L|192:184,1,127.500004863739,2|0,0:0|0:0,0:0:0:0:
248,276,59039,2,0,L|278:152,1,127.500004863739,2|0,0:0|0:0,0:0:0:0:
355,85,59742,1,2,0:0:0:0:
431,152,59976,2,0,P|355:200|278:152,1,191.250007295609
232,84,60914,1,0,0:0:0:0:
216,196,61148,2,0,P|269:253|332:276,1,127.500004863739,2|2,0:0|0:0,0:0:0:0:
480,280,62086,6,0,P|404:297|352:340,1,127.500004863739,2|0,0:0|0:0,0:0:0:0:
376,228,62789,2,0,P|398:153|387:87,1,127.500004863739,2|0,0:0|0:0,0:0:0:0:
320,20,63492,2,0,B|256:44|256:44|200:24|200:24|152:80|72:68,1,255.000009727478,2|0,0:0|0:0,0:0:0:0:
40,140,64664,2,0,P|112:152|175:134,1,127.500004863739,2|0,0:0|0:0,0:0:0:0:
240,104,65367,1,2,0:0:0:0:
434,161,65836,6,0,P|441:191|433:221,1,63.7500024318696,2|0,0:0|0:0,0:0:0:0:
377,284,66304,1,0,0:0:0:0:
316,341,66539,2,0,B|280:341|256:325|256:325|232:341|194:340,1,127.500004863739,2|0,0:0|0:0,0:0:0:0:
135,284,67242,1,2,0:0:0:0:
75,223,67476,2,0,P|152:232|180:132,1,191.250007295609,0|0,0:0|0:0,0:0:0:0:
132,72,68414,1,0,0:0:0:0:
119,167,68648,2,0,P|165:206|244:171,1,127.500004863739,2|2,0:0|0:0,0:0:0:0:
372,24,69586,6,0,B|344:76|344:76|364:192,1,170,10|8,0:0|0:0,0:0:0:0:
300,276,70289,2,0,L|286:192,1,85,2|0,3:2|0:0,0:0:0:0:
264,84,70757,1,0,3:2:0:0:
180,156,70992,2,0,P|101:184|23:156,1,170,10|8,0:0|0:0,0:0:0:0:
102,72,71695,5,0,3:2:0:0:
204,30,71929,1,8,0:0:0:0:
180,156,72164,2,0,L|166:239,1,85,2|0,3:2|0:0,0:0:0:0:
144,348,72632,1,0,3:2:0:0:
83,240,72867,2,0,P|124:232|166:239,1,85,10|0,0:0|3:2,0:0:0:0:
208,261,73218,1,0,3:0:0:0:
243,293,73336,6,0,B|267:341|267:341|291:269|343:217,1,170,10|8,0:0|0:0,0:0:0:0:
392,152,74039,2,0,P|351:163|311:152,1,85,2|0,3:2|0:0,0:0:0:0:
256,56,74507,1,0,3:2:0:0:
200,151,74742,2,0,P|159:162|119:151,1,85,10|0,0:0|3:2,0:0:0:0:
68,56,75210,5,8,0:0:0:0:
119,151,75445,1,2,3:2:0:0:
172,247,75679,2,0,L|264:256,1,85,8|0,0:0|3:0,0:0:0:0:
300,260,76031,1,0,3:0:0:0:
342,268,76148,2,0,B|396:282|438:320|438:320|427:246,1,170,10|10,0:0|0:0,0:0:0:0:
408,148,76851,1,0,3:2:0:0:
247,184,77086,6,0,P|209:258|246:333,1,170,10|8,0:0|0:0,0:0:0:0:
136,304,77789,2,0,P|128:262|136:220,1,85,0|10,3:2|0:0,0:0:0:0:
180,120,78257,1,0,3:2:0:0:
304,44,78492,2,0,P|337:119|303:195,1,170,10|8,0:0|0:0,0:0:0:0:
200,232,79195,6,0,P|160:218|119:229,1,85,0|8,3:2|0:0,0:0:0:0:
31,355,79664,2,0,P|62:327|72:286,1,85,2|8,3:2|0:0,0:0:0:0:
9,149,80132,2,0,P|17:190|47:219,1,85,0|10,3:2|0:0,0:0:0:0:
200,232,80601,1,0,3:0:0:0:
200,232,80718,1,0,0:0:0:0:
199,232,80836,6,0,P|255:285|311:232,1,170,2|0,2:0|3:3,0:0:0:0:
260,136,81539,2,0,L|220:52,1,85,2|0,0:0|0:0,0:0:0:0:
115,55,82007,1,0,0:0:0:0:
163,155,82242,2,0,L|199:231,1,85,2|0,2:0|0:0,0:0:0:0:
256,328,82711,5,0,0:0:0:0:
271,320,82828,1,0,0:0:0:0:
283,308,82945,1,2,3:2:0:0:
293,289,83062,1,0,0:0:0:0:
293,267,83179,1,0,3:2:0:0:
287,246,83296,1,0,0:0:0:0:
275,228,83414,1,2,3:2:0:0:
255,211,83531,1,0,0:0:0:0:
240,190,83648,5,6,3:2:0:0:
235,164,83765,1,2,0:0:0:0:
251,144,83882,1,2,0:0:0:0:
279,133,84000,1,2,0:0:0:0:
307,142,84117,1,2,3:2:0:0:
328,162,84234,1,2,0:0:0:0:
353,176,84351,1,0,3:2:0:0:
382,179,84468,1,2,0:0:0:0:
409,167,84586,5,12,0:0:0:0:
500,104,84820,2,0,L|486:187,1,85,2|8,3:2|0:0,0:0:0:0:
464,296,85289,1,2,3:2:0:0:
382,223,85523,1,10,0:0:0:0:
307,142,85757,1,0,3:2:0:0:
307,142,85875,1,2,3:2:0:0:
307,142,85992,2,0,P|266:151|225:142,1,85,8|2,0:0|3:2,0:0:0:0:
124,64,86461,5,8,0:0:0:0:
56,152,86695,2,0,P|67:192|59:233,1,85,2|8,3:2|0:0,0:0:0:0:
44,344,87164,2,0,L|136:320,1,85,2|10,3:2|0:0,0:0:0:0:
232,292,87632,1,0,3:2:0:0:
232,292,87750,1,2,3:2:0:0:
232,291,87867,2,0,P|229:332|247:370,1,85,8|2,0:0|3:2,0:0:0:0:
364,304,88336,5,8,0:0:0:0:
279,231,88570,2,0,P|241:215|200:221,1,85,2|8,3:2|0:0,0:0:0:0:
96,260,89039,2,0,P|54:266|16:249,1,85,2|10,3:2|0:0,0:0:0:0:
69,153,89507,1,0,3:2:0:0:
69,153,89625,1,2,3:2:0:0:
69,153,89742,2,0,L|104:76,1,85,8|2,0:0|3:2,0:0:0:0:
196,140,90211,5,8,0:0:0:0:
204,32,90445,1,2,3:2:0:0:
104,75,90679,1,8,0:0:0:0:
196,140,90914,1,2,3:2:0:0:
40,31,91148,2,0,P|37:112|108:152,1,170,10|10,0:0|0:0,0:0:0:0:
216,124,91851,1,0,3:2:0:0:
348,64,92086,5,8,0:0:0:0:
312,168,92320,2,0,L|284:248,1,85,2|8,3:2|0:0,0:0:0:0:
308,356,92789,1,2,3:2:0:0:
389,281,93023,1,10,0:0:0:0:
284,248,93257,1,0,3:2:0:0:
284,248,93375,1,2,3:2:0:0:
283,248,93492,2,0,P|245:263|207:248,1,85,8|2,0:0|3:2,0:0:0:0:
120,132,93961,5,8,0:0:0:0:
16,172,94195,2,0,P|4:131|16:91,1,85,2|8,3:2|0:0,0:0:0:0:
120,132,94664,2,0,P|132:172|120:212,1,85,2|10,3:2|0:0,0:0:0:0:
47,296,95132,2,0,P|26:298|7:306,2,42.5,0|2|8,3:2|3:2|0:0,0:0:0:0:
157,316,95601,1,2,3:2:0:0:
300,340,95836,5,8,0:0:0:0:
244,244,96070,2,0,P|231:203|244:163,1,85,2|8,3:2|0:0,0:0:0:0:
316,80,96539,1,2,3:2:0:0:
352,183,96773,1,10,0:0:0:0:
244,164,97007,1,0,3:2:0:0:
244,164,97125,1,2,3:2:0:0:
244,164,97242,2,0,L|160:152,1,85,8|2,0:0|3:2,0:0:0:0:
36,192,97711,5,8,0:0:0:0:
125,257,97945,1,2,3:2:0:0:
160,152,98179,1,8,0:0:0:0:
196,48,98414,1,2,3:2:0:0:
290,100,98648,2,0,L|335:105,1,42.5,10|0,0:0|0:0,0:0:0:0:
372,144,98882,2,0,L|416:148,1,42.5,0|0,3:2|3:2,0:0:0:0:
448,192,99117,1,10,0:0:0:0:
484,296,99351,1,8,3:2:0:0:
332,276,99586,5,12,0:0:0:0:
199,264,99820,2,0,P|183:312|150:350,2,101.999996887207,2|14|2,1:2|0:0|1:2,0:0:0:0:
188,132,100523,1,14,0:0:0:0:
312,179,100757,1,0,1:2:0:0:
346,190,100875,1,2,1:2:0:0:
380,179,100992,1,12,0:0:0:0:
484,100,101226,1,2,1:2:0:0:
346,32,101461,5,12,0:0:0:0:
236,104,101695,2,0,B|204:116|204:116|134:104,1,101.999996887207,2|14,1:2|0:0,0:0:0:0:
16,160,102164,2,0,L|131:180,1,101.999996887207,2|14,1:2|0:0,0:0:0:0:
247,200,102632,1,0,1:2:0:0:
275,224,102750,1,2,1:2:0:0:
303,247,102867,2,0,P|286:294|303:341,1,101.999996887207,12|2,0:0|1:2,0:0:0:0:
449,294,103336,5,12,0:0:0:0:
400,172,103570,2,0,B|441:149|441:149|459:97,2,101.999996887207,2|14|2,1:2|0:0|1:2,0:0:0:0:
280,115,104273,1,14,0:0:0:0:
160,172,104507,1,0,1:2:0:0:
124,164,104625,1,2,1:2:0:0:
88,156,104742,1,12,0:0:0:0:
132,280,104976,1,2,1:2:0:0:
184,96,105211,5,12,0:0:0:0:
256,208,105445,2,0,B|284:252|284:252|308:208,1,101.999996887207,2|14,1:2|0:0,0:0:0:0:
356,84,105914,1,2,1:2:0:0:
488,144,106148,2,0,B|512:190|512:190|462:189,1,101.999996887207,14|0,0:0|1:2,0:0:0:0:
331,128,106617,2,0,B|304:85|304:85|356:84,1,101.999996887207,14|2,0:0|1:2,0:0:0:0:
512,192,107086,5,12,0:0:0:0:
404,268,107320,2,0,P|356:284|309:268,1,101.999996887207,2|14,1:2|0:0,0:0:0:0:
200,192,107789,2,0,P|152:175|105:191,1,101.999996887207,2|14,1:2|0:0,0:0:0:0:
232,268,108257,1,0,1:2:0:0:
232,268,108375,1,2,1:2:0:0:
232,267,108492,2,0,P|269:235|282:186,1,101.999996887207,12|2,0:0|1:2,0:0:0:0:
220,28,108961,5,12,0:0:0:0:
328,104,109195,2,0,P|375:120|422:104,1,101.999996887207,2|14,1:2|0:0,0:0:0:0:
388,232,109663,1,2,1:2:0:0:
352,360,109898,1,14,0:0:0:0:
292,240,110132,1,0,1:2:0:0:
256,232,110250,1,2,1:2:0:0:
220,240,110367,1,12,0:0:0:0:
160,360,110601,1,2,1:2:0:0:
124,232,110836,5,12,0:0:0:0:
159,103,111070,2,0,P|207:120|256:104,1,101.999996887207,2|14,1:2|0:0,0:0:0:0:
348,8,111539,2,0,L|360:112,1,101.999996887207,2|14,1:2|0:0,0:0:0:0:
374,241,112007,1,0,1:2:0:0:
339,234,112125,1,2,1:2:0:0:
304,227,112242,1,12,0:0:0:0:
359,109,112476,1,2,1:2:0:0:
384,312,112711,5,12,0:0:0:0:
371,345,112828,1,0,0:0:0:0:
338,358,112945,1,2,1:2:0:0:
303,349,113062,1,0,0:0:0:0:
280,321,113179,1,14,0:0:0:0:
278,285,113296,1,0,0:0:0:0:
291,251,113414,1,2,1:2:0:0:
297,215,113531,1,0,0:0:0:0:
289,180,113648,5,14,0:0:0:0:
269,150,113765,1,0,0:0:0:0:
233,144,113882,1,0,1:0:0:0:
198,155,114000,1,0,1:2:0:0:
175,182,114117,1,14,0:0:0:0:
145,202,114234,1,0,1:0:0:0:
110,211,114351,1,2,1:2:0:0:
75,200,114468,1,0,1:0:0:0:
256,192,114586,12,0,116461,0:0:0:0:
