osu file format v14

[General]
AudioFilename: The Scales of Struggle.mp3
AudioLeadIn: 1500
PreviewTime: 30033
Countdown: 0
SampleSet: None
StackLeniency: 0.7
Mode: 3
LetterboxInBreaks: 0
SpecialStyle: 0
WidescreenStoryboard: 1

[Editor]
DistanceSpacing: 0.8
BeatDivisor: 6
GridSize: 16
TimelineZoom: 1

[Metadata]
Title:The Scales of Struggle
TitleUnicode:The Scales of Struggle
Artist:Anthony Donato
ArtistUnicode:Anthony Donato
Creator:Staiain
Version:Pope's Whatever
Source:
Tags:mr pokeahole guitar hero 3 gh3 custom -kamikaze- fullerene-
BeatmapID:777261
BeatmapSetID:193512

[Difficulty]
HPDrainRate:8.5
CircleSize:4
OverallDifficulty:8
ApproachRate:9
SliderMultiplier:1.4
SliderTickRate:1

[Events]
//Background and Video events
0,0,"bg.png",0,0
//Break Periods
//Storyboard Layer 0 (Background)
//Storyboard Layer 1 (Fail)
//Storyboard Layer 2 (Pass)
//Storyboard Layer 3 (Foreground)
//Storyboard Sound Samples

[TimingPoints]
20,300,4,1,0,15,1,0

[HitObjects]
64,192,2420,128,0,5120:0:0:0:0:
192,192,4820,128,0,7520:0:0:0:0:
320,192,7220,128,0,9920:0:0:0:0:
64,192,9620,128,0,12320:0:0:0:0:
192,192,12020,1,0,0:0:0:0:
192,192,12320,1,0,0:0:0:0:
448,192,12620,1,0,0:0:0:0:
448,192,12920,1,0,0:0:0:0:
192,192,13220,1,0,0:0:0:0:
192,192,13520,1,0,0:0:0:0:
448,192,13820,1,0,0:0:0:0:
448,192,14120,1,0,0:0:0:0:
64,192,14420,1,0,0:0:0:0:
64,192,14720,1,0,0:0:0:0:
320,192,15020,1,0,0:0:0:0:
320,192,15320,1,0,0:0:0:0:
64,192,15620,1,0,0:0:0:0:
64,192,15920,1,0,0:0:0:0:
320,192,16220,1,0,0:0:0:0:
320,192,16520,1,0,0:0:0:0:
64,192,16820,1,0,0:0:0:0:
64,192,17120,1,0,0:0:0:0:
448,192,17420,1,0,0:0:0:0:
448,192,17720,1,0,0:0:0:0:
64,192,18020,1,0,0:0:0:0:
64,192,18320,1,0,0:0:0:0:
448,192,18620,1,0,0:0:0:0:
448,192,18920,1,0,0:0:0:0:
192,192,19220,1,0,0:0:0:0:
320,192,19370,1,0,0:0:0:0:
192,192,19445,1,0,0:0:0:0:
320,192,19520,1,0,0:0:0:0:
192,192,19670,1,0,0:0:0:0:
320,192,19820,1,0,0:0:0:0:
192,192,19895,1,0,0:0:0:0:
320,192,19970,1,0,0:0:0:0:
192,192,20120,1,0,0:0:0:0:
320,192,20270,1,0,0:0:0:0:
192,192,20345,1,0,0:0:0:0:
320,192,20420,1,0,0:0:0:0:
192,192,20570,1,0,0:0:0:0:
320,192,20645,1,0,0:0:0:0:
192,192,20720,1,0,0:0:0:0:
320,192,20870,1,0,0:0:0:0:
192,192,21020,1,0,0:0:0:0:
320,192,21095,1,0,0:0:0:0:
192,192,21170,1,0,0:0:0:0:
320,192,21320,1,0,0:0:0:0:
192,192,21470,1,0,0:0:0:0:
320,192,21545,1,0,0:0:0:0:
192,192,21620,1,0,0:0:0:0:
64,192,21620,1,0,0:0:0:0:
448,192,21770,1,0,0:0:0:0:
320,192,21770,1,0,0:0:0:0:
192,192,21845,1,0,0:0:0:0:
64,192,21845,1,0,0:0:0:0:
320,192,21920,1,0,0:0:0:0:
448,192,21920,1,0,0:0:0:0:
192,192,22070,1,0,0:0:0:0:
64,192,22070,1,0,0:0:0:0:
320,192,22220,1,0,0:0:0:0:
448,192,22220,1,0,0:0:0:0:
192,192,22295,1,0,0:0:0:0:
64,192,22295,1,0,0:0:0:0:
320,192,22370,1,0,0:0:0:0:
448,192,22370,1,0,0:0:0:0:
192,192,22520,1,0,0:0:0:0:
64,192,22520,1,0,0:0:0:0:
320,192,22670,1,0,0:0:0:0:
448,192,22670,1,0,0:0:0:0:
192,192,22745,1,0,0:0:0:0:
64,192,22745,1,0,0:0:0:0:
320,192,22820,1,0,0:0:0:0:
448,192,22820,1,0,0:0:0:0:
192,192,22970,1,0,0:0:0:0:
64,192,22970,1,0,0:0:0:0:
320,192,23045,1,0,0:0:0:0:
448,192,23045,1,0,0:0:0:0:
192,192,23120,1,0,0:0:0:0:
64,192,23120,1,0,0:0:0:0:
320,192,23270,1,0,0:0:0:0:
448,192,23270,1,0,0:0:0:0:
192,192,23420,1,0,0:0:0:0:
64,192,23420,1,0,0:0:0:0:
320,192,23495,1,0,0:0:0:0:
448,192,23495,1,0,0:0:0:0:
192,192,23570,1,0,0:0:0:0:
64,192,23570,1,0,0:0:0:0:
320,192,23720,1,0,0:0:0:0:
448,192,23720,1,0,0:0:0:0:
192,192,23870,1,0,0:0:0:0:
64,192,23870,1,0,0:0:0:0:
320,192,23945,1,0,0:0:0:0:
448,192,23945,1,0,0:0:0:0:
64,192,24020,1,0,0:0:0:0:
192,192,24020,1,0,0:0:0:0:
320,192,24170,1,0,0:0:0:0:
448,192,24170,1,0,0:0:0:0:
64,192,24245,1,0,0:0:0:0:
192,192,24245,1,0,0:0:0:0:
320,192,24320,1,0,0:0:0:0:
448,192,24320,1,0,0:0:0:0:
64,192,24470,1,0,0:0:0:0:
192,192,24470,1,0,0:0:0:0:
448,192,24620,1,0,0:0:0:0:
320,192,24620,1,0,0:0:0:0:
64,192,24695,1,0,0:0:0:0:
192,192,24695,1,0,0:0:0:0:
320,192,24770,1,0,0:0:0:0:
448,192,24770,1,0,0:0:0:0:
64,192,24920,1,0,0:0:0:0:
192,192,24920,1,0,0:0:0:0:
320,192,25070,1,0,0:0:0:0:
448,192,25070,1,0,0:0:0:0:
192,192,25145,1,0,0:0:0:0:
64,192,25145,1,0,0:0:0:0:
320,192,25220,1,0,0:0:0:0:
448,192,25220,1,0,0:0:0:0:
64,192,25370,1,0,0:0:0:0:
192,192,25370,1,0,0:0:0:0:
320,192,25445,1,0,0:0:0:0:
448,192,25445,1,0,0:0:0:0:
64,192,25520,1,0,0:0:0:0:
192,192,25520,1,0,0:0:0:0:
320,192,25670,1,0,0:0:0:0:
448,192,25670,1,0,0:0:0:0:
192,192,25820,1,0,0:0:0:0:
64,192,25820,1,0,0:0:0:0:
320,192,25895,1,0,0:0:0:0:
448,192,25895,1,0,0:0:0:0:
64,192,25970,1,0,0:0:0:0:
192,192,25970,1,0,0:0:0:0:
320,192,26120,1,0,0:0:0:0:
448,192,26120,1,0,0:0:0:0:
64,192,26270,1,0,0:0:0:0:
192,192,26270,1,0,0:0:0:0:
448,192,26345,1,0,0:0:0:0:
320,192,26345,1,0,0:0:0:0:
64,192,26420,1,0,0:0:0:0:
192,192,26420,1,0,0:0:0:0:
320,192,26570,1,0,0:0:0:0:
448,192,26570,1,0,0:0:0:0:
192,192,26645,1,0,0:0:0:0:
64,192,26645,1,0,0:0:0:0:
320,192,26720,1,0,0:0:0:0:
448,192,26720,1,0,0:0:0:0:
320,192,26870,1,0,0:0:0:0:
448,192,26870,1,0,0:0:0:0:
320,192,27020,1,0,0:0:0:0:
448,192,27020,1,0,0:0:0:0:
192,192,27095,1,0,0:0:0:0:
64,192,27095,1,0,0:0:0:0:
448,192,27170,1,0,0:0:0:0:
320,192,27170,1,0,0:0:0:0:
320,192,27320,1,0,0:0:0:0:
448,192,27320,1,0,0:0:0:0:
448,192,27470,1,0,0:0:0:0:
320,192,27470,1,0,0:0:0:0:
192,192,27545,1,0,0:0:0:0:
64,192,27545,1,0,0:0:0:0:
320,192,27620,1,0,0:0:0:0:
448,192,27620,1,0,0:0:0:0:
192,192,27770,1,0,0:0:0:0:
64,192,27770,1,0,0:0:0:0:
320,192,27845,1,0,0:0:0:0:
448,192,27845,1,0,0:0:0:0:
192,192,27920,1,0,0:0:0:0:
64,192,27920,1,0,0:0:0:0:
192,192,28070,1,0,0:0:0:0:
64,192,28070,1,0,0:0:0:0:
64,192,28220,1,0,0:0:0:0:
192,192,28220,1,0,0:0:0:0:
448,192,28295,1,0,0:0:0:0:
320,192,28295,1,0,0:0:0:0:
64,192,28370,1,0,0:0:0:0:
192,192,28370,1,0,0:0:0:0:
192,192,28520,1,0,0:0:0:0:
64,192,28520,1,0,0:0:0:0:
192,192,28670,1,0,0:0:0:0:
64,192,28670,1,0,0:0:0:0:
320,192,28745,1,0,0:0:0:0:
448,192,28745,1,0,0:0:0:0:
64,192,28820,1,0,0:0:0:0:
192,192,28820,1,0,0:0:0:0:
320,192,28970,1,0,0:0:0:0:
448,192,28970,1,0,0:0:0:0:
192,192,29045,1,0,0:0:0:0:
64,192,29045,1,0,0:0:0:0:
320,192,29120,1,0,0:0:0:0:
448,192,29120,1,0,0:0:0:0:
192,192,29270,1,0,0:0:0:0:
64,192,29270,1,0,0:0:0:0:
320,192,29420,1,0,0:0:0:0:
448,192,29420,1,0,0:0:0:0:
192,192,29495,1,0,0:0:0:0:
64,192,29495,1,0,0:0:0:0:
320,192,29570,1,0,0:0:0:0:
448,192,29570,1,0,0:0:0:0:
192,192,29720,1,0,0:0:0:0:
64,192,29720,1,0,0:0:0:0:
320,192,29870,1,0,0:0:0:0:
448,192,29870,1,0,0:0:0:0:
192,192,29945,1,0,0:0:0:0:
64,192,29945,1,0,0:0:0:0:
320,192,30020,1,0,0:0:0:0:
448,192,30020,1,0,0:0:0:0:
192,192,30170,1,0,0:0:0:0:
64,192,30170,1,0,0:0:0:0:
320,192,30245,1,0,0:0:0:0:
448,192,30245,1,0,0:0:0:0:
192,192,30320,1,0,0:0:0:0:
64,192,30320,1,0,0:0:0:0:
320,192,30470,1,0,0:0:0:0:
448,192,30470,1,0,0:0:0:0:
192,192,30620,1,0,0:0:0:0:
64,192,30620,1,0,0:0:0:0:
320,192,30695,1,0,0:0:0:0:
448,192,30695,1,0,0:0:0:0:
192,192,30770,1,0,0:0:0:0:
64,192,30770,1,0,0:0:0:0:
320,192,30920,1,0,0:0:0:0:
448,192,30920,1,0,0:0:0:0:
192,192,31070,1,0,0:0:0:0:
64,192,31070,1,0,0:0:0:0:
320,192,31145,1,0,0:0:0:0:
448,192,31145,1,0,0:0:0:0:
192,192,31220,1,0,0:0:0:0:
64,192,31220,128,0,31370:0:0:0:0:
448,192,31295,1,0,0:0:0:0:
320,192,31370,1,0,0:0:0:0:
448,192,31445,1,0,0:0:0:0:
64,192,31520,128,0,31670:0:0:0:0:
192,192,31520,1,0,0:0:0:0:
320,192,31595,1,0,0:0:0:0:
448,192,31670,1,0,0:0:0:0:
320,192,31745,1,0,0:0:0:0:
64,192,31820,128,0,31970:0:0:0:0:
192,192,31820,1,0,0:0:0:0:
448,192,31895,1,0,0:0:0:0:
320,192,31970,1,0,0:0:0:0:
448,192,32045,1,0,0:0:0:0:
64,192,32120,128,0,32270:0:0:0:0:
192,192,32120,1,0,0:0:0:0:
320,192,32195,1,0,0:0:0:0:
448,192,32270,1,0,0:0:0:0:
320,192,32345,1,0,0:0:0:0:
448,192,32420,1,0,0:0:0:0:
64,192,32420,1,0,0:0:0:0:
192,192,32495,1,0,0:0:0:0:
64,192,32570,1,0,0:0:0:0:
320,192,32570,1,0,0:0:0:0:
448,192,32645,1,0,0:0:0:0:
192,192,32720,1,0,0:0:0:0:
320,192,32720,1,0,0:0:0:0:
64,192,32795,1,0,0:0:0:0:
448,192,32870,1,0,0:0:0:0:
192,192,32870,1,0,0:0:0:0:
64,192,32945,1,0,0:0:0:0:
448,192,33020,1,0,0:0:0:0:
320,192,33020,1,0,0:0:0:0:
64,192,33095,1,0,0:0:0:0:
320,192,33170,1,0,0:0:0:0:
192,192,33170,1,0,0:0:0:0:
448,192,33245,1,0,0:0:0:0:
320,192,33320,1,0,0:0:0:0:
64,192,33320,1,0,0:0:0:0:
448,192,33395,1,0,0:0:0:0:
64,192,33470,1,0,0:0:0:0:
192,192,33470,1,0,0:0:0:0:
320,192,33545,1,0,0:0:0:0:
448,192,33620,1,0,0:0:0:0:
64,192,33695,1,0,0:0:0:0:
320,192,33770,1,0,0:0:0:0:
192,192,33845,1,0,0:0:0:0:
448,192,33920,1,0,0:0:0:0:
64,192,33995,1,0,0:0:0:0:
320,192,34070,128,0,34220:0:0:0:0:
192,192,34220,128,0,34370:0:0:0:0:
448,192,34220,1,0,0:0:0:0:
64,192,34370,128,0,34520:0:0:0:0:
448,192,34370,1,0,0:0:0:0:
320,192,34520,1,0,0:0:0:0:
448,192,34595,1,0,0:0:0:0:
192,192,34670,128,0,34820:0:0:0:0:
64,192,34820,1,0,0:0:0:0:
320,192,34820,1,0,0:0:0:0:
448,192,34895,1,0,0:0:0:0:
64,192,34970,1,0,0:0:0:0:
448,192,35045,1,0,0:0:0:0:
64,192,35120,1,0,0:0:0:0:
448,192,35195,1,0,0:0:0:0:
320,192,35270,1,0,0:0:0:0:
64,192,35345,1,0,0:0:0:0:
192,192,35420,1,0,0:0:0:0:
320,192,35495,1,0,0:0:0:0:
192,192,35570,1,0,0:0:0:0:
320,192,35645,1,0,0:0:0:0:
64,192,35720,128,0,36020:0:0:0:0:
448,192,35720,1,0,0:0:0:0:
448,192,36020,1,0,0:0:0:0:
192,192,36020,1,0,0:0:0:0:
320,192,36095,1,0,0:0:0:0:
192,192,36170,1,0,0:0:0:0:
64,192,36170,1,0,0:0:0:0:
320,192,36245,1,0,0:0:0:0:
448,192,36320,1,0,0:0:0:0:
64,192,36320,1,0,0:0:0:0:
320,192,36395,1,0,0:0:0:0:
192,192,36470,1,0,0:0:0:0:
64,192,36470,1,0,0:0:0:0:
320,192,36545,1,0,0:0:0:0:
448,192,36620,1,0,0:0:0:0:
192,192,36620,1,0,0:0:0:0:
320,192,36695,1,0,0:0:0:0:
64,192,36770,1,0,0:0:0:0:
192,192,36770,1,0,0:0:0:0:
448,192,36845,1,0,0:0:0:0:
320,192,36920,1,0,0:0:0:0:
192,192,36920,1,0,0:0:0:0:
64,192,36995,1,0,0:0:0:0:
320,192,37070,1,0,0:0:0:0:
448,192,37070,1,0,0:0:0:0:
192,192,37145,1,0,0:0:0:0:
448,192,37220,1,0,0:0:0:0:
64,192,37220,1,0,0:0:0:0:
192,192,37295,1,0,0:0:0:0:
320,192,37370,1,0,0:0:0:0:
64,192,37370,1,0,0:0:0:0:
192,192,37445,1,0,0:0:0:0:
448,192,37520,1,0,0:0:0:0:
320,192,37520,1,0,0:0:0:0:
64,192,37520,1,0,0:0:0:0:
192,192,37595,1,0,0:0:0:0:
448,192,37670,1,0,0:0:0:0:
192,192,37745,1,0,0:0:0:0:
320,192,37820,1,0,0:0:0:0:
64,192,37820,128,0,38420:0:0:0:0:
448,192,37970,1,0,0:0:0:0:
448,192,38120,1,0,0:0:0:0:
320,192,38120,1,0,0:0:0:0:
192,192,38420,1,0,0:0:0:0:
320,192,38420,1,0,0:0:0:0:
448,192,38495,1,0,0:0:0:0:
64,192,38570,1,0,0:0:0:0:
320,192,38570,1,0,0:0:0:0:
448,192,38645,1,0,0:0:0:0:
64,192,38720,1,0,0:0:0:0:
192,192,38720,1,0,0:0:0:0:
448,192,38870,128,0,39020:0:0:0:0:
320,192,39020,128,0,39170:0:0:0:0:
64,192,39020,1,0,0:0:0:0:
448,192,39170,128,0,39320:0:0:0:0:
192,192,39170,1,0,0:0:0:0:
64,192,39320,1,0,0:0:0:0:
320,192,39320,128,0,39470:0:0:0:0:
192,192,39470,128,0,39620:0:0:0:0:
64,192,39620,128,0,39770:0:0:0:0:
448,192,39620,1,0,0:0:0:0:
192,192,39770,128,0,39920:0:0:0:0:
320,192,39770,1,0,0:0:0:0:
64,192,39920,128,0,40070:0:0:0:0:
448,192,39920,1,0,0:0:0:0:
320,192,40070,128,0,40220:0:0:0:0:
192,192,40220,128,0,40370:0:0:0:0:
64,192,40220,1,0,0:0:0:0:
320,192,40370,128,0,40520:0:0:0:0:
448,192,40370,1,0,0:0:0:0:
192,192,40520,1,0,0:0:0:0:
64,192,40520,128,0,40820:0:0:0:0:
448,192,40820,1,0,0:0:0:0:
192,192,40820,1,0,0:0:0:0:
320,192,40895,1,0,0:0:0:0:
448,192,40970,1,0,0:0:0:0:
64,192,40970,1,0,0:0:0:0:
192,192,41045,1,0,0:0:0:0:
320,192,41120,1,0,0:0:0:0:
448,192,41120,1,0,0:0:0:0:
64,192,41195,1,0,0:0:0:0:
192,192,41270,1,0,0:0:0:0:
320,192,41345,1,0,0:0:0:0:
448,192,41420,1,0,0:0:0:0:
64,192,41420,1,0,0:0:0:0:
320,192,41495,1,0,0:0:0:0:
192,192,41570,1,0,0:0:0:0:
64,192,41570,1,0,0:0:0:0:
448,192,41645,1,0,0:0:0:0:
64,192,41720,1,0,0:0:0:0:
320,192,41720,1,0,0:0:0:0:
192,192,41795,1,0,0:0:0:0:
64,192,41870,1,0,0:0:0:0:
448,192,41945,1,0,0:0:0:0:
320,192,42020,1,0,0:0:0:0:
192,192,42020,1,0,0:0:0:0:
64,192,42095,1,0,0:0:0:0:
448,192,42170,1,0,0:0:0:0:
320,192,42170,1,0,0:0:0:0:
192,192,42245,1,0,0:0:0:0:
64,192,42320,1,0,0:0:0:0:
448,192,42320,1,0,0:0:0:0:
320,192,42395,1,0,0:0:0:0:
192,192,42470,1,0,0:0:0:0:
64,192,42545,1,0,0:0:0:0:
448,192,42620,1,0,0:0:0:0:
320,192,42620,1,0,0:0:0:0:
192,192,42695,1,0,0:0:0:0:
64,192,42770,1,0,0:0:0:0:
448,192,42770,1,0,0:0:0:0:
320,192,42845,1,0,0:0:0:0:
192,192,42920,1,0,0:0:0:0:
64,192,42920,1,0,0:0:0:0:
448,192,42995,1,0,0:0:0:0:
320,192,43070,1,0,0:0:0:0:
192,192,43145,1,0,0:0:0:0:
64,192,43220,1,0,0:0:0:0:
448,192,43220,1,0,0:0:0:0:
192,192,43295,1,0,0:0:0:0:
448,192,43370,1,0,0:0:0:0:
320,192,43370,1,0,0:0:0:0:
64,192,43445,1,0,0:0:0:0:
192,192,43520,1,0,0:0:0:0:
320,192,43520,1,0,0:0:0:0:
448,192,43595,1,0,0:0:0:0:
64,192,43670,1,0,0:0:0:0:
192,192,43745,1,0,0:0:0:0:
448,192,43820,1,0,0:0:0:0:
320,192,43820,1,0,0:0:0:0:
192,192,43895,1,0,0:0:0:0:
64,192,43970,1,0,0:0:0:0:
448,192,43970,1,0,0:0:0:0:
320,192,44045,1,0,0:0:0:0:
192,192,44120,1,0,0:0:0:0:
64,192,44120,1,0,0:0:0:0:
448,192,44195,1,0,0:0:0:0:
320,192,44270,1,0,0:0:0:0:
192,192,44345,1,0,0:0:0:0:
448,192,44420,1,0,0:0:0:0:
64,192,44420,1,0,0:0:0:0:
320,192,44495,1,0,0:0:0:0:
192,192,44570,1,0,0:0:0:0:
64,192,44570,1,0,0:0:0:0:
448,192,44645,1,0,0:0:0:0:
320,192,44720,1,0,0:0:0:0:
192,192,44720,1,0,0:0:0:0:
64,192,44795,1,0,0:0:0:0:
448,192,44870,1,0,0:0:0:0:
320,192,44945,1,0,0:0:0:0:
64,192,45020,1,0,0:0:0:0:
192,192,45020,1,0,0:0:0:0:
448,192,45095,1,0,0:0:0:0:
192,192,45170,1,0,0:0:0:0:
320,192,45170,1,0,0:0:0:0:
64,192,45245,1,0,0:0:0:0:
448,192,45320,1,0,0:0:0:0:
320,192,45320,1,0,0:0:0:0:
192,192,45395,1,0,0:0:0:0:
64,192,45470,1,0,0:0:0:0:
448,192,45545,1,0,0:0:0:0:
320,192,45620,1,0,0:0:0:0:
64,192,45620,1,0,0:0:0:0:
448,192,45695,1,0,0:0:0:0:
192,192,45770,1,0,0:0:0:0:
320,192,45770,1,0,0:0:0:0:
64,192,45845,1,0,0:0:0:0:
192,192,45920,1,0,0:0:0:0:
448,192,45920,1,0,0:0:0:0:
320,192,45995,1,0,0:0:0:0:
64,192,46070,1,0,0:0:0:0:
448,192,46145,1,0,0:0:0:0:
64,192,46220,1,0,0:0:0:0:
192,192,46220,1,0,0:0:0:0:
320,192,46295,1,0,0:0:0:0:
448,192,46370,1,0,0:0:0:0:
192,192,46370,1,0,0:0:0:0:
320,192,46445,1,0,0:0:0:0:
448,192,46520,1,0,0:0:0:0:
64,192,46520,1,0,0:0:0:0:
192,192,46595,1,0,0:0:0:0:
448,192,46670,1,0,0:0:0:0:
64,192,46745,1,0,0:0:0:0:
320,192,46820,1,0,0:0:0:0:
192,192,46820,1,0,0:0:0:0:
448,192,46895,1,0,0:0:0:0:
64,192,46970,1,0,0:0:0:0:
192,192,46970,1,0,0:0:0:0:
320,192,47045,1,0,0:0:0:0:
448,192,47120,1,0,0:0:0:0:
64,192,47120,1,0,0:0:0:0:
320,192,47195,1,0,0:0:0:0:
64,192,47270,1,0,0:0:0:0:
192,192,47345,1,0,0:0:0:0:
320,192,47420,1,0,0:0:0:0:
448,192,47420,1,0,0:0:0:0:
192,192,47495,1,0,0:0:0:0:
320,192,47570,1,0,0:0:0:0:
64,192,47570,1,0,0:0:0:0:
448,192,47645,1,0,0:0:0:0:
64,192,47720,1,0,0:0:0:0:
192,192,47720,1,0,0:0:0:0:
448,192,47795,1,0,0:0:0:0:
192,192,47870,1,0,0:0:0:0:
320,192,47945,1,0,0:0:0:0:
64,192,48020,1,0,0:0:0:0:
448,192,48020,1,0,0:0:0:0:
192,192,48095,1,0,0:0:0:0:
320,192,48170,1,0,0:0:0:0:
448,192,48170,1,0,0:0:0:0:
64,192,48245,1,0,0:0:0:0:
320,192,48320,1,0,0:0:0:0:
192,192,48320,1,0,0:0:0:0:
448,192,48395,1,0,0:0:0:0:
64,192,48470,1,0,0:0:0:0:
192,192,48545,1,0,0:0:0:0:
448,192,48620,1,0,0:0:0:0:
320,192,48620,1,0,0:0:0:0:
192,192,48695,1,0,0:0:0:0:
64,192,48770,1,0,0:0:0:0:
448,192,48770,1,0,0:0:0:0:
320,192,48845,1,0,0:0:0:0:
64,192,48920,1,0,0:0:0:0:
192,192,48920,1,0,0:0:0:0:
448,192,48995,1,0,0:0:0:0:
320,192,49070,1,0,0:0:0:0:
192,192,49145,1,0,0:0:0:0:
64,192,49220,1,0,0:0:0:0:
448,192,49220,1,0,0:0:0:0:
192,192,49295,1,0,0:0:0:0:
320,192,49370,1,0,0:0:0:0:
448,192,49370,1,0,0:0:0:0:
64,192,49445,1,0,0:0:0:0:
192,192,49520,1,0,0:0:0:0:
320,192,49520,1,0,0:0:0:0:
64,192,49595,1,0,0:0:0:0:
448,192,49670,1,0,0:0:0:0:
320,192,49745,1,0,0:0:0:0:
64,192,49820,1,0,0:0:0:0:
192,192,49820,1,0,0:0:0:0:
448,192,49895,1,0,0:0:0:0:
320,192,49970,1,0,0:0:0:0:
192,192,49970,1,0,0:0:0:0:
448,192,50045,1,0,0:0:0:0:
192,192,50120,1,0,0:0:0:0:
64,192,50120,1,0,0:0:0:0:
320,192,50195,1,0,0:0:0:0:
448,192,50270,1,0,0:0:0:0:
64,192,50345,1,0,0:0:0:0:
448,192,50420,1,0,0:0:0:0:
192,192,50420,128,0,50570:0:0:0:0:
320,192,50570,128,0,50720:0:0:0:0:
64,192,50570,1,0,0:0:0:0:
448,192,50720,128,0,51020:0:0:0:0:
192,192,50720,1,0,0:0:0:0:
320,192,51020,128,0,51320:0:0:0:0:
64,192,51020,1,0,0:0:0:0:
64,192,51170,1,0,0:0:0:0:
448,192,51170,1,0,0:0:0:0:
448,192,51320,1,0,0:0:0:0:
192,192,51320,128,0,51470:0:0:0:0:
64,192,51470,128,0,51620:0:0:0:0:
192,192,51620,1,0,0:0:0:0:
320,192,51670,1,0,0:0:0:0:
448,192,51720,1,0,0:0:0:0:
192,192,51770,1,0,0:0:0:0:
64,192,51820,1,0,0:0:0:0:
448,192,51870,1,0,0:0:0:0:
320,192,51920,1,0,0:0:0:0:
64,192,51970,1,0,0:0:0:0:
192,192,52020,1,0,0:0:0:0:
320,192,52070,1,0,0:0:0:0:
448,192,52120,1,0,0:0:0:0:
192,192,52170,1,0,0:0:0:0:
64,192,52220,1,0,0:0:0:0:
448,192,52270,1,0,0:0:0:0:
320,192,52320,1,0,0:0:0:0:
192,192,52370,1,0,0:0:0:0:
64,192,52420,1,0,0:0:0:0:
320,192,52470,1,0,0:0:0:0:
448,192,52520,1,0,0:0:0:0:
64,192,52570,1,0,0:0:0:0:
192,192,52620,1,0,0:0:0:0:
448,192,52670,1,0,0:0:0:0:
320,192,52720,1,0,0:0:0:0:
192,192,52770,1,0,0:0:0:0:
64,192,52820,1,0,0:0:0:0:
448,192,52895,1,0,0:0:0:0:
64,192,52970,1,0,0:0:0:0:
320,192,53045,1,0,0:0:0:0:
64,192,53120,1,0,0:0:0:0:
192,192,53195,1,0,0:0:0:0:
64,192,53270,1,0,0:0:0:0:
320,192,53345,1,0,0:0:0:0:
64,192,53420,1,0,0:0:0:0:
448,192,53495,1,0,0:0:0:0:
64,192,53570,1,0,0:0:0:0:
320,192,53645,128,0,54020:0:0:0:0:
448,192,54020,128,0,54620:0:0:0:0:
64,192,54020,1,0,0:0:0:0:
192,192,54170,1,0,0:0:0:0:
192,192,54320,1,0,0:0:0:0:
64,192,54320,1,0,0:0:0:0:
320,192,54620,1,0,0:0:0:0:
64,192,54620,1,0,0:0:0:0:
192,192,54695,1,0,0:0:0:0:
448,192,54770,1,0,0:0:0:0:
320,192,54845,1,0,0:0:0:0:
192,192,54920,1,0,0:0:0:0:
64,192,54995,1,0,0:0:0:0:
320,192,55070,1,0,0:0:0:0:
192,192,55145,1,0,0:0:0:0:
448,192,55220,128,0,55820:0:0:0:0:
64,192,55220,128,0,56420:0:0:0:0:
320,192,55820,1,0,0:0:0:0:
192,192,55970,1,0,0:0:0:0:
448,192,56120,1,0,0:0:0:0:
320,192,56120,1,0,0:0:0:0:
448,192,56420,1,0,0:0:0:0:
192,192,56420,1,0,0:0:0:0:
320,192,56495,1,0,0:0:0:0:
448,192,56570,1,0,0:0:0:0:
192,192,56570,1,0,0:0:0:0:
320,192,56645,1,0,0:0:0:0:
64,192,56720,1,0,0:0:0:0:
448,192,56720,1,0,0:0:0:0:
192,192,56795,1,0,0:0:0:0:
64,192,56870,1,0,0:0:0:0:
192,192,56945,1,0,0:0:0:0:
448,192,57020,1,0,0:0:0:0:
64,192,57020,1,0,0:0:0:0:
320,192,57095,1,0,0:0:0:0:
192,192,57170,1,0,0:0:0:0:
64,192,57170,1,0,0:0:0:0:
192,192,57320,1,0,0:0:0:0:
320,192,57320,1,0,0:0:0:0:
448,192,57470,1,0,0:0:0:0:
320,192,57470,1,0,0:0:0:0:
192,192,57620,1,0,0:0:0:0:
64,192,57620,1,0,0:0:0:0:
320,192,57695,1,0,0:0:0:0:
448,192,57770,1,0,0:0:0:0:
64,192,57770,1,0,0:0:0:0:
192,192,57845,1,0,0:0:0:0:
64,192,57920,1,0,0:0:0:0:
320,192,57920,1,0,0:0:0:0:
448,192,57995,1,0,0:0:0:0:
64,192,58070,1,0,0:0:0:0:
192,192,58145,1,0,0:0:0:0:
320,192,58220,1,0,0:0:0:0:
448,192,58220,1,0,0:0:0:0:
64,192,58295,1,0,0:0:0:0:
192,192,58370,1,0,0:0:0:0:
448,192,58370,1,0,0:0:0:0:
320,192,58445,1,0,0:0:0:0:
448,192,58520,1,0,0:0:0:0:
64,192,58520,1,0,0:0:0:0:
192,192,58595,1,0,0:0:0:0:
448,192,58670,1,0,0:0:0:0:
320,192,58745,1,0,0:0:0:0:
192,192,58820,128,0,60020:0:0:0:0:
64,192,58820,1,0,0:0:0:0:
64,192,58970,1,0,0:0:0:0:
320,192,59120,1,0,0:0:0:0:
448,192,59120,1,0,0:0:0:0:
64,192,59420,1,0,0:0:0:0:
64,192,59570,1,0,0:0:0:0:
320,192,59720,1,0,0:0:0:0:
448,192,59720,1,0,0:0:0:0:
448,192,60020,1,0,0:0:0:0:
64,192,60020,1,0,0:0:0:0:
320,192,60095,1,0,0:0:0:0:
448,192,60170,1,0,0:0:0:0:
64,192,60170,1,0,0:0:0:0:
192,192,60245,1,0,0:0:0:0:
448,192,60320,1,0,0:0:0:0:
64,192,60320,1,0,0:0:0:0:
320,192,60320,1,0,0:0:0:0:
192,192,60395,1,0,0:0:0:0:
320,192,60470,1,0,0:0:0:0:
64,192,60545,1,0,0:0:0:0:
192,192,60620,1,0,0:0:0:0:
448,192,60620,1,0,0:0:0:0:
320,192,60695,1,0,0:0:0:0:
192,192,60770,1,0,0:0:0:0:
448,192,60770,1,0,0:0:0:0:
320,192,60845,1,0,0:0:0:0:
64,192,60920,1,0,0:0:0:0:
192,192,60920,1,0,0:0:0:0:
448,192,60920,1,0,0:0:0:0:
320,192,60995,1,0,0:0:0:0:
192,192,61070,1,0,0:0:0:0:
320,192,61145,1,0,0:0:0:0:
64,192,61220,1,0,0:0:0:0:
448,192,61220,1,0,0:0:0:0:
192,192,61295,1,0,0:0:0:0:
320,192,61370,1,0,0:0:0:0:
64,192,61370,1,0,0:0:0:0:
192,192,61445,1,0,0:0:0:0:
64,192,61520,1,0,0:0:0:0:
448,192,61520,1,0,0:0:0:0:
320,192,61595,1,0,0:0:0:0:
448,192,61670,1,0,0:0:0:0:
320,192,61745,1,0,0:0:0:0:
192,192,61820,1,0,0:0:0:0:
64,192,61820,1,0,0:0:0:0:
320,192,61895,1,0,0:0:0:0:
448,192,61970,1,0,0:0:0:0:
192,192,61970,1,0,0:0:0:0:
320,192,62045,1,0,0:0:0:0:
64,192,62120,1,0,0:0:0:0:
448,192,62120,1,0,0:0:0:0:
192,192,62195,1,0,0:0:0:0:
448,192,62270,1,0,0:0:0:0:
192,192,62345,1,0,0:0:0:0:
64,192,62420,128,0,62495:0:0:0:0:
448,192,62420,1,0,0:0:0:0:
320,192,62495,128,0,62570:0:0:0:0:
64,192,62570,1,0,0:0:0:0:
320,192,62645,128,0,62720:0:0:0:0:
64,192,62720,128,0,62870:0:0:0:0:
448,192,62720,1,0,0:0:0:0:
192,192,62720,1,0,0:0:0:0:
320,192,62870,128,0,63020:0:0:0:0:
448,192,63020,128,0,63170:0:0:0:0:
192,192,63020,1,0,0:0:0:0:
320,192,63170,128,0,63320:0:0:0:0:
64,192,63170,1,0,0:0:0:0:
64,192,63320,128,0,63470:0:0:0:0:
448,192,63320,1,0,0:0:0:0:
192,192,63320,1,0,0:0:0:0:
320,192,63470,128,0,63620:0:0:0:0:
64,192,63620,128,0,63770:0:0:0:0:
192,192,63620,1,0,0:0:0:0:
192,192,63770,128,0,63920:0:0:0:0:
448,192,63770,1,0,0:0:0:0:
320,192,63920,128,0,64070:0:0:0:0:
448,192,63920,1,0,0:0:0:0:
64,192,63920,1,0,0:0:0:0:
448,192,64070,128,0,64220:0:0:0:0:
64,192,64220,128,0,64370:0:0:0:0:
192,192,64220,1,0,0:0:0:0:
192,192,64370,128,0,64520:0:0:0:0:
320,192,64370,1,0,0:0:0:0:
320,192,64520,128,0,64820:0:0:0:0:
448,192,64520,1,0,0:0:0:0:
64,192,64520,1,0,0:0:0:0:
448,192,64820,128,0,67220:0:0:0:0:
64,192,64820,1,0,0:0:0:0:
192,192,64820,1,0,0:0:0:0:
64,192,64970,1,0,0:0:0:0:
192,192,65045,1,0,0:0:0:0:
320,192,65120,1,0,0:0:0:0:
64,192,65120,1,0,0:0:0:0:
320,192,65270,1,0,0:0:0:0:
320,192,65420,1,0,0:0:0:0:
64,192,65420,1,0,0:0:0:0:
192,192,65495,1,0,0:0:0:0:
64,192,65570,1,0,0:0:0:0:
64,192,65720,1,0,0:0:0:0:
192,192,65720,1,0,0:0:0:0:
320,192,65870,1,0,0:0:0:0:
192,192,65945,1,0,0:0:0:0:
64,192,66020,1,0,0:0:0:0:
320,192,66020,1,0,0:0:0:0:
320,192,66170,1,0,0:0:0:0:
192,192,66245,1,0,0:0:0:0:
64,192,66320,1,0,0:0:0:0:
320,192,66320,1,0,0:0:0:0:
64,192,66470,1,0,0:0:0:0:
64,192,66620,1,0,0:0:0:0:
320,192,66620,1,0,0:0:0:0:
192,192,66695,1,0,0:0:0:0:
320,192,66770,1,0,0:0:0:0:
320,192,66920,1,0,0:0:0:0:
192,192,66920,1,0,0:0:0:0:
320,192,67070,1,0,0:0:0:0:
192,192,67145,1,0,0:0:0:0:
64,192,67220,1,0,0:0:0:0:
320,192,67220,1,0,0:0:0:0:
192,192,67295,1,0,0:0:0:0:
448,192,67370,1,0,0:0:0:0:
64,192,67370,1,0,0:0:0:0:
320,192,67445,1,0,0:0:0:0:
64,192,67520,1,0,0:0:0:0:
448,192,67520,1,0,0:0:0:0:
192,192,67595,1,0,0:0:0:0:
448,192,67670,1,0,0:0:0:0:
320,192,67745,1,0,0:0:0:0:
64,192,67820,1,0,0:0:0:0:
448,192,67820,1,0,0:0:0:0:
192,192,67895,1,0,0:0:0:0:
64,192,67970,1,0,0:0:0:0:
320,192,67970,1,0,0:0:0:0:
192,192,68045,1,0,0:0:0:0:
448,192,68120,1,0,0:0:0:0:
64,192,68120,1,0,0:0:0:0:
320,192,68195,1,0,0:0:0:0:
64,192,68270,1,0,0:0:0:0:
192,192,68345,1,0,0:0:0:0:
320,192,68420,128,0,69620:0:0:0:0:
448,192,68420,1,0,0:0:0:0:
448,192,68570,1,0,0:0:0:0:
192,192,68720,1,0,0:0:0:0:
64,192,68720,1,0,0:0:0:0:
448,192,69020,1,0,0:0:0:0:
448,192,69170,1,0,0:0:0:0:
192,192,69320,1,0,0:0:0:0:
64,192,69320,1,0,0:0:0:0:
448,192,69620,1,0,0:0:0:0:
64,192,69620,1,0,0:0:0:0:
192,192,69695,1,0,0:0:0:0:
448,192,69770,1,0,0:0:0:0:
64,192,69770,1,0,0:0:0:0:
192,192,69845,1,0,0:0:0:0:
320,192,69920,1,0,0:0:0:0:
448,192,69920,1,0,0:0:0:0:
64,192,69995,1,0,0:0:0:0:
192,192,70070,1,0,0:0:0:0:
320,192,70145,1,0,0:0:0:0:
448,192,70220,1,0,0:0:0:0:
64,192,70220,1,0,0:0:0:0:
320,192,70295,1,0,0:0:0:0:
192,192,70370,1,0,0:0:0:0:
64,192,70370,1,0,0:0:0:0:
448,192,70445,1,0,0:0:0:0:
64,192,70520,1,0,0:0:0:0:
320,192,70520,1,0,0:0:0:0:
192,192,70595,1,0,0:0:0:0:
64,192,70670,1,0,0:0:0:0:
448,192,70745,1,0,0:0:0:0:
320,192,70820,1,0,0:0:0:0:
192,192,70820,1,0,0:0:0:0:
64,192,70895,1,0,0:0:0:0:
448,192,70970,1,0,0:0:0:0:
320,192,70970,1,0,0:0:0:0:
192,192,71045,1,0,0:0:0:0:
448,192,71120,1,0,0:0:0:0:
64,192,71120,1,0,0:0:0:0:
320,192,71195,1,0,0:0:0:0:
192,192,71270,1,0,0:0:0:0:
64,192,71345,1,0,0:0:0:0:
448,192,71420,1,0,0:0:0:0:
320,192,71420,1,0,0:0:0:0:
192,192,71495,1,0,0:0:0:0:
64,192,71570,1,0,0:0:0:0:
448,192,71570,1,0,0:0:0:0:
320,192,71645,1,0,0:0:0:0:
192,192,71720,1,0,0:0:0:0:
64,192,71720,1,0,0:0:0:0:
448,192,71795,1,0,0:0:0:0:
320,192,71870,1,0,0:0:0:0:
192,192,71945,1,0,0:0:0:0:
64,192,72020,1,0,0:0:0:0:
448,192,72020,1,0,0:0:0:0:
192,192,72095,1,0,0:0:0:0:
320,192,72170,1,0,0:0:0:0:
448,192,72170,1,0,0:0:0:0:
64,192,72245,1,0,0:0:0:0:
192,192,72320,1,0,0:0:0:0:
320,192,72320,1,0,0:0:0:0:
448,192,72395,1,0,0:0:0:0:
64,192,72470,1,0,0:0:0:0:
192,192,72545,1,0,0:0:0:0:
320,192,72620,1,0,0:0:0:0:
448,192,72620,1,0,0:0:0:0:
192,192,72695,1,0,0:0:0:0:
448,192,72770,1,0,0:0:0:0:
64,192,72770,1,0,0:0:0:0:
320,192,72845,1,0,0:0:0:0:
192,192,72920,1,0,0:0:0:0:
64,192,72920,1,0,0:0:0:0:
448,192,72995,1,0,0:0:0:0:
320,192,73070,1,0,0:0:0:0:
192,192,73145,1,0,0:0:0:0:
448,192,73220,1,0,0:0:0:0:
64,192,73220,1,0,0:0:0:0:
320,192,73295,1,0,0:0:0:0:
64,192,73370,1,0,0:0:0:0:
192,192,73370,1,0,0:0:0:0:
448,192,73445,1,0,0:0:0:0:
192,192,73520,1,0,0:0:0:0:
320,192,73520,1,0,0:0:0:0:
64,192,73595,1,0,0:0:0:0:
448,192,73670,1,0,0:0:0:0:
320,192,73745,1,0,0:0:0:0:
64,192,73820,1,0,0:0:0:0:
192,192,73820,1,0,0:0:0:0:
448,192,73895,1,0,0:0:0:0:
320,192,73970,1,0,0:0:0:0:
192,192,73970,1,0,0:0:0:0:
448,192,74045,1,0,0:0:0:0:
64,192,74120,1,0,0:0:0:0:
192,192,74120,1,0,0:0:0:0:
320,192,74195,1,0,0:0:0:0:
448,192,74270,1,0,0:0:0:0:
64,192,74345,1,0,0:0:0:0:
448,192,74420,1,0,0:0:0:0:
192,192,74420,1,0,0:0:0:0:
64,192,74495,1,0,0:0:0:0:
192,192,74570,1,0,0:0:0:0:
320,192,74570,1,0,0:0:0:0:
448,192,74645,1,0,0:0:0:0:
64,192,74720,1,0,0:0:0:0:
320,192,74720,1,0,0:0:0:0:
192,192,74795,1,0,0:0:0:0:
448,192,74870,1,0,0:0:0:0:
64,192,74945,1,0,0:0:0:0:
320,192,75020,1,0,0:0:0:0:
448,192,75020,1,0,0:0:0:0:
192,192,75095,1,0,0:0:0:0:
64,192,75170,1,0,0:0:0:0:
320,192,75170,1,0,0:0:0:0:
192,192,75245,1,0,0:0:0:0:
448,192,75320,1,0,0:0:0:0:
64,192,75320,1,0,0:0:0:0:
320,192,75395,1,0,0:0:0:0:
64,192,75470,1,0,0:0:0:0:
448,192,75545,1,0,0:0:0:0:
192,192,75620,1,0,0:0:0:0:
320,192,75620,1,0,0:0:0:0:
64,192,75695,1,0,0:0:0:0:
320,192,75770,1,0,0:0:0:0:
448,192,75770,1,0,0:0:0:0:
192,192,75845,1,0,0:0:0:0:
64,192,75920,1,0,0:0:0:0:
448,192,75920,1,0,0:0:0:0:
192,192,75995,1,0,0:0:0:0:
448,192,76070,1,0,0:0:0:0:
320,192,76145,1,0,0:0:0:0:
64,192,76220,1,0,0:0:0:0:
192,192,76220,1,0,0:0:0:0:
320,192,76295,1,0,0:0:0:0:
192,192,76370,1,0,0:0:0:0:
448,192,76370,1,0,0:0:0:0:
64,192,76445,1,0,0:0:0:0:
448,192,76520,1,0,0:0:0:0:
320,192,76520,1,0,0:0:0:0:
64,192,76595,1,0,0:0:0:0:
320,192,76670,1,0,0:0:0:0:
192,192,76745,1,0,0:0:0:0:
64,192,76820,1,0,0:0:0:0:
448,192,76820,1,0,0:0:0:0:
320,192,76895,1,0,0:0:0:0:
64,192,76970,1,0,0:0:0:0:
192,192,76970,1,0,0:0:0:0:
448,192,77045,1,0,0:0:0:0:
192,192,77120,1,0,0:0:0:0:
320,192,77120,1,0,0:0:0:0:
448,192,77195,1,0,0:0:0:0:
64,192,77270,1,0,0:0:0:0:
192,192,77345,1,0,0:0:0:0:
448,192,77420,1,0,0:0:0:0:
320,192,77420,1,0,0:0:0:0:
192,192,77495,1,0,0:0:0:0:
448,192,77570,1,0,0:0:0:0:
64,192,77570,1,0,0:0:0:0:
320,192,77645,1,0,0:0:0:0:
64,192,77720,1,0,0:0:0:0:
192,192,77720,1,0,0:0:0:0:
448,192,77795,1,0,0:0:0:0:
320,192,77870,1,0,0:0:0:0:
192,192,77945,1,0,0:0:0:0:
448,192,78020,1,0,0:0:0:0:
64,192,78020,1,0,0:0:0:0:
192,192,78095,1,0,0:0:0:0:
320,192,78170,1,0,0:0:0:0:
448,192,78170,1,0,0:0:0:0:
64,192,78245,1,0,0:0:0:0:
320,192,78320,1,0,0:0:0:0:
192,192,78320,1,0,0:0:0:0:
64,192,78395,1,0,0:0:0:0:
448,192,78470,1,0,0:0:0:0:
320,192,78545,1,0,0:0:0:0:
64,192,78620,1,0,0:0:0:0:
192,192,78620,1,0,0:0:0:0:
448,192,78695,1,0,0:0:0:0:
192,192,78770,1,0,0:0:0:0:
320,192,78770,1,0,0:0:0:0:
448,192,78845,1,0,0:0:0:0:
64,192,78920,1,0,0:0:0:0:
192,192,78920,1,0,0:0:0:0:
320,192,78995,1,0,0:0:0:0:
448,192,79070,1,0,0:0:0:0:
64,192,79145,1,0,0:0:0:0:
192,192,79220,1,0,0:0:0:0:
448,192,79220,1,0,0:0:0:0:
320,192,79295,1,0,0:0:0:0:
64,192,79370,1,0,0:0:0:0:
448,192,79370,1,0,0:0:0:0:
192,192,79445,1,0,0:0:0:0:
448,192,79520,1,0,0:0:0:0:
320,192,79520,1,0,0:0:0:0:
64,192,79595,1,0,0:0:0:0:
192,192,79670,1,0,0:0:0:0:
320,192,79745,1,0,0:0:0:0:
64,192,79820,1,0,0:0:0:0:
448,192,79820,1,0,0:0:0:0:
320,192,79895,1,0,0:0:0:0:
64,192,79970,1,0,0:0:0:0:
192,192,79970,1,0,0:0:0:0:
448,192,80045,1,0,0:0:0:0:
320,192,80120,1,0,0:0:0:0:
64,192,80120,1,0,0:0:0:0:
192,192,80195,1,0,0:0:0:0:
64,192,80270,1,0,0:0:0:0:
448,192,80345,1,0,0:0:0:0:
192,192,80420,1,0,0:0:0:0:
320,192,80420,1,0,0:0:0:0:
64,192,80495,1,0,0:0:0:0:
320,192,80570,1,0,0:0:0:0:
448,192,80570,1,0,0:0:0:0:
192,192,80645,1,0,0:0:0:0:
64,192,80720,1,0,0:0:0:0:
448,192,80720,1,0,0:0:0:0:
320,192,80795,1,0,0:0:0:0:
192,192,80870,1,0,0:0:0:0:
64,192,80945,1,0,0:0:0:0:
320,192,81020,1,0,0:0:0:0:
448,192,81020,1,0,0:0:0:0:
192,192,81095,1,0,0:0:0:0:
448,192,81170,1,0,0:0:0:0:
64,192,81170,1,0,0:0:0:0:
320,192,81245,1,0,0:0:0:0:
64,192,81320,1,0,0:0:0:0:
192,192,81320,1,0,0:0:0:0:
448,192,81395,1,0,0:0:0:0:
320,192,81470,1,0,0:0:0:0:
192,192,81545,1,0,0:0:0:0:
448,192,81620,1,0,0:0:0:0:
64,192,81620,1,0,0:0:0:0:
192,192,81695,1,0,0:0:0:0:
448,192,81770,1,0,0:0:0:0:
320,192,81770,1,0,0:0:0:0:
64,192,81845,1,0,0:0:0:0:
320,192,81920,1,0,0:0:0:0:
192,192,81920,1,0,0:0:0:0:
448,192,81995,1,0,0:0:0:0:
64,192,82070,1,0,0:0:0:0:
192,192,82145,1,0,0:0:0:0:
448,192,82220,1,0,0:0:0:0:
320,192,82220,1,0,0:0:0:0:
192,192,82295,1,0,0:0:0:0:
64,192,82370,1,0,0:0:0:0:
448,192,82370,1,0,0:0:0:0:
320,192,82445,1,0,0:0:0:0:
64,192,82520,1,0,0:0:0:0:
192,192,82520,1,0,0:0:0:0:
448,192,82595,1,0,0:0:0:0:
320,192,82670,1,0,0:0:0:0:
192,192,82745,1,0,0:0:0:0:
64,192,82820,1,0,0:0:0:0:
448,192,82820,1,0,0:0:0:0:
320,192,82895,1,0,0:0:0:0:
192,192,82970,1,0,0:0:0:0:
64,192,82970,1,0,0:0:0:0:
448,192,83045,1,0,0:0:0:0:
320,192,83120,1,0,0:0:0:0:
192,192,83120,1,0,0:0:0:0:
64,192,83195,1,0,0:0:0:0:
448,192,83270,1,0,0:0:0:0:
320,192,83345,1,0,0:0:0:0:
192,192,83420,1,0,0:0:0:0:
64,192,83420,1,0,0:0:0:0:
448,192,83495,1,0,0:0:0:0:
320,192,83570,1,0,0:0:0:0:
192,192,83570,1,0,0:0:0:0:
64,192,83645,1,0,0:0:0:0:
320,192,83720,1,0,0:0:0:0:
448,192,83720,1,0,0:0:0:0:
192,192,83795,1,0,0:0:0:0:
64,192,83870,1,0,0:0:0:0:
448,192,83945,1,0,0:0:0:0:
320,192,84020,1,0,0:0:0:0:
64,192,84020,1,0,0:0:0:0:
448,192,84095,1,0,0:0:0:0:
192,192,84170,1,0,0:0:0:0:
320,192,84170,1,0,0:0:0:0:
64,192,84245,1,0,0:0:0:0:
192,192,84320,1,0,0:0:0:0:
448,192,84320,1,0,0:0:0:0:
320,192,84395,1,0,0:0:0:0:
64,192,84470,1,0,0:0:0:0:
448,192,84545,1,0,0:0:0:0:
64,192,84620,1,0,0:0:0:0:
192,192,84620,1,0,0:0:0:0:
320,192,84695,1,0,0:0:0:0:
192,192,84770,1,0,0:0:0:0:
448,192,84770,1,0,0:0:0:0:
320,192,84845,1,0,0:0:0:0:
448,192,84920,1,0,0:0:0:0:
64,192,84920,1,0,0:0:0:0:
192,192,84995,1,0,0:0:0:0:
448,192,85070,1,0,0:0:0:0:
64,192,85145,1,0,0:0:0:0:
192,192,85220,1,0,0:0:0:0:
320,192,85220,1,0,0:0:0:0:
448,192,85295,1,0,0:0:0:0:
64,192,85370,1,0,0:0:0:0:
192,192,85370,1,0,0:0:0:0:
320,192,85445,1,0,0:0:0:0:
64,192,85520,1,0,0:0:0:0:
448,192,85520,1,0,0:0:0:0:
320,192,85595,1,0,0:0:0:0:
64,192,85670,1,0,0:0:0:0:
192,192,85745,1,0,0:0:0:0:
320,192,85820,1,0,0:0:0:0:
448,192,85820,1,0,0:0:0:0:
192,192,85895,1,0,0:0:0:0:
64,192,85970,1,0,0:0:0:0:
320,192,85970,1,0,0:0:0:0:
448,192,86045,1,0,0:0:0:0:
192,192,86120,1,0,0:0:0:0:
64,192,86120,1,0,0:0:0:0:
448,192,86195,1,0,0:0:0:0:
192,192,86270,1,0,0:0:0:0:
320,192,86345,1,0,0:0:0:0:
64,192,86420,1,0,0:0:0:0:
448,192,86420,1,0,0:0:0:0:
192,192,86495,1,0,0:0:0:0:
320,192,86570,1,0,0:0:0:0:
448,192,86570,1,0,0:0:0:0:
64,192,86645,1,0,0:0:0:0:
192,192,86720,1,0,0:0:0:0:
320,192,86720,1,0,0:0:0:0:
448,192,86795,1,0,0:0:0:0:
64,192,86870,1,0,0:0:0:0:
192,192,86945,1,0,0:0:0:0:
320,192,87020,1,0,0:0:0:0:
448,192,87020,1,0,0:0:0:0:
192,192,87095,1,0,0:0:0:0:
64,192,87170,1,0,0:0:0:0:
448,192,87170,1,0,0:0:0:0:
320,192,87245,1,0,0:0:0:0:
192,192,87320,1,0,0:0:0:0:
64,192,87320,1,0,0:0:0:0:
448,192,87395,1,0,0:0:0:0:
320,192,87470,1,0,0:0:0:0:
192,192,87545,1,0,0:0:0:0:
64,192,87620,1,0,0:0:0:0:
448,192,87620,1,0,0:0:0:0:
192,192,87695,1,0,0:0:0:0:
448,192,87770,1,0,0:0:0:0:
320,192,87770,1,0,0:0:0:0:
64,192,87845,1,0,0:0:0:0:
192,192,87920,1,0,0:0:0:0:
320,192,87920,1,0,0:0:0:0:
64,192,87995,1,0,0:0:0:0:
448,192,88070,1,0,0:0:0:0:
320,192,88145,1,0,0:0:0:0:
192,192,88220,1,0,0:0:0:0:
64,192,88220,1,0,0:0:0:0:
448,192,88295,1,0,0:0:0:0:
320,192,88370,1,0,0:0:0:0:
192,192,88370,1,0,0:0:0:0:
448,192,88445,1,0,0:0:0:0:
192,192,88520,1,0,0:0:0:0:
64,192,88520,1,0,0:0:0:0:
320,192,88595,1,0,0:0:0:0:
448,192,88670,1,0,0:0:0:0:
64,192,88745,1,0,0:0:0:0:
192,192,88820,1,0,0:0:0:0:
320,192,88895,1,0,0:0:0:0:
448,192,88970,1,0,0:0:0:0:
64,192,89045,1,0,0:0:0:0:
192,192,89120,1,0,0:0:0:0:
320,192,89170,1,0,0:0:0:0:
448,192,89220,1,0,0:0:0:0:
64,192,89270,1,0,0:0:0:0:
192,192,89307,1,0,0:0:0:0:
320,192,89345,1,0,0:0:0:0:
448,192,89382,1,0,0:0:0:0:
64,192,89420,128,0,90020:0:0:0:0:
192,192,90020,1,0,0:0:0:0:
448,192,90020,1,0,0:0:0:0:
320,192,90095,1,0,0:0:0:0:
192,192,90170,1,0,0:0:0:0:
320,192,90245,1,0,0:0:0:0:
64,192,90320,1,0,0:0:0:0:
192,192,90320,1,0,0:0:0:0:
448,192,90395,1,0,0:0:0:0:
64,192,90470,1,0,0:0:0:0:
448,192,90545,1,0,0:0:0:0:
192,192,90620,1,0,0:0:0:0:
64,192,90620,1,0,0:0:0:0:
320,192,90695,1,0,0:0:0:0:
448,192,90770,1,0,0:0:0:0:
320,192,90845,1,0,0:0:0:0:
448,192,90920,1,0,0:0:0:0:
64,192,90920,1,0,0:0:0:0:
320,192,90995,1,0,0:0:0:0:
192,192,91070,1,0,0:0:0:0:
320,192,91145,1,0,0:0:0:0:
192,192,91220,1,0,0:0:0:0:
448,192,91220,1,0,0:0:0:0:
64,192,91295,1,0,0:0:0:0:
192,192,91370,1,0,0:0:0:0:
64,192,91445,1,0,0:0:0:0:
448,192,91520,1,0,0:0:0:0:
320,192,91520,1,0,0:0:0:0:
192,192,91595,1,0,0:0:0:0:
448,192,91670,1,0,0:0:0:0:
192,192,91745,1,0,0:0:0:0:
64,192,91820,1,0,0:0:0:0:
448,192,91820,1,0,0:0:0:0:
320,192,91895,1,0,0:0:0:0:
192,192,91970,1,0,0:0:0:0:
64,192,92020,1,0,0:0:0:0:
448,192,92070,1,0,0:0:0:0:
320,192,92120,1,0,0:0:0:0:
64,192,92170,1,0,0:0:0:0:
192,192,92220,1,0,0:0:0:0:
320,192,92270,1,0,0:0:0:0:
448,192,92320,1,0,0:0:0:0:
192,192,92370,1,0,0:0:0:0:
320,192,92420,1,0,0:0:0:0:
64,192,92495,1,0,0:0:0:0:
448,192,92570,1,0,0:0:0:0:
192,192,92645,1,0,0:0:0:0:
320,192,92720,1,0,0:0:0:0:
64,192,92795,1,0,0:0:0:0:
448,192,92870,1,0,0:0:0:0:
192,192,92945,1,0,0:0:0:0:
320,192,93020,1,0,0:0:0:0:
64,192,93095,1,0,0:0:0:0:
448,192,93170,1,0,0:0:0:0:
192,192,93245,1,0,0:0:0:0:
320,192,93320,1,0,0:0:0:0:
64,192,93395,1,0,0:0:0:0:
448,192,93470,1,0,0:0:0:0:
320,192,93520,1,0,0:0:0:0:
192,192,93570,1,0,0:0:0:0:
64,192,93620,1,0,0:0:0:0:
320,192,93695,1,0,0:0:0:0:
64,192,93770,1,0,0:0:0:0:
448,192,93845,1,0,0:0:0:0:
64,192,93920,1,0,0:0:0:0:
320,192,93995,1,0,0:0:0:0:
64,192,94070,1,0,0:0:0:0:
192,192,94145,1,0,0:0:0:0:
448,192,94220,1,0,0:0:0:0:
64,192,94295,1,0,0:0:0:0:
448,192,94370,1,0,0:0:0:0:
192,192,94445,1,0,0:0:0:0:
448,192,94520,1,0,0:0:0:0:
320,192,94595,1,0,0:0:0:0:
448,192,94670,1,0,0:0:0:0:
192,192,94745,1,0,0:0:0:0:
64,192,94820,128,0,95420:0:0:0:0:
320,192,94820,1,0,0:0:0:0:
192,192,94970,1,0,0:0:0:0:
448,192,95120,128,0,96020:0:0:0:0:
320,192,95120,1,0,0:0:0:0:
192,192,95420,1,0,0:0:0:0:
320,192,95570,1,0,0:0:0:0:
192,192,95720,1,0,0:0:0:0:
64,192,95720,1,0,0:0:0:0:
64,192,96020,1,0,0:0:0:0:
192,192,96020,1,0,0:0:0:0:
320,192,96095,1,0,0:0:0:0:
64,192,96170,1,0,0:0:0:0:
320,192,96245,1,0,0:0:0:0:
64,192,96320,1,0,0:0:0:0:
192,192,96320,1,0,0:0:0:0:
448,192,96395,1,0,0:0:0:0:
64,192,96470,1,0,0:0:0:0:
448,192,96545,1,0,0:0:0:0:
192,192,96620,1,0,0:0:0:0:
64,192,96620,1,0,0:0:0:0:
448,192,96695,1,0,0:0:0:0:
192,192,96770,1,0,0:0:0:0:
448,192,96845,1,0,0:0:0:0:
192,192,96920,1,0,0:0:0:0:
64,192,96920,1,0,0:0:0:0:
320,192,96995,1,0,0:0:0:0:
192,192,97070,1,0,0:0:0:0:
320,192,97145,1,0,0:0:0:0:
64,192,97220,1,0,0:0:0:0:
192,192,97295,1,0,0:0:0:0:
448,192,97370,1,0,0:0:0:0:
320,192,97445,1,0,0:0:0:0:
448,192,97520,1,0,0:0:0:0:
64,192,97520,1,0,0:0:0:0:
192,192,97595,1,0,0:0:0:0:
448,192,97670,1,0,0:0:0:0:
320,192,97745,1,0,0:0:0:0:
64,192,97820,1,0,0:0:0:0:
192,192,97895,1,0,0:0:0:0:
448,192,97970,1,0,0:0:0:0:
320,192,98045,1,0,0:0:0:0:
448,192,98120,1,0,0:0:0:0:
192,192,98120,128,0,98195:0:0:0:0:
64,192,98195,128,0,98270:0:0:0:0:
320,192,98270,128,0,98345:0:0:0:0:
448,192,98345,128,0,98420:0:0:0:0:
64,192,98420,1,0,0:0:0:0:
192,192,98495,1,0,0:0:0:0:
448,192,98570,1,0,0:0:0:0:
320,192,98645,1,0,0:0:0:0:
192,192,98720,128,0,98795:0:0:0:0:
448,192,98720,1,0,0:0:0:0:
64,192,98795,128,0,98870:0:0:0:0:
320,192,98870,128,0,98945:0:0:0:0:
448,192,98945,128,0,99020:0:0:0:0:
64,192,99020,1,0,0:0:0:0:
192,192,99095,1,0,0:0:0:0:
448,192,99170,1,0,0:0:0:0:
320,192,99245,1,0,0:0:0:0:
64,192,99320,1,0,0:0:0:0:
448,192,99320,1,0,0:0:0:0:
192,192,99395,1,0,0:0:0:0:
448,192,99470,1,0,0:0:0:0:
320,192,99545,1,0,0:0:0:0:
192,192,99620,1,0,0:0:0:0:
64,192,99620,128,0,99770:0:0:0:0:
320,192,99770,1,0,0:0:0:0:
192,192,99770,128,0,99920:0:0:0:0:
64,192,99920,1,0,0:0:0:0:
320,192,99920,128,0,100070:0:0:0:0:
192,192,100070,1,0,0:0:0:0:
448,192,100070,128,0,100220:0:0:0:0:
192,192,100220,1,0,0:0:0:0:
64,192,100220,128,0,100370:0:0:0:0:
320,192,100370,1,0,0:0:0:0:
448,192,100370,128,0,100520:0:0:0:0:
192,192,100520,1,0,0:0:0:0:
320,192,100520,128,0,100670:0:0:0:0:
448,192,100670,1,0,0:0:0:0:
192,192,100670,128,0,100820:0:0:0:0:
64,192,100820,128,0,100970:0:0:0:0:
320,192,100820,1,0,0:0:0:0:
448,192,100895,1,0,0:0:0:0:
320,192,100970,1,0,0:0:0:0:
192,192,101045,1,0,0:0:0:0:
448,192,101120,1,0,0:0:0:0:
64,192,101120,1,0,0:0:0:0:
320,192,101195,1,0,0:0:0:0:
192,192,101270,1,0,0:0:0:0:
64,192,101345,1,0,0:0:0:0:
320,192,101420,1,0,0:0:0:0:
448,192,101420,1,0,0:0:0:0:
192,192,101495,1,0,0:0:0:0:
64,192,101495,1,0,0:0:0:0:
320,192,101570,1,0,0:0:0:0:
448,192,101570,1,0,0:0:0:0:
192,192,101645,1,0,0:0:0:0:
64,192,101645,1,0,0:0:0:0:
320,192,101720,1,0,0:0:0:0:
448,192,101720,1,0,0:0:0:0:
64,192,101795,1,0,0:0:0:0:
192,192,101795,1,0,0:0:0:0:
320,192,101870,1,0,0:0:0:0:
64,192,101945,1,0,0:0:0:0:
448,192,101945,1,0,0:0:0:0:
320,192,102020,1,0,0:0:0:0:
192,192,102020,128,0,102320:0:0:0:0:
320,192,102170,1,0,0:0:0:0:
64,192,102320,1,0,0:0:0:0:
448,192,102320,1,0,0:0:0:0:
320,192,102395,1,0,0:0:0:0:
64,192,102470,1,0,0:0:0:0:
448,192,102545,1,0,0:0:0:0:
192,192,102620,1,0,0:0:0:0:
320,192,102620,1,0,0:0:0:0:
448,192,102695,1,0,0:0:0:0:
64,192,102770,1,0,0:0:0:0:
192,192,102770,1,0,0:0:0:0:
320,192,102845,1,0,0:0:0:0:
64,192,102920,1,0,0:0:0:0:
448,192,102920,1,0,0:0:0:0:
320,192,102995,1,0,0:0:0:0:
64,192,103070,1,0,0:0:0:0:
320,192,103145,1,0,0:0:0:0:
448,192,103220,1,0,0:0:0:0:
64,192,103220,1,0,0:0:0:0:
192,192,103270,1,0,0:0:0:0:
320,192,103320,1,0,0:0:0:0:
64,192,103370,1,0,0:0:0:0:
448,192,103420,1,0,0:0:0:0:
320,192,103470,1,0,0:0:0:0:
192,192,103520,1,0,0:0:0:0:
448,192,103570,1,0,0:0:0:0:
64,192,103620,1,0,0:0:0:0:
192,192,103670,1,0,0:0:0:0:
320,192,103720,1,0,0:0:0:0:
64,192,103770,1,0,0:0:0:0:
448,192,103820,128,0,104345:0:0:0:0:
192,192,103820,1,0,0:0:0:0:
320,192,103970,1,0,0:0:0:0:
192,192,104120,1,0,0:0:0:0:
64,192,104120,1,0,0:0:0:0:
448,192,104420,128,0,105620:0:0:0:0:
64,192,104420,1,0,0:0:0:0:
64,192,104570,1,0,0:0:0:0:
192,192,104645,1,0,0:0:0:0:
320,192,104720,1,0,0:0:0:0:
64,192,104720,1,0,0:0:0:0:
320,192,105020,1,0,0:0:0:0:
192,192,105095,1,0,0:0:0:0:
64,192,105170,1,0,0:0:0:0:
320,192,105320,1,0,0:0:0:0:
192,192,105320,1,0,0:0:0:0:
320,192,105620,1,0,0:0:0:0:
64,192,105620,1,0,0:0:0:0:
192,192,105695,1,0,0:0:0:0:
64,192,105770,1,0,0:0:0:0:
448,192,105845,1,0,0:0:0:0:
320,192,105920,1,0,0:0:0:0:
64,192,105920,1,0,0:0:0:0:
192,192,105995,1,0,0:0:0:0:
320,192,106070,1,0,0:0:0:0:
192,192,106145,1,0,0:0:0:0:
64,192,106220,1,0,0:0:0:0:
448,192,106295,1,0,0:0:0:0:
320,192,106370,1,0,0:0:0:0:
64,192,106370,1,0,0:0:0:0:
192,192,106445,1,0,0:0:0:0:
320,192,106520,1,0,0:0:0:0:
448,192,106520,1,0,0:0:0:0:
192,192,106595,1,0,0:0:0:0:
64,192,106670,1,0,0:0:0:0:
448,192,106745,1,0,0:0:0:0:
320,192,106820,1,0,0:0:0:0:
64,192,106820,1,0,0:0:0:0:
192,192,106895,1,0,0:0:0:0:
320,192,106970,1,0,0:0:0:0:
448,192,106970,1,0,0:0:0:0:
192,192,107045,1,0,0:0:0:0:
64,192,107120,1,0,0:0:0:0:
320,192,107120,1,0,0:0:0:0:
448,192,107195,1,0,0:0:0:0:
320,192,107270,1,0,0:0:0:0:
192,192,107345,1,0,0:0:0:0:
320,192,107420,1,0,0:0:0:0:
448,192,107420,1,0,0:0:0:0:
192,192,107495,1,0,0:0:0:0:
64,192,107570,1,0,0:0:0:0:
448,192,107570,1,0,0:0:0:0:
192,192,107645,1,0,0:0:0:0:
320,192,107720,1,0,0:0:0:0:
64,192,107720,1,0,0:0:0:0:
192,192,107795,1,0,0:0:0:0:
320,192,107870,1,0,0:0:0:0:
448,192,107945,1,0,0:0:0:0:
192,192,108020,1,0,0:0:0:0:
64,192,108020,1,0,0:0:0:0:
320,192,108095,1,0,0:0:0:0:
448,192,108170,1,0,0:0:0:0:
64,192,108245,1,0,0:0:0:0:
192,192,108320,1,0,0:0:0:0:
448,192,108320,1,0,0:0:0:0:
320,192,108395,1,0,0:0:0:0:
448,192,108470,1,0,0:0:0:0:
64,192,108545,1,0,0:0:0:0:
192,192,108620,1,0,0:0:0:0:
320,192,108695,1,0,0:0:0:0:
448,192,108770,1,0,0:0:0:0:
64,192,108845,1,0,0:0:0:0:
192,192,108920,1,0,0:0:0:0:
448,192,108920,1,0,0:0:0:0:
320,192,108995,1,0,0:0:0:0:
192,192,109070,1,0,0:0:0:0:
448,192,109145,1,0,0:0:0:0:
192,192,109220,1,0,0:0:0:0:
64,192,109220,1,0,0:0:0:0:
320,192,109295,1,0,0:0:0:0:
192,192,109370,1,0,0:0:0:0:
64,192,109370,1,0,0:0:0:0:
448,192,109445,1,0,0:0:0:0:
192,192,109520,1,0,0:0:0:0:
320,192,109520,1,0,0:0:0:0:
64,192,109595,1,0,0:0:0:0:
320,192,109670,1,0,0:0:0:0:
192,192,109670,1,0,0:0:0:0:
64,192,109745,1,0,0:0:0:0:
320,192,109820,1,0,0:0:0:0:
448,192,109820,1,0,0:0:0:0:
64,192,109895,1,0,0:0:0:0:
448,192,109970,1,0,0:0:0:0:
320,192,109970,1,0,0:0:0:0:
192,192,110045,1,0,0:0:0:0:
448,192,110120,1,0,0:0:0:0:
64,192,110120,1,0,0:0:0:0:
320,192,110195,1,0,0:0:0:0:
448,192,110270,1,0,0:0:0:0:
64,192,110270,1,0,0:0:0:0:
192,192,110345,1,0,0:0:0:0:
64,192,110420,1,0,0:0:0:0:
320,192,110420,1,0,0:0:0:0:
448,192,110495,1,0,0:0:0:0:
320,192,110570,1,0,0:0:0:0:
64,192,110570,1,0,0:0:0:0:
448,192,110645,1,0,0:0:0:0:
320,192,110720,1,0,0:0:0:0:
192,192,110720,1,0,0:0:0:0:
64,192,110795,1,0,0:0:0:0:
192,192,110870,1,0,0:0:0:0:
320,192,110870,1,0,0:0:0:0:
64,192,110945,1,0,0:0:0:0:
192,192,111020,1,0,0:0:0:0:
448,192,111020,1,0,0:0:0:0:
320,192,111095,1,0,0:0:0:0:
192,192,111170,1,0,0:0:0:0:
448,192,111170,1,0,0:0:0:0:
320,192,111245,1,0,0:0:0:0:
448,192,111320,1,0,0:0:0:0:
64,192,111320,1,0,0:0:0:0:
192,192,111395,1,0,0:0:0:0:
448,192,111470,1,0,0:0:0:0:
64,192,111470,1,0,0:0:0:0:
320,192,111545,1,0,0:0:0:0:
192,192,111620,1,0,0:0:0:0:
64,192,111620,1,0,0:0:0:0:
448,192,111695,1,0,0:0:0:0:
64,192,111770,1,0,0:0:0:0:
320,192,111770,1,0,0:0:0:0:
448,192,111845,1,0,0:0:0:0:
192,192,111920,1,0,0:0:0:0:
320,192,111920,1,0,0:0:0:0:
64,192,111995,1,0,0:0:0:0:
192,192,112070,1,0,0:0:0:0:
448,192,112070,1,0,0:0:0:0:
64,192,112145,1,0,0:0:0:0:
448,192,112220,1,0,0:0:0:0:
320,192,112220,1,0,0:0:0:0:
192,192,112295,1,0,0:0:0:0:
320,192,112370,1,0,0:0:0:0:
64,192,112370,1,0,0:0:0:0:
192,192,112445,1,0,0:0:0:0:
64,192,112520,1,0,0:0:0:0:
448,192,112520,1,0,0:0:0:0:
320,192,112595,1,0,0:0:0:0:
448,192,112670,1,0,0:0:0:0:
192,192,112670,1,0,0:0:0:0:
64,192,112745,1,0,0:0:0:0:
192,192,112820,1,0,0:0:0:0:
320,192,112820,1,0,0:0:0:0:
448,192,112895,1,0,0:0:0:0:
64,192,112970,1,0,0:0:0:0:
192,192,112970,1,0,0:0:0:0:
320,192,113045,1,0,0:0:0:0:
448,192,113120,1,0,0:0:0:0:
64,192,113120,1,0,0:0:0:0:
192,192,113195,1,0,0:0:0:0:
320,192,113270,1,0,0:0:0:0:
448,192,113270,1,0,0:0:0:0:
64,192,113345,1,0,0:0:0:0:
192,192,113420,1,0,0:0:0:0:
448,192,113420,1,0,0:0:0:0:
320,192,113495,1,0,0:0:0:0:
64,192,113570,1,0,0:0:0:0:
192,192,113570,1,0,0:0:0:0:
448,192,113645,1,0,0:0:0:0:
320,192,113720,1,0,0:0:0:0:
64,192,113720,128,0,114020:0:0:0:0:
192,192,113795,1,0,0:0:0:0:
320,192,113870,1,0,0:0:0:0:
448,192,113870,1,0,0:0:0:0:
192,192,113945,1,0,0:0:0:0:
320,192,114020,1,0,0:0:0:0:
448,192,114020,1,0,0:0:0:0:
192,192,114095,1,0,0:0:0:0:
64,192,114170,1,0,0:0:0:0:
448,192,114170,1,0,0:0:0:0:
320,192,114245,1,0,0:0:0:0:
192,192,114320,1,0,0:0:0:0:
64,192,114320,1,0,0:0:0:0:
320,192,114395,1,0,0:0:0:0:
448,192,114470,1,0,0:0:0:0:
64,192,114470,1,0,0:0:0:0:
192,192,114545,1,0,0:0:0:0:
320,192,114620,1,0,0:0:0:0:
448,192,114620,1,0,0:0:0:0:
64,192,114695,1,0,0:0:0:0:
192,192,114770,1,0,0:0:0:0:
320,192,114770,1,0,0:0:0:0:
64,192,114845,1,0,0:0:0:0:
192,192,114920,1,0,0:0:0:0:
448,192,114920,1,0,0:0:0:0:
320,192,114995,1,0,0:0:0:0:
64,192,115070,1,0,0:0:0:0:
448,192,115070,1,0,0:0:0:0:
192,192,115145,1,0,0:0:0:0:
320,192,115220,1,0,0:0:0:0:
64,192,115220,1,0,0:0:0:0:
448,192,115295,1,0,0:0:0:0:
192,192,115295,1,0,0:0:0:0:
320,192,115370,1,0,0:0:0:0:
64,192,115445,1,0,0:0:0:0:
192,192,115520,1,0,0:0:0:0:
448,192,115520,1,0,0:0:0:0:
320,192,115595,1,0,0:0:0:0:
64,192,115670,1,0,0:0:0:0:
192,192,115745,1,0,0:0:0:0:
448,192,115745,1,0,0:0:0:0:
320,192,115820,1,0,0:0:0:0:
64,192,115820,1,0,0:0:0:0:
448,192,115895,1,0,0:0:0:0:
192,192,115970,1,0,0:0:0:0:
64,192,115970,1,0,0:0:0:0:
320,192,116045,1,0,0:0:0:0:
448,192,116045,1,0,0:0:0:0:
192,192,116120,1,0,0:0:0:0:
64,192,116120,1,0,0:0:0:0:
448,192,116195,1,0,0:0:0:0:
320,192,116195,1,0,0:0:0:0:
64,192,116270,1,0,0:0:0:0:
192,192,116270,1,0,0:0:0:0:
320,192,116345,1,0,0:0:0:0:
448,192,116345,1,0,0:0:0:0:
64,192,116420,1,0,0:0:0:0:
192,192,116420,1,0,0:0:0:0:
320,192,116495,1,0,0:0:0:0:
192,192,116570,1,0,0:0:0:0:
448,192,116570,1,0,0:0:0:0:
320,192,116645,1,0,0:0:0:0:
192,192,116720,1,0,0:0:0:0:
64,192,116720,1,0,0:0:0:0:
448,192,116795,1,0,0:0:0:0:
320,192,116870,1,0,0:0:0:0:
192,192,116870,1,0,0:0:0:0:
64,192,116945,1,0,0:0:0:0:
320,192,117020,1,0,0:0:0:0:
448,192,117020,1,0,0:0:0:0:
192,192,117095,1,0,0:0:0:0:
320,192,117170,1,0,0:0:0:0:
448,192,117170,1,0,0:0:0:0:
64,192,117245,1,0,0:0:0:0:
192,192,117320,1,0,0:0:0:0:
320,192,117320,1,0,0:0:0:0:
448,192,117395,1,0,0:0:0:0:
64,192,117470,1,0,0:0:0:0:
192,192,117470,1,0,0:0:0:0:
64,192,117620,1,0,0:0:0:0:
448,192,117620,1,0,0:0:0:0:
192,192,117670,1,0,0:0:0:0:
320,192,117720,1,0,0:0:0:0:
64,192,117770,1,0,0:0:0:0:
448,192,117820,1,0,0:0:0:0:
320,192,117870,1,0,0:0:0:0:
192,192,117920,1,0,0:0:0:0:
448,192,117970,1,0,0:0:0:0:
64,192,118020,1,0,0:0:0:0:
192,192,118070,1,0,0:0:0:0:
320,192,118120,1,0,0:0:0:0:
64,192,118170,1,0,0:0:0:0:
448,192,118220,128,0,118820:0:0:0:0:
192,192,118220,1,0,0:0:0:0:
320,192,118295,1,0,0:0:0:0:
64,192,118370,1,0,0:0:0:0:
192,192,118370,1,0,0:0:0:0:
320,192,118445,1,0,0:0:0:0:
192,192,118520,1,0,0:0:0:0:
64,192,118520,1,0,0:0:0:0:
320,192,118595,1,0,0:0:0:0:
192,192,118670,1,0,0:0:0:0:
64,192,118670,1,0,0:0:0:0:
320,192,118745,1,0,0:0:0:0:
64,192,118820,1,0,0:0:0:0:
192,192,118820,1,0,0:0:0:0:
320,192,118895,1,0,0:0:0:0:
448,192,118970,1,0,0:0:0:0:
64,192,118970,1,0,0:0:0:0:
192,192,119045,1,0,0:0:0:0:
448,192,119120,1,0,0:0:0:0:
320,192,119120,1,0,0:0:0:0:
64,192,119195,1,0,0:0:0:0:
192,192,119270,1,0,0:0:0:0:
320,192,119345,1,0,0:0:0:0:
448,192,119420,1,0,0:0:0:0:
64,192,119420,1,0,0:0:0:0:
320,192,119495,1,0,0:0:0:0:
64,192,119570,1,0,0:0:0:0:
192,192,119570,1,0,0:0:0:0:
448,192,119645,1,0,0:0:0:0:
320,192,119720,1,0,0:0:0:0:
64,192,119720,1,0,0:0:0:0:
192,192,119795,1,0,0:0:0:0:
64,192,119870,1,0,0:0:0:0:
448,192,119945,1,0,0:0:0:0:
192,192,120020,1,0,0:0:0:0:
320,192,120020,1,0,0:0:0:0:
64,192,120095,1,0,0:0:0:0:
448,192,120170,1,0,0:0:0:0:
320,192,120170,1,0,0:0:0:0:
192,192,120245,1,0,0:0:0:0:
64,192,120320,1,0,0:0:0:0:
448,192,120320,1,0,0:0:0:0:
320,192,120395,1,0,0:0:0:0:
192,192,120470,1,0,0:0:0:0:
64,192,120545,1,0,0:0:0:0:
448,192,120620,1,0,0:0:0:0:
320,192,120620,1,0,0:0:0:0:
192,192,120695,1,0,0:0:0:0:
64,192,120770,1,0,0:0:0:0:
448,192,120770,1,0,0:0:0:0:
320,192,120845,1,0,0:0:0:0:
64,192,120920,1,0,0:0:0:0:
192,192,120920,1,0,0:0:0:0:
448,192,120995,1,0,0:0:0:0:
320,192,121070,1,0,0:0:0:0:
192,192,121145,1,0,0:0:0:0:
64,192,121220,1,0,0:0:0:0:
448,192,121220,1,0,0:0:0:0:
192,192,121295,1,0,0:0:0:0:
320,192,121370,1,0,0:0:0:0:
448,192,121370,1,0,0:0:0:0:
64,192,121445,1,0,0:0:0:0:
320,192,121520,1,0,0:0:0:0:
192,192,121520,1,0,0:0:0:0:
448,192,121595,1,0,0:0:0:0:
64,192,121670,1,0,0:0:0:0:
192,192,121745,1,0,0:0:0:0:
448,192,121820,1,0,0:0:0:0:
320,192,121820,1,0,0:0:0:0:
192,192,121895,1,0,0:0:0:0:
64,192,121970,1,0,0:0:0:0:
448,192,121970,1,0,0:0:0:0:
320,192,122045,1,0,0:0:0:0:
64,192,122120,1,0,0:0:0:0:
192,192,122120,1,0,0:0:0:0:
448,192,122195,1,0,0:0:0:0:
320,192,122270,1,0,0:0:0:0:
192,192,122345,1,0,0:0:0:0:
448,192,122420,1,0,0:0:0:0:
64,192,122420,1,0,0:0:0:0:
320,192,122495,1,0,0:0:0:0:
64,192,122570,1,0,0:0:0:0:
192,192,122570,1,0,0:0:0:0:
448,192,122645,1,0,0:0:0:0:
192,192,122720,1,0,0:0:0:0:
320,192,122720,1,0,0:0:0:0:
64,192,122795,1,0,0:0:0:0:
448,192,122870,1,0,0:0:0:0:
320,192,122945,1,0,0:0:0:0:
192,192,123020,1,0,0:0:0:0:
64,192,123020,1,0,0:0:0:0:
448,192,123095,1,0,0:0:0:0:
320,192,123170,1,0,0:0:0:0:
192,192,123170,1,0,0:0:0:0:
448,192,123245,1,0,0:0:0:0:
64,192,123320,1,0,0:0:0:0:
192,192,123320,1,0,0:0:0:0:
320,192,123395,1,0,0:0:0:0:
448,192,123470,1,0,0:0:0:0:
64,192,123545,1,0,0:0:0:0:
192,192,123620,1,0,0:0:0:0:
448,192,123620,1,0,0:0:0:0:
64,192,123695,1,0,0:0:0:0:
448,192,123770,1,0,0:0:0:0:
192,192,123770,1,0,0:0:0:0:
320,192,123845,1,0,0:0:0:0:
448,192,123920,1,0,0:0:0:0:
64,192,123920,1,0,0:0:0:0:
192,192,123995,1,0,0:0:0:0:
320,192,124070,1,0,0:0:0:0:
64,192,124145,1,0,0:0:0:0:
320,192,124220,1,0,0:0:0:0:
448,192,124220,1,0,0:0:0:0:
192,192,124295,1,0,0:0:0:0:
448,192,124370,1,0,0:0:0:0:
64,192,124370,1,0,0:0:0:0:
192,192,124445,1,0,0:0:0:0:
64,192,124520,1,0,0:0:0:0:
320,192,124520,1,0,0:0:0:0:
448,192,124595,1,0,0:0:0:0:
64,192,124670,1,0,0:0:0:0:
320,192,124745,1,0,0:0:0:0:
448,192,124820,1,0,0:0:0:0:
192,192,124820,1,0,0:0:0:0:
64,192,124895,1,0,0:0:0:0:
448,192,124970,1,0,0:0:0:0:
320,192,124970,1,0,0:0:0:0:
192,192,125045,1,0,0:0:0:0:
64,192,125120,1,0,0:0:0:0:
320,192,125120,1,0,0:0:0:0:
192,192,125195,1,0,0:0:0:0:
320,192,125270,1,0,0:0:0:0:
448,192,125345,1,0,0:0:0:0:
64,192,125420,1,0,0:0:0:0:
192,192,125420,1,0,0:0:0:0:
448,192,125495,1,0,0:0:0:0:
192,192,125570,1,0,0:0:0:0:
320,192,125570,1,0,0:0:0:0:
64,192,125645,1,0,0:0:0:0:
320,192,125720,1,0,0:0:0:0:
448,192,125720,1,0,0:0:0:0:
64,192,125795,1,0,0:0:0:0:
320,192,125870,1,0,0:0:0:0:
192,192,125945,1,0,0:0:0:0:
448,192,126020,1,0,0:0:0:0:
64,192,126020,1,0,0:0:0:0:
320,192,126095,1,0,0:0:0:0:
64,192,126170,1,0,0:0:0:0:
192,192,126170,1,0,0:0:0:0:
448,192,126245,1,0,0:0:0:0:
192,192,126320,1,0,0:0:0:0:
320,192,126320,1,0,0:0:0:0:
448,192,126395,1,0,0:0:0:0:
64,192,126470,1,0,0:0:0:0:
192,192,126545,1,0,0:0:0:0:
320,192,126620,1,0,0:0:0:0:
448,192,126620,1,0,0:0:0:0:
192,192,126695,1,0,0:0:0:0:
64,192,126770,1,0,0:0:0:0:
448,192,126770,1,0,0:0:0:0:
320,192,126845,1,0,0:0:0:0:
64,192,126920,1,0,0:0:0:0:
192,192,126920,1,0,0:0:0:0:
448,192,126995,1,0,0:0:0:0:
320,192,127070,1,0,0:0:0:0:
192,192,127145,1,0,0:0:0:0:
448,192,127220,1,0,0:0:0:0:
64,192,127220,1,0,0:0:0:0:
192,192,127295,1,0,0:0:0:0:
320,192,127370,1,0,0:0:0:0:
448,192,127370,1,0,0:0:0:0:
64,192,127445,1,0,0:0:0:0:
320,192,127520,1,0,0:0:0:0:
192,192,127520,1,0,0:0:0:0:
64,192,127595,1,0,0:0:0:0:
448,192,127670,1,0,0:0:0:0:
320,192,127745,1,0,0:0:0:0:
64,192,127820,1,0,0:0:0:0:
192,192,127820,1,0,0:0:0:0:
448,192,127895,1,0,0:0:0:0:
192,192,127970,1,0,0:0:0:0:
320,192,127970,1,0,0:0:0:0:
448,192,128045,1,0,0:0:0:0:
64,192,128120,1,0,0:0:0:0:
192,192,128120,1,0,0:0:0:0:
320,192,128195,1,0,0:0:0:0:
448,192,128270,1,0,0:0:0:0:
64,192,128345,1,0,0:0:0:0:
448,192,128420,1,0,0:0:0:0:
192,192,128420,1,0,0:0:0:0:
320,192,128495,1,0,0:0:0:0:
64,192,128570,1,0,0:0:0:0:
448,192,128570,1,0,0:0:0:0:
192,192,128645,1,0,0:0:0:0:
448,192,128720,1,0,0:0:0:0:
320,192,128720,1,0,0:0:0:0:
64,192,128795,1,0,0:0:0:0:
192,192,128870,1,0,0:0:0:0:
320,192,128945,1,0,0:0:0:0:
448,192,129020,1,0,0:0:0:0:
64,192,129020,1,0,0:0:0:0:
320,192,129095,1,0,0:0:0:0:
64,192,129170,1,0,0:0:0:0:
192,192,129170,1,0,0:0:0:0:
448,192,129245,1,0,0:0:0:0:
320,192,129320,1,0,0:0:0:0:
64,192,129320,1,0,0:0:0:0:
192,192,129395,1,0,0:0:0:0:
64,192,129470,1,0,0:0:0:0:
448,192,129545,1,0,0:0:0:0:
320,192,129620,1,0,0:0:0:0:
192,192,129620,1,0,0:0:0:0:
64,192,129695,1,0,0:0:0:0:
320,192,129770,1,0,0:0:0:0:
448,192,129770,1,0,0:0:0:0:
192,192,129845,1,0,0:0:0:0:
448,192,129920,1,0,0:0:0:0:
64,192,129920,1,0,0:0:0:0:
320,192,129995,1,0,0:0:0:0:
192,192,130070,1,0,0:0:0:0:
64,192,130145,1,0,0:0:0:0:
448,192,130220,1,0,0:0:0:0:
320,192,130220,1,0,0:0:0:0:
192,192,130295,1,0,0:0:0:0:
64,192,130370,1,0,0:0:0:0:
448,192,130370,1,0,0:0:0:0:
320,192,130445,1,0,0:0:0:0:
64,192,130520,1,0,0:0:0:0:
192,192,130520,1,0,0:0:0:0:
448,192,130595,1,0,0:0:0:0:
320,192,130670,1,0,0:0:0:0:
192,192,130745,1,0,0:0:0:0:
448,192,130820,1,0,0:0:0:0:
64,192,130820,1,0,0:0:0:0:
192,192,130895,1,0,0:0:0:0:
448,192,130970,1,0,0:0:0:0:
320,192,130970,1,0,0:0:0:0:
64,192,131045,1,0,0:0:0:0:
320,192,131120,1,0,0:0:0:0:
192,192,131120,1,0,0:0:0:0:
448,192,131195,1,0,0:0:0:0:
64,192,131270,1,0,0:0:0:0:
192,192,131345,1,0,0:0:0:0:
448,192,131420,1,0,0:0:0:0:
320,192,131420,1,0,0:0:0:0:
192,192,131495,1,0,0:0:0:0:
64,192,131570,1,0,0:0:0:0:
448,192,131570,1,0,0:0:0:0:
320,192,131645,1,0,0:0:0:0:
64,192,131720,1,0,0:0:0:0:
192,192,131720,1,0,0:0:0:0:
448,192,131795,1,0,0:0:0:0:
320,192,131870,1,0,0:0:0:0:
192,192,131945,1,0,0:0:0:0:
64,192,132020,1,0,0:0:0:0:
448,192,132020,1,0,0:0:0:0:
320,192,132095,1,0,0:0:0:0:
64,192,132170,1,0,0:0:0:0:
192,192,132170,1,0,0:0:0:0:
448,192,132245,1,0,0:0:0:0:
192,192,132320,1,0,0:0:0:0:
320,192,132320,1,0,0:0:0:0:
64,192,132395,1,0,0:0:0:0:
448,192,132470,1,0,0:0:0:0:
320,192,132545,1,0,0:0:0:0:
192,192,132620,1,0,0:0:0:0:
64,192,132620,1,0,0:0:0:0:
448,192,132695,1,0,0:0:0:0:
192,192,132770,1,0,0:0:0:0:
320,192,132770,1,0,0:0:0:0:
64,192,132845,1,0,0:0:0:0:
448,192,132920,1,0,0:0:0:0:
320,192,132920,1,0,0:0:0:0:
192,192,132995,1,0,0:0:0:0:
64,192,133070,1,0,0:0:0:0:
448,192,133145,1,0,0:0:0:0:
192,192,133220,1,0,0:0:0:0:
320,192,133220,1,0,0:0:0:0:
448,192,133295,1,0,0:0:0:0:
64,192,133370,1,0,0:0:0:0:
320,192,133370,1,0,0:0:0:0:
192,192,133445,1,0,0:0:0:0:
448,192,133520,1,0,0:0:0:0:
64,192,133520,1,0,0:0:0:0:
320,192,133595,1,0,0:0:0:0:
192,192,133670,1,0,0:0:0:0:
448,192,133745,1,0,0:0:0:0:
192,192,133820,1,0,0:0:0:0:
64,192,133820,1,0,0:0:0:0:
320,192,133895,1,0,0:0:0:0:
448,192,133970,1,0,0:0:0:0:
64,192,133970,1,0,0:0:0:0:
320,192,134045,1,0,0:0:0:0:
192,192,134120,1,0,0:0:0:0:
448,192,134120,1,0,0:0:0:0:
64,192,134195,1,0,0:0:0:0:
448,192,134270,1,0,0:0:0:0:
192,192,134345,1,0,0:0:0:0:
64,192,134420,1,0,0:0:0:0:
320,192,134420,1,0,0:0:0:0:
448,192,134495,1,0,0:0:0:0:
64,192,134570,1,0,0:0:0:0:
192,192,134570,1,0,0:0:0:0:
320,192,134645,1,0,0:0:0:0:
192,192,134720,1,0,0:0:0:0:
448,192,134720,1,0,0:0:0:0:
320,192,134795,1,0,0:0:0:0:
192,192,134870,1,0,0:0:0:0:
64,192,134945,1,0,0:0:0:0:
320,192,135020,1,0,0:0:0:0:
448,192,135020,1,0,0:0:0:0:
64,192,135095,1,0,0:0:0:0:
320,192,135170,1,0,0:0:0:0:
192,192,135170,1,0,0:0:0:0:
448,192,135245,1,0,0:0:0:0:
64,192,135320,1,0,0:0:0:0:
192,192,135320,1,0,0:0:0:0:
448,192,135395,1,0,0:0:0:0:
64,192,135470,1,0,0:0:0:0:
320,192,135545,1,0,0:0:0:0:
64,192,135620,1,0,0:0:0:0:
448,192,135620,1,0,0:0:0:0:
192,192,135695,1,0,0:0:0:0:
448,192,135770,1,0,0:0:0:0:
320,192,135770,1,0,0:0:0:0:
64,192,135845,1,0,0:0:0:0:
192,192,135920,1,0,0:0:0:0:
320,192,135920,1,0,0:0:0:0:
448,192,135995,1,0,0:0:0:0:
64,192,136070,1,0,0:0:0:0:
192,192,136145,1,0,0:0:0:0:
320,192,136220,1,0,0:0:0:0:
448,192,136220,1,0,0:0:0:0:
192,192,136295,1,0,0:0:0:0:
64,192,136370,1,0,0:0:0:0:
448,192,136370,1,0,0:0:0:0:
320,192,136445,1,0,0:0:0:0:
64,192,136520,1,0,0:0:0:0:
192,192,136520,1,0,0:0:0:0:
448,192,136595,1,0,0:0:0:0:
320,192,136670,1,0,0:0:0:0:
192,192,136745,1,0,0:0:0:0:
448,192,136820,1,0,0:0:0:0:
64,192,136820,1,0,0:0:0:0:
192,192,136895,1,0,0:0:0:0:
448,192,136970,1,0,0:0:0:0:
320,192,136970,1,0,0:0:0:0:
64,192,137045,1,0,0:0:0:0:
320,192,137120,1,0,0:0:0:0:
192,192,137120,1,0,0:0:0:0:
64,192,137195,1,0,0:0:0:0:
448,192,137270,1,0,0:0:0:0:
320,192,137345,1,0,0:0:0:0:
64,192,137420,1,0,0:0:0:0:
192,192,137420,1,0,0:0:0:0:
448,192,137495,1,0,0:0:0:0:
192,192,137570,1,0,0:0:0:0:
320,192,137570,1,0,0:0:0:0:
448,192,137645,1,0,0:0:0:0:
64,192,137720,1,0,0:0:0:0:
192,192,137720,1,0,0:0:0:0:
320,192,137795,1,0,0:0:0:0:
448,192,137870,1,0,0:0:0:0:
192,192,137945,1,0,0:0:0:0:
64,192,138020,1,0,0:0:0:0:
320,192,138020,1,0,0:0:0:0:
448,192,138020,1,0,0:0:0:0:
192,192,138095,1,0,0:0:0:0:
64,192,138170,1,0,0:0:0:0:
448,192,138170,1,0,0:0:0:0:
192,192,138245,1,0,0:0:0:0:
320,192,138320,1,0,0:0:0:0:
448,192,138320,1,0,0:0:0:0:
64,192,138395,1,0,0:0:0:0:
192,192,138470,1,0,0:0:0:0:
320,192,138545,1,0,0:0:0:0:
448,192,138620,1,0,0:0:0:0:
64,192,138620,1,0,0:0:0:0:
320,192,138695,1,0,0:0:0:0:
192,192,138770,1,0,0:0:0:0:
64,192,138770,1,0,0:0:0:0:
448,192,138845,1,0,0:0:0:0:
64,192,138920,1,0,0:0:0:0:
320,192,138920,1,0,0:0:0:0:
192,192,138995,1,0,0:0:0:0:
64,192,139070,1,0,0:0:0:0:
448,192,139145,1,0,0:0:0:0:
320,192,139220,1,0,0:0:0:0:
192,192,139220,1,0,0:0:0:0:
64,192,139295,1,0,0:0:0:0:
448,192,139370,1,0,0:0:0:0:
320,192,139370,1,0,0:0:0:0:
192,192,139445,1,0,0:0:0:0:
64,192,139520,1,0,0:0:0:0:
448,192,139520,1,0,0:0:0:0:
320,192,139595,1,0,0:0:0:0:
192,192,139670,1,0,0:0:0:0:
64,192,139745,1,0,0:0:0:0:
448,192,139820,1,0,0:0:0:0:
320,192,139820,1,0,0:0:0:0:
192,192,139895,1,0,0:0:0:0:
64,192,139970,1,0,0:0:0:0:
448,192,139970,1,0,0:0:0:0:
320,192,140045,1,0,0:0:0:0:
64,192,140120,1,0,0:0:0:0:
192,192,140120,1,0,0:0:0:0:
448,192,140195,1,0,0:0:0:0:
320,192,140270,1,0,0:0:0:0:
192,192,140345,1,0,0:0:0:0:
64,192,140420,1,0,0:0:0:0:
448,192,140420,1,0,0:0:0:0:
320,192,140420,1,0,0:0:0:0:
192,192,140495,1,0,0:0:0:0:
320,192,140570,1,0,0:0:0:0:
448,192,140570,1,0,0:0:0:0:
64,192,140645,1,0,0:0:0:0:
320,192,140720,1,0,0:0:0:0:
192,192,140720,1,0,0:0:0:0:
448,192,140795,1,0,0:0:0:0:
64,192,140870,1,0,0:0:0:0:
192,192,140945,1,0,0:0:0:0:
320,192,141020,1,0,0:0:0:0:
448,192,141020,1,0,0:0:0:0:
192,192,141095,1,0,0:0:0:0:
64,192,141170,1,0,0:0:0:0:
448,192,141170,1,0,0:0:0:0:
320,192,141245,1,0,0:0:0:0:
64,192,141320,1,0,0:0:0:0:
192,192,141320,1,0,0:0:0:0:
448,192,141395,1,0,0:0:0:0:
320,192,141470,1,0,0:0:0:0:
192,192,141545,1,0,0:0:0:0:
448,192,141620,1,0,0:0:0:0:
64,192,141620,1,0,0:0:0:0:
320,192,141695,1,0,0:0:0:0:
64,192,141770,1,0,0:0:0:0:
192,192,141770,1,0,0:0:0:0:
448,192,141845,1,0,0:0:0:0:
320,192,141920,1,0,0:0:0:0:
192,192,141920,1,0,0:0:0:0:
64,192,141995,1,0,0:0:0:0:
448,192,142070,1,0,0:0:0:0:
320,192,142145,1,0,0:0:0:0:
192,192,142220,1,0,0:0:0:0:
64,192,142220,1,0,0:0:0:0:
448,192,142295,1,0,0:0:0:0:
192,192,142370,1,0,0:0:0:0:
320,192,142370,1,0,0:0:0:0:
448,192,142445,1,0,0:0:0:0:
64,192,142520,1,0,0:0:0:0:
192,192,142520,1,0,0:0:0:0:
320,192,142595,1,0,0:0:0:0:
448,192,142670,1,0,0:0:0:0:
64,192,142745,1,0,0:0:0:0:
448,192,142820,1,0,0:0:0:0:
192,192,142820,1,0,0:0:0:0:
320,192,142820,1,0,0:0:0:0:
64,192,142895,1,0,0:0:0:0:
192,192,142970,1,0,0:0:0:0:
320,192,142970,1,0,0:0:0:0:
448,192,143045,1,0,0:0:0:0:
320,192,143120,1,0,0:0:0:0:
64,192,143120,1,0,0:0:0:0:
192,192,143195,1,0,0:0:0:0:
448,192,143270,1,0,0:0:0:0:
64,192,143345,1,0,0:0:0:0:
448,192,143420,1,0,0:0:0:0:
320,192,143420,1,0,0:0:0:0:
192,192,143495,1,0,0:0:0:0:
64,192,143570,1,0,0:0:0:0:
320,192,143570,1,0,0:0:0:0:
192,192,143645,1,0,0:0:0:0:
448,192,143720,1,0,0:0:0:0:
64,192,143720,1,0,0:0:0:0:
320,192,143795,1,0,0:0:0:0:
64,192,143870,1,0,0:0:0:0:
448,192,143945,1,0,0:0:0:0:
192,192,144020,1,0,0:0:0:0:
320,192,144020,1,0,0:0:0:0:
64,192,144095,1,0,0:0:0:0:
448,192,144170,1,0,0:0:0:0:
320,192,144170,1,0,0:0:0:0:
192,192,144245,1,0,0:0:0:0:
64,192,144320,1,0,0:0:0:0:
448,192,144320,1,0,0:0:0:0:
192,192,144395,1,0,0:0:0:0:
448,192,144470,1,0,0:0:0:0:
320,192,144545,1,0,0:0:0:0:
64,192,144620,1,0,0:0:0:0:
192,192,144620,1,0,0:0:0:0:
320,192,144695,1,0,0:0:0:0:
192,192,144770,1,0,0:0:0:0:
448,192,144770,1,0,0:0:0:0:
64,192,144845,1,0,0:0:0:0:
320,192,144920,1,0,0:0:0:0:
448,192,144920,1,0,0:0:0:0:
64,192,144995,1,0,0:0:0:0:
320,192,145070,1,0,0:0:0:0:
192,192,145145,1,0,0:0:0:0:
448,192,145220,1,0,0:0:0:0:
64,192,145220,1,0,0:0:0:0:
320,192,145295,1,0,0:0:0:0:
192,192,145370,1,0,0:0:0:0:
64,192,145370,1,0,0:0:0:0:
448,192,145445,1,0,0:0:0:0:
320,192,145520,1,0,0:0:0:0:
192,192,145520,1,0,0:0:0:0:
448,192,145595,1,0,0:0:0:0:
64,192,145670,1,0,0:0:0:0:
192,192,145745,1,0,0:0:0:0:
320,192,145820,1,0,0:0:0:0:
448,192,145820,1,0,0:0:0:0:
192,192,145895,1,0,0:0:0:0:
448,192,145970,1,0,0:0:0:0:
64,192,145970,1,0,0:0:0:0:
320,192,146045,1,0,0:0:0:0:
192,192,146120,1,0,0:0:0:0:
64,192,146120,1,0,0:0:0:0:
448,192,146195,1,0,0:0:0:0:
320,192,146270,1,0,0:0:0:0:
192,192,146345,1,0,0:0:0:0:
64,192,146420,1,0,0:0:0:0:
448,192,146420,1,0,0:0:0:0:
192,192,146495,1,0,0:0:0:0:
448,192,146570,1,0,0:0:0:0:
320,192,146570,1,0,0:0:0:0:
64,192,146645,1,0,0:0:0:0:
192,192,146720,1,0,0:0:0:0:
320,192,146720,1,0,0:0:0:0:
64,192,146795,1,0,0:0:0:0:
448,192,146870,1,0,0:0:0:0:
192,192,146870,1,0,0:0:0:0:
320,192,146945,1,0,0:0:0:0:
192,192,147020,1,0,0:0:0:0:
64,192,147020,1,0,0:0:0:0:
320,192,147095,1,0,0:0:0:0:
192,192,147170,1,0,0:0:0:0:
448,192,147170,1,0,0:0:0:0:
320,192,147245,1,0,0:0:0:0:
64,192,147320,1,0,0:0:0:0:
192,192,147320,1,0,0:0:0:0:
320,192,147395,1,0,0:0:0:0:
448,192,147470,1,0,0:0:0:0:
64,192,147470,1,0,0:0:0:0:
192,192,147545,1,0,0:0:0:0:
64,192,147620,1,0,0:0:0:0:
320,192,147620,1,0,0:0:0:0:
448,192,147620,1,0,0:0:0:0:
192,192,147920,1,0,0:0:0:0:
448,192,148220,1,0,0:0:0:0:
320,192,148220,1,0,0:0:0:0:
192,192,148820,1,0,0:0:0:0:
192,192,149120,1,0,0:0:0:0:
320,192,149420,1,0,0:0:0:0:
448,192,149420,1,0,0:0:0:0:
448,192,150020,1,0,0:0:0:0:
192,192,150020,1,0,0:0:0:0:
64,192,150020,1,0,0:0:0:0:
320,192,150320,1,0,0:0:0:0:
64,192,150620,1,0,0:0:0:0:
192,192,150620,1,0,0:0:0:0:
320,192,151220,1,0,0:0:0:0:
320,192,151520,1,0,0:0:0:0:
64,192,151820,1,0,0:0:0:0:
192,192,151820,1,0,0:0:0:0:
448,192,152420,1,0,0:0:0:0:
320,192,152420,1,0,0:0:0:0:
64,192,152420,1,0,0:0:0:0:
192,192,152720,1,0,0:0:0:0:
192,192,153020,1,0,0:0:0:0:
320,192,153020,1,0,0:0:0:0:
192,192,153620,1,0,0:0:0:0:
192,192,153920,1,0,0:0:0:0:
192,192,154220,1,0,0:0:0:0:
320,192,154220,1,0,0:0:0:0:
192,192,154820,1,0,0:0:0:0:
64,192,154820,1,0,0:0:0:0:
448,192,154820,1,0,0:0:0:0:
320,192,155120,1,0,0:0:0:0:
320,192,155420,1,0,0:0:0:0:
192,192,155420,1,0,0:0:0:0:
320,192,156020,1,0,0:0:0:0:
320,192,156320,1,0,0:0:0:0:
320,192,156620,1,0,0:0:0:0:
192,192,156620,1,0,0:0:0:0:
192,192,157220,1,0,0:0:0:0:
448,192,157220,1,0,0:0:0:0:
64,192,157220,1,0,0:0:0:0:
320,192,157295,1,0,0:0:0:0:
448,192,157370,1,0,0:0:0:0:
64,192,157370,1,0,0:0:0:0:
192,192,157445,1,0,0:0:0:0:
320,192,157520,1,0,0:0:0:0:
448,192,157520,1,0,0:0:0:0:
64,192,157595,1,0,0:0:0:0:
192,192,157670,1,0,0:0:0:0:
320,192,157745,1,0,0:0:0:0:
64,192,157820,1,0,0:0:0:0:
448,192,157820,1,0,0:0:0:0:
320,192,157895,1,0,0:0:0:0:
192,192,157970,1,0,0:0:0:0:
64,192,157970,1,0,0:0:0:0:
448,192,158045,1,0,0:0:0:0:
64,192,158120,1,0,0:0:0:0:
320,192,158120,1,0,0:0:0:0:
192,192,158195,1,0,0:0:0:0:
64,192,158270,1,0,0:0:0:0:
448,192,158345,1,0,0:0:0:0:
192,192,158420,1,0,0:0:0:0:
320,192,158420,1,0,0:0:0:0:
64,192,158495,1,0,0:0:0:0:
320,192,158570,1,0,0:0:0:0:
448,192,158570,1,0,0:0:0:0:
192,192,158645,1,0,0:0:0:0:
448,192,158720,1,0,0:0:0:0:
64,192,158720,1,0,0:0:0:0:
320,192,158795,1,0,0:0:0:0:
192,192,158870,1,0,0:0:0:0:
64,192,158945,1,0,0:0:0:0:
320,192,159020,1,0,0:0:0:0:
448,192,159020,1,0,0:0:0:0:
192,192,159095,1,0,0:0:0:0:
64,192,159170,1,0,0:0:0:0:
448,192,159170,1,0,0:0:0:0:
320,192,159245,1,0,0:0:0:0:
64,192,159320,1,0,0:0:0:0:
192,192,159320,1,0,0:0:0:0:
448,192,159395,1,0,0:0:0:0:
320,192,159470,1,0,0:0:0:0:
192,192,159545,1,0,0:0:0:0:
448,192,159620,1,0,0:0:0:0:
64,192,159620,1,0,0:0:0:0:
320,192,159620,1,0,0:0:0:0:
192,192,159695,1,0,0:0:0:0:
320,192,159770,1,0,0:0:0:0:
448,192,159770,1,0,0:0:0:0:
64,192,159845,1,0,0:0:0:0:
320,192,159920,1,0,0:0:0:0:
192,192,159920,1,0,0:0:0:0:
448,192,159995,1,0,0:0:0:0:
64,192,160070,1,0,0:0:0:0:
192,192,160145,1,0,0:0:0:0:
448,192,160220,1,0,0:0:0:0:
320,192,160220,1,0,0:0:0:0:
192,192,160295,1,0,0:0:0:0:
64,192,160370,1,0,0:0:0:0:
448,192,160370,1,0,0:0:0:0:
320,192,160445,1,0,0:0:0:0:
64,192,160520,1,0,0:0:0:0:
192,192,160520,1,0,0:0:0:0:
448,192,160595,1,0,0:0:0:0:
320,192,160670,1,0,0:0:0:0:
192,192,160745,1,0,0:0:0:0:
448,192,160820,1,0,0:0:0:0:
64,192,160820,1,0,0:0:0:0:
320,192,160895,1,0,0:0:0:0:
64,192,160970,1,0,0:0:0:0:
192,192,160970,1,0,0:0:0:0:
448,192,161045,1,0,0:0:0:0:
320,192,161120,1,0,0:0:0:0:
192,192,161120,1,0,0:0:0:0:
64,192,161195,1,0,0:0:0:0:
448,192,161270,1,0,0:0:0:0:
320,192,161345,1,0,0:0:0:0:
192,192,161420,1,0,0:0:0:0:
64,192,161420,1,0,0:0:0:0:
448,192,161495,1,0,0:0:0:0:
320,192,161570,1,0,0:0:0:0:
192,192,161570,1,0,0:0:0:0:
64,192,161645,1,0,0:0:0:0:
320,192,161720,1,0,0:0:0:0:
448,192,161720,1,0,0:0:0:0:
192,192,161795,1,0,0:0:0:0:
64,192,161870,1,0,0:0:0:0:
448,192,161945,1,0,0:0:0:0:
192,192,162020,1,0,0:0:0:0:
64,192,162020,1,0,0:0:0:0:
320,192,162070,1,0,0:0:0:0:
448,192,162120,1,0,0:0:0:0:
192,192,162170,1,0,0:0:0:0:
64,192,162220,1,0,0:0:0:0:
448,192,162270,1,0,0:0:0:0:
320,192,162320,1,0,0:0:0:0:
64,192,162370,1,0,0:0:0:0:
192,192,162420,1,0,0:0:0:0:
320,192,162470,1,0,0:0:0:0:
448,192,162520,1,0,0:0:0:0:
192,192,162570,1,0,0:0:0:0:
64,192,162620,1,0,0:0:0:0:
448,192,162670,1,0,0:0:0:0:
320,192,162720,1,0,0:0:0:0:
192,192,162770,1,0,0:0:0:0:
64,192,162820,1,0,0:0:0:0:
320,192,162870,1,0,0:0:0:0:
448,192,162920,1,0,0:0:0:0:
64,192,162970,1,0,0:0:0:0:
192,192,163020,1,0,0:0:0:0:
448,192,163070,1,0,0:0:0:0:
320,192,163120,1,0,0:0:0:0:
192,192,163170,1,0,0:0:0:0:
64,192,163220,1,0,0:0:0:0:
320,192,163270,1,0,0:0:0:0:
448,192,163320,1,0,0:0:0:0:
192,192,163370,1,0,0:0:0:0:
64,192,163420,1,0,0:0:0:0:
448,192,163470,1,0,0:0:0:0:
320,192,163520,1,0,0:0:0:0:
64,192,163570,1,0,0:0:0:0:
192,192,163620,1,0,0:0:0:0:
320,192,163670,1,0,0:0:0:0:
448,192,163720,1,0,0:0:0:0:
192,192,163770,1,0,0:0:0:0:
64,192,163820,1,0,0:0:0:0:
448,192,163870,1,0,0:0:0:0:
320,192,163920,1,0,0:0:0:0:
192,192,163970,1,0,0:0:0:0:
64,192,164020,1,0,0:0:0:0:
320,192,164070,1,0,0:0:0:0:
448,192,164120,1,0,0:0:0:0:
64,192,164170,1,0,0:0:0:0:
192,192,164220,1,0,0:0:0:0:
448,192,164270,1,0,0:0:0:0:
320,192,164320,1,0,0:0:0:0:
192,192,164370,1,0,0:0:0:0:
448,192,164420,1,0,0:0:0:0:
64,192,164420,1,0,0:0:0:0:
192,192,164495,1,0,0:0:0:0:
448,192,164570,1,0,0:0:0:0:
320,192,164570,1,0,0:0:0:0:
64,192,164645,1,0,0:0:0:0:
320,192,164720,1,0,0:0:0:0:
192,192,164720,1,0,0:0:0:0:
448,192,164795,1,0,0:0:0:0:
64,192,164870,1,0,0:0:0:0:
192,192,164945,1,0,0:0:0:0:
320,192,165020,1,0,0:0:0:0:
448,192,165020,1,0,0:0:0:0:
192,192,165095,1,0,0:0:0:0:
64,192,165170,1,0,0:0:0:0:
448,192,165170,1,0,0:0:0:0:
320,192,165245,1,0,0:0:0:0:
64,192,165320,1,0,0:0:0:0:
192,192,165320,1,0,0:0:0:0:
448,192,165395,1,0,0:0:0:0:
320,192,165470,1,0,0:0:0:0:
192,192,165545,1,0,0:0:0:0:
64,192,165620,1,0,0:0:0:0:
448,192,165620,1,0,0:0:0:0:
192,192,165695,1,0,0:0:0:0:
448,192,165770,1,0,0:0:0:0:
320,192,165770,1,0,0:0:0:0:
64,192,165845,1,0,0:0:0:0:
320,192,165920,1,0,0:0:0:0:
192,192,165920,1,0,0:0:0:0:
64,192,165995,1,0,0:0:0:0:
448,192,166070,1,0,0:0:0:0:
320,192,166145,1,0,0:0:0:0:
64,192,166220,1,0,0:0:0:0:
192,192,166220,1,0,0:0:0:0:
448,192,166295,1,0,0:0:0:0:
320,192,166370,1,0,0:0:0:0:
192,192,166370,1,0,0:0:0:0:
448,192,166445,1,0,0:0:0:0:
64,192,166520,1,0,0:0:0:0:
192,192,166520,1,0,0:0:0:0:
320,192,166595,1,0,0:0:0:0:
448,192,166670,1,0,0:0:0:0:
192,192,166745,1,0,0:0:0:0:
448,192,166820,1,0,0:0:0:0:
64,192,166820,1,0,0:0:0:0:
320,192,166820,1,0,0:0:0:0:
448,192,166970,1,0,0:0:0:0:
64,192,167120,1,0,0:0:0:0:
448,192,167270,1,0,0:0:0:0:
448,192,167420,1,0,0:0:0:0:
64,192,167570,1,0,0:0:0:0:
448,192,167720,1,0,0:0:0:0:
320,192,167720,1,0,0:0:0:0:
448,192,168020,1,0,0:0:0:0:
192,192,168020,1,0,0:0:0:0:
192,192,168170,1,0,0:0:0:0:
448,192,168170,1,0,0:0:0:0:
320,192,168320,1,0,0:0:0:0:
64,192,168320,1,0,0:0:0:0:
192,192,168470,1,0,0:0:0:0:
448,192,168470,1,0,0:0:0:0:
192,192,168620,1,0,0:0:0:0:
448,192,168620,1,0,0:0:0:0:
320,192,168770,1,0,0:0:0:0:
64,192,168770,1,0,0:0:0:0:
192,192,168920,128,0,169070:0:0:0:0:
448,192,168920,128,0,169070:0:0:0:0:
