osu file format v14

[General]
AudioFilename: The Scales of Struggle.mp3
AudioLeadIn: 1500
PreviewTime: 30033
Countdown: 0
SampleSet: Normal
StackLeniency: 0.7
Mode: 3
LetterboxInBreaks: 0
SpecialStyle: 0
WidescreenStoryboard: 1

[Editor]
DistanceSpacing: 0.8
BeatDivisor: 4
GridSize: 16
TimelineZoom: 1.8

[Metadata]
Title:The Scales of Struggle
TitleUnicode:The Scales of Struggle
Artist:Anthony Donato
ArtistUnicode:Anthony Donato
Creator:Staiain
Version:Normal
Source:
Tags:mr pokeahole guitar hero 3 gh3 custom -kamikaze- fullerene-
BeatmapID:667639
BeatmapSetID:193512

[Difficulty]
HPDrainRate:7
CircleSize:4
OverallDifficulty:7
ApproachRate:9
SliderMultiplier:1.4
SliderTickRate:1

[Events]
//Background and Video events
//Break Periods
//Storyboard Layer 0 (Background)
//Storyboard Layer 1 (Fail)
//Storyboard Layer 2 (Pass)
//Storyboard Layer 3 (Foreground)
//Storyboard Sound Samples

[TimingPoints]
20,300,4,1,0,15,1,0

[HitObjects]
64,192,2420,128,0,4820:0:0:0:0:
192,192,4820,128,0,7220:0:0:0:0:
320,192,7220,128,0,9620:0:0:0:0:
64,192,9620,128,0,12020:0:0:0:0:
320,192,12020,1,0,0:0:0:0:
64,192,12320,128,0,14420:0:0:0:0:
320,192,12320,1,0,0:0:0:0:
320,192,12620,1,0,0:0:0:0:
320,192,12920,1,0,0:0:0:0:
320,192,13220,1,0,0:0:0:0:
320,192,13520,1,0,0:0:0:0:
320,192,13820,1,0,0:0:0:0:
320,192,14120,1,0,0:0:0:0:
192,192,14420,128,0,16820:0:0:0:0:
448,192,14420,1,0,0:0:0:0:
448,192,14720,1,0,0:0:0:0:
448,192,15020,1,0,0:0:0:0:
448,192,15320,1,0,0:0:0:0:
448,192,15620,1,0,0:0:0:0:
448,192,15920,1,0,0:0:0:0:
448,192,16220,1,0,0:0:0:0:
448,192,16520,1,0,0:0:0:0:
320,192,16820,128,0,19220:0:0:0:0:
64,192,16820,1,0,0:0:0:0:
64,192,17120,1,0,0:0:0:0:
64,192,17420,1,0,0:0:0:0:
64,192,17720,1,0,0:0:0:0:
64,192,18020,1,0,0:0:0:0:
64,192,18320,1,0,0:0:0:0:
64,192,18620,1,0,0:0:0:0:
64,192,18920,1,0,0:0:0:0:
192,192,19220,1,0,0:0:0:0:
192,192,19520,1,0,0:0:0:0:
192,192,19820,1,0,0:0:0:0:
192,192,20120,1,0,0:0:0:0:
320,192,20420,1,0,0:0:0:0:
320,192,20720,1,0,0:0:0:0:
320,192,21020,1,0,0:0:0:0:
320,192,21320,1,0,0:0:0:0:
64,192,21620,1,0,0:0:0:0:
320,192,21770,1,0,0:0:0:0:
192,192,21845,1,0,0:0:0:0:
320,192,21920,1,0,0:0:0:0:
64,192,22070,1,0,0:0:0:0:
320,192,22220,1,0,0:0:0:0:
192,192,22295,1,0,0:0:0:0:
320,192,22370,1,0,0:0:0:0:
64,192,22520,1,0,0:0:0:0:
320,192,22670,1,0,0:0:0:0:
192,192,22745,1,0,0:0:0:0:
320,192,22820,1,0,0:0:0:0:
192,192,22970,1,0,0:0:0:0:
320,192,23045,1,0,0:0:0:0:
192,192,23120,1,0,0:0:0:0:
448,192,23270,1,0,0:0:0:0:
192,192,23420,1,0,0:0:0:0:
320,192,23495,1,0,0:0:0:0:
192,192,23570,1,0,0:0:0:0:
448,192,23720,1,0,0:0:0:0:
192,192,23870,1,0,0:0:0:0:
320,192,23945,1,0,0:0:0:0:
192,192,24020,1,0,0:0:0:0:
320,192,24170,1,0,0:0:0:0:
192,192,24245,1,0,0:0:0:0:
320,192,24320,1,0,0:0:0:0:
192,192,24470,1,0,0:0:0:0:
320,192,24620,1,0,0:0:0:0:
64,192,24695,1,0,0:0:0:0:
320,192,24770,1,0,0:0:0:0:
192,192,24920,1,0,0:0:0:0:
320,192,25070,1,0,0:0:0:0:
64,192,25145,1,0,0:0:0:0:
320,192,25220,1,0,0:0:0:0:
64,192,25370,1,0,0:0:0:0:
320,192,25445,1,0,0:0:0:0:
64,192,25520,1,0,0:0:0:0:
448,192,25670,1,0,0:0:0:0:
64,192,25820,1,0,0:0:0:0:
320,192,25895,1,0,0:0:0:0:
64,192,25970,1,0,0:0:0:0:
448,192,26120,1,0,0:0:0:0:
64,192,26270,1,0,0:0:0:0:
320,192,26345,1,0,0:0:0:0:
64,192,26420,1,0,0:0:0:0:
320,192,26570,1,0,0:0:0:0:
192,192,26645,1,0,0:0:0:0:
320,192,26720,1,0,0:0:0:0:
64,192,26870,1,0,0:0:0:0:
448,192,27020,1,0,0:0:0:0:
192,192,27095,1,0,0:0:0:0:
448,192,27170,1,0,0:0:0:0:
64,192,27320,1,0,0:0:0:0:
192,192,27470,1,0,0:0:0:0:
448,192,27545,1,0,0:0:0:0:
192,192,27620,1,0,0:0:0:0:
320,192,27770,1,0,0:0:0:0:
64,192,27845,1,0,0:0:0:0:
320,192,27920,1,0,0:0:0:0:
192,192,28070,1,0,0:0:0:0:
448,192,28220,1,0,0:0:0:0:
64,192,28295,1,0,0:0:0:0:
448,192,28370,1,0,0:0:0:0:
192,192,28520,1,0,0:0:0:0:
64,192,28670,1,0,0:0:0:0:
320,192,28745,1,0,0:0:0:0:
64,192,28820,1,0,0:0:0:0:
448,192,28970,1,0,0:0:0:0:
192,192,29045,1,0,0:0:0:0:
448,192,29120,1,0,0:0:0:0:
64,192,29270,1,0,0:0:0:0:
320,192,29420,1,0,0:0:0:0:
192,192,29495,1,0,0:0:0:0:
320,192,29570,1,0,0:0:0:0:
64,192,29720,1,0,0:0:0:0:
192,192,29870,1,0,0:0:0:0:
448,192,30020,128,0,31220:0:0:0:0:
64,192,31220,1,0,0:0:0:0:
192,192,31220,1,0,0:0:0:0:
64,192,31520,1,0,0:0:0:0:
64,192,31820,1,0,0:0:0:0:
64,192,32120,1,0,0:0:0:0:
64,192,32420,1,0,0:0:0:0:
64,192,32570,1,0,0:0:0:0:
192,192,32720,1,0,0:0:0:0:
192,192,32870,1,0,0:0:0:0:
320,192,33020,1,0,0:0:0:0:
320,192,33170,1,0,0:0:0:0:
192,192,33320,1,0,0:0:0:0:
192,192,33470,1,0,0:0:0:0:
320,192,33620,128,0,34070:0:0:0:0:
448,192,34070,1,0,0:0:0:0:
320,192,34220,1,0,0:0:0:0:
192,192,34370,1,0,0:0:0:0:
64,192,34520,1,0,0:0:0:0:
192,192,34595,1,0,0:0:0:0:
320,192,34670,1,0,0:0:0:0:
64,192,34820,128,0,34970:0:0:0:0:
448,192,34970,128,0,35120:0:0:0:0:
64,192,35120,128,0,35270:0:0:0:0:
448,192,35270,128,0,35420:0:0:0:0:
64,192,35420,128,0,35570:0:0:0:0:
448,192,35570,128,0,35720:0:0:0:0:
64,192,35720,128,0,35870:0:0:0:0:
448,192,36020,1,0,0:0:0:0:
320,192,36170,1,0,0:0:0:0:
448,192,36320,1,0,0:0:0:0:
192,192,36470,1,0,0:0:0:0:
448,192,36620,1,0,0:0:0:0:
64,192,36770,1,0,0:0:0:0:
320,192,36920,1,0,0:0:0:0:
192,192,37070,1,0,0:0:0:0:
64,192,37220,128,0,37520:0:0:0:0:
320,192,37520,128,0,37820:0:0:0:0:
64,192,37820,128,0,38420:0:0:0:0:
192,192,38420,1,0,0:0:0:0:
320,192,38570,1,0,0:0:0:0:
192,192,38720,1,0,0:0:0:0:
448,192,38870,1,0,0:0:0:0:
320,192,39020,1,0,0:0:0:0:
448,192,39170,1,0,0:0:0:0:
320,192,39320,1,0,0:0:0:0:
192,192,39470,1,0,0:0:0:0:
64,192,39620,1,0,0:0:0:0:
192,192,39770,1,0,0:0:0:0:
64,192,39920,1,0,0:0:0:0:
320,192,40070,1,0,0:0:0:0:
192,192,40220,1,0,0:0:0:0:
320,192,40370,1,0,0:0:0:0:
64,192,40520,128,0,40820:0:0:0:0:
448,192,40820,1,0,0:0:0:0:
320,192,40820,1,0,0:0:0:0:
64,192,40970,1,0,0:0:0:0:
192,192,41120,1,0,0:0:0:0:
320,192,41270,1,0,0:0:0:0:
448,192,41420,1,0,0:0:0:0:
320,192,41570,1,0,0:0:0:0:
192,192,41720,1,0,0:0:0:0:
64,192,41870,1,0,0:0:0:0:
448,192,42020,1,0,0:0:0:0:
192,192,42170,1,0,0:0:0:0:
320,192,42320,1,0,0:0:0:0:
64,192,42470,1,0,0:0:0:0:
192,192,42620,1,0,0:0:0:0:
320,192,42695,1,0,0:0:0:0:
448,192,42770,1,0,0:0:0:0:
64,192,42845,1,0,0:0:0:0:
192,192,42920,1,0,0:0:0:0:
64,192,43220,1,0,0:0:0:0:
192,192,43370,1,0,0:0:0:0:
320,192,43520,1,0,0:0:0:0:
448,192,43670,1,0,0:0:0:0:
64,192,43820,1,0,0:0:0:0:
448,192,43970,1,0,0:0:0:0:
320,192,44120,1,0,0:0:0:0:
192,192,44270,1,0,0:0:0:0:
64,192,44420,1,0,0:0:0:0:
448,192,44570,1,0,0:0:0:0:
192,192,44720,1,0,0:0:0:0:
320,192,44870,1,0,0:0:0:0:
64,192,45020,1,0,0:0:0:0:
192,192,45095,1,0,0:0:0:0:
320,192,45170,1,0,0:0:0:0:
448,192,45245,1,0,0:0:0:0:
64,192,45320,1,0,0:0:0:0:
192,192,45620,1,0,0:0:0:0:
320,192,45770,1,0,0:0:0:0:
448,192,45920,1,0,0:0:0:0:
64,192,46070,1,0,0:0:0:0:
320,192,46220,1,0,0:0:0:0:
64,192,46370,1,0,0:0:0:0:
448,192,46520,1,0,0:0:0:0:
320,192,46670,1,0,0:0:0:0:
192,192,46820,1,0,0:0:0:0:
64,192,46970,1,0,0:0:0:0:
448,192,47120,1,0,0:0:0:0:
64,192,47270,1,0,0:0:0:0:
192,192,47420,1,0,0:0:0:0:
320,192,47495,1,0,0:0:0:0:
448,192,47570,1,0,0:0:0:0:
64,192,47645,1,0,0:0:0:0:
320,192,47720,1,0,0:0:0:0:
448,192,48020,1,0,0:0:0:0:
64,192,48170,1,0,0:0:0:0:
192,192,48320,1,0,0:0:0:0:
320,192,48470,1,0,0:0:0:0:
448,192,48620,1,0,0:0:0:0:
320,192,48770,1,0,0:0:0:0:
192,192,48920,1,0,0:0:0:0:
64,192,49070,1,0,0:0:0:0:
448,192,49220,1,0,0:0:0:0:
192,192,49370,1,0,0:0:0:0:
320,192,49520,1,0,0:0:0:0:
64,192,49670,1,0,0:0:0:0:
192,192,49820,1,0,0:0:0:0:
320,192,49895,1,0,0:0:0:0:
448,192,49970,1,0,0:0:0:0:
64,192,50045,1,0,0:0:0:0:
192,192,50120,1,0,0:0:0:0:
64,192,50420,1,0,0:0:0:0:
448,192,50420,1,0,0:0:0:0:
192,192,50570,1,0,0:0:0:0:
320,192,50720,1,0,0:0:0:0:
448,192,50870,1,0,0:0:0:0:
320,192,51020,1,0,0:0:0:0:
192,192,51170,1,0,0:0:0:0:
64,192,51320,1,0,0:0:0:0:
448,192,51470,1,0,0:0:0:0:
64,192,51620,128,0,52070:0:0:0:0:
448,192,52070,128,0,52520:0:0:0:0:
64,192,52520,128,0,52820:0:0:0:0:
192,192,52820,1,0,0:0:0:0:
320,192,52970,1,0,0:0:0:0:
448,192,53120,1,0,0:0:0:0:
64,192,53270,1,0,0:0:0:0:
448,192,53420,1,0,0:0:0:0:
192,192,53570,1,0,0:0:0:0:
320,192,53720,128,0,54020:0:0:0:0:
448,192,54020,128,0,54620:0:0:0:0:
320,192,54620,1,0,0:0:0:0:
192,192,54695,1,0,0:0:0:0:
64,192,54770,1,0,0:0:0:0:
448,192,54845,1,0,0:0:0:0:
320,192,54920,1,0,0:0:0:0:
192,192,54995,1,0,0:0:0:0:
64,192,55070,1,0,0:0:0:0:
448,192,55220,128,0,55820:0:0:0:0:
192,192,55820,128,0,56420:0:0:0:0:
448,192,56420,1,0,0:0:0:0:
320,192,56570,1,0,0:0:0:0:
192,192,56720,1,0,0:0:0:0:
64,192,56870,1,0,0:0:0:0:
448,192,57020,1,0,0:0:0:0:
192,192,57170,1,0,0:0:0:0:
320,192,57320,1,0,0:0:0:0:
448,192,57470,1,0,0:0:0:0:
64,192,57620,1,0,0:0:0:0:
192,192,57770,1,0,0:0:0:0:
64,192,57920,1,0,0:0:0:0:
320,192,58070,1,0,0:0:0:0:
192,192,58220,1,0,0:0:0:0:
448,192,58370,1,0,0:0:0:0:
64,192,58520,1,0,0:0:0:0:
320,192,58595,1,0,0:0:0:0:
448,192,58670,1,0,0:0:0:0:
192,192,58745,1,0,0:0:0:0:
64,192,58820,128,0,60020:0:0:0:0:
192,192,60020,1,0,0:0:0:0:
448,192,60020,1,0,0:0:0:0:
320,192,60170,1,0,0:0:0:0:
192,192,60320,1,0,0:0:0:0:
64,192,60470,1,0,0:0:0:0:
448,192,60620,1,0,0:0:0:0:
192,192,60770,1,0,0:0:0:0:
320,192,60920,1,0,0:0:0:0:
64,192,61070,1,0,0:0:0:0:
192,192,61220,128,0,61520:0:0:0:0:
320,192,61520,128,0,61820:0:0:0:0:
448,192,61820,128,0,62120:0:0:0:0:
64,192,62120,128,0,62420:0:0:0:0:
192,192,62420,1,0,0:0:0:0:
320,192,62495,1,0,0:0:0:0:
192,192,62570,1,0,0:0:0:0:
320,192,62645,1,0,0:0:0:0:
192,192,62720,1,0,0:0:0:0:
320,192,62870,1,0,0:0:0:0:
448,192,63020,1,0,0:0:0:0:
320,192,63170,1,0,0:0:0:0:
192,192,63320,1,0,0:0:0:0:
320,192,63470,1,0,0:0:0:0:
64,192,63620,1,0,0:0:0:0:
192,192,63770,1,0,0:0:0:0:
320,192,63920,1,0,0:0:0:0:
448,192,64070,1,0,0:0:0:0:
64,192,64220,1,0,0:0:0:0:
320,192,64370,1,0,0:0:0:0:
192,192,64520,128,0,64820:0:0:0:0:
448,192,64820,128,0,66020:0:0:0:0:
320,192,66020,128,0,67220:0:0:0:0:
64,192,67220,1,0,0:0:0:0:
448,192,67295,1,0,0:0:0:0:
64,192,67370,1,0,0:0:0:0:
320,192,67520,1,0,0:0:0:0:
448,192,67670,1,0,0:0:0:0:
64,192,67745,1,0,0:0:0:0:
448,192,67820,1,0,0:0:0:0:
192,192,67970,1,0,0:0:0:0:
64,192,68120,1,0,0:0:0:0:
448,192,68195,1,0,0:0:0:0:
64,192,68270,1,0,0:0:0:0:
448,192,68345,1,0,0:0:0:0:
192,192,68420,128,0,69620:0:0:0:0:
320,192,69620,1,0,0:0:0:0:
448,192,69620,1,0,0:0:0:0:
64,192,69770,1,0,0:0:0:0:
320,192,69920,1,0,0:0:0:0:
192,192,70070,1,0,0:0:0:0:
448,192,70220,1,0,0:0:0:0:
320,192,70370,1,0,0:0:0:0:
192,192,70520,1,0,0:0:0:0:
64,192,70670,1,0,0:0:0:0:
448,192,70820,1,0,0:0:0:0:
320,192,70970,1,0,0:0:0:0:
64,192,71120,1,0,0:0:0:0:
192,192,71270,1,0,0:0:0:0:
448,192,71420,1,0,0:0:0:0:
64,192,71495,1,0,0:0:0:0:
192,192,71570,1,0,0:0:0:0:
320,192,71645,1,0,0:0:0:0:
448,192,71720,1,0,0:0:0:0:
64,192,72020,1,0,0:0:0:0:
320,192,72170,1,0,0:0:0:0:
192,192,72320,1,0,0:0:0:0:
448,192,72470,1,0,0:0:0:0:
64,192,72620,1,0,0:0:0:0:
448,192,72770,1,0,0:0:0:0:
320,192,72920,1,0,0:0:0:0:
192,192,73070,1,0,0:0:0:0:
64,192,73220,1,0,0:0:0:0:
320,192,73370,1,0,0:0:0:0:
192,192,73520,1,0,0:0:0:0:
448,192,73670,1,0,0:0:0:0:
64,192,73820,1,0,0:0:0:0:
320,192,73895,1,0,0:0:0:0:
192,192,73970,1,0,0:0:0:0:
448,192,74045,1,0,0:0:0:0:
64,192,74120,1,0,0:0:0:0:
192,192,74420,1,0,0:0:0:0:
448,192,74570,1,0,0:0:0:0:
64,192,74720,1,0,0:0:0:0:
320,192,74870,1,0,0:0:0:0:
192,192,75020,1,0,0:0:0:0:
448,192,75170,1,0,0:0:0:0:
320,192,75320,1,0,0:0:0:0:
64,192,75470,1,0,0:0:0:0:
192,192,75620,1,0,0:0:0:0:
448,192,75770,1,0,0:0:0:0:
64,192,75920,1,0,0:0:0:0:
320,192,76070,1,0,0:0:0:0:
192,192,76220,1,0,0:0:0:0:
320,192,76295,1,0,0:0:0:0:
448,192,76370,1,0,0:0:0:0:
64,192,76445,1,0,0:0:0:0:
192,192,76520,1,0,0:0:0:0:
448,192,76820,1,0,0:0:0:0:
64,192,76970,1,0,0:0:0:0:
320,192,77120,1,0,0:0:0:0:
192,192,77270,1,0,0:0:0:0:
448,192,77420,1,0,0:0:0:0:
320,192,77570,1,0,0:0:0:0:
192,192,77720,1,0,0:0:0:0:
64,192,77870,1,0,0:0:0:0:
448,192,78020,1,0,0:0:0:0:
320,192,78170,1,0,0:0:0:0:
64,192,78320,1,0,0:0:0:0:
192,192,78470,1,0,0:0:0:0:
448,192,78620,1,0,0:0:0:0:
64,192,78695,1,0,0:0:0:0:
192,192,78770,1,0,0:0:0:0:
320,192,78845,1,0,0:0:0:0:
448,192,78920,1,0,0:0:0:0:
64,192,79220,128,0,81320:0:0:0:0:
192,192,79220,1,0,0:0:0:0:
320,192,79370,1,0,0:0:0:0:
448,192,79520,1,0,0:0:0:0:
192,192,79670,1,0,0:0:0:0:
320,192,79820,1,0,0:0:0:0:
192,192,79970,1,0,0:0:0:0:
448,192,80120,1,0,0:0:0:0:
320,192,80270,1,0,0:0:0:0:
192,192,80420,1,0,0:0:0:0:
448,192,80570,1,0,0:0:0:0:
320,192,80720,1,0,0:0:0:0:
192,192,80870,1,0,0:0:0:0:
448,192,81020,1,0,0:0:0:0:
192,192,81170,1,0,0:0:0:0:
320,192,81320,1,0,0:0:0:0:
192,192,81620,128,0,83720:0:0:0:0:
320,192,81770,1,0,0:0:0:0:
448,192,81920,1,0,0:0:0:0:
64,192,82070,1,0,0:0:0:0:
320,192,82220,1,0,0:0:0:0:
64,192,82370,1,0,0:0:0:0:
448,192,82520,1,0,0:0:0:0:
320,192,82670,1,0,0:0:0:0:
64,192,82820,1,0,0:0:0:0:
448,192,82970,1,0,0:0:0:0:
320,192,83120,1,0,0:0:0:0:
64,192,83270,1,0,0:0:0:0:
320,192,83420,1,0,0:0:0:0:
64,192,83570,1,0,0:0:0:0:
448,192,83720,1,0,0:0:0:0:
320,192,84020,128,0,86120:0:0:0:0:
64,192,84020,1,0,0:0:0:0:
192,192,84170,1,0,0:0:0:0:
448,192,84320,1,0,0:0:0:0:
64,192,84470,1,0,0:0:0:0:
192,192,84620,1,0,0:0:0:0:
64,192,84770,1,0,0:0:0:0:
448,192,84920,1,0,0:0:0:0:
192,192,85070,1,0,0:0:0:0:
64,192,85220,1,0,0:0:0:0:
448,192,85370,1,0,0:0:0:0:
192,192,85520,1,0,0:0:0:0:
64,192,85670,1,0,0:0:0:0:
448,192,85820,1,0,0:0:0:0:
192,192,85970,1,0,0:0:0:0:
448,192,86120,1,0,0:0:0:0:
448,192,86420,128,0,87320:0:0:0:0:
64,192,86420,1,0,0:0:0:0:
192,192,86570,1,0,0:0:0:0:
320,192,86720,1,0,0:0:0:0:
64,192,86870,1,0,0:0:0:0:
192,192,87020,1,0,0:0:0:0:
64,192,87170,1,0,0:0:0:0:
320,192,87320,1,0,0:0:0:0:
192,192,87470,1,0,0:0:0:0:
64,192,87620,128,0,88820:0:0:0:0:
448,192,87620,1,0,0:0:0:0:
320,192,87770,1,0,0:0:0:0:
192,192,87920,1,0,0:0:0:0:
448,192,88070,1,0,0:0:0:0:
320,192,88220,1,0,0:0:0:0:
192,192,88370,1,0,0:0:0:0:
448,192,88520,1,0,0:0:0:0:
320,192,88820,128,0,89720:0:0:0:0:
64,192,90020,1,0,0:0:0:0:
192,192,90170,1,0,0:0:0:0:
64,192,90320,1,0,0:0:0:0:
320,192,90470,1,0,0:0:0:0:
192,192,90620,1,0,0:0:0:0:
320,192,90770,1,0,0:0:0:0:
448,192,90920,1,0,0:0:0:0:
192,192,91070,1,0,0:0:0:0:
64,192,91220,1,0,0:0:0:0:
448,192,91370,1,0,0:0:0:0:
320,192,91520,1,0,0:0:0:0:
192,192,91670,1,0,0:0:0:0:
64,192,91820,1,0,0:0:0:0:
320,192,91970,128,0,92120:0:0:0:0:
192,192,92120,128,0,92420:0:0:0:0:
448,192,92420,128,0,93470:0:0:0:0:
192,192,93470,1,0,0:0:0:0:
64,192,93620,1,0,0:0:0:0:
192,192,93770,1,0,0:0:0:0:
320,192,93920,1,0,0:0:0:0:
448,192,94070,1,0,0:0:0:0:
192,192,94220,1,0,0:0:0:0:
64,192,94370,1,0,0:0:0:0:
448,192,94520,1,0,0:0:0:0:
320,192,94670,1,0,0:0:0:0:
64,192,94820,128,0,95120:0:0:0:0:
320,192,95120,128,0,95345:0:0:0:0:
448,192,95345,128,0,96020:0:0:0:0:
192,192,96020,1,0,0:0:0:0:
192,192,96170,1,0,0:0:0:0:
320,192,96320,1,0,0:0:0:0:
320,192,96470,1,0,0:0:0:0:
192,192,96620,1,0,0:0:0:0:
192,192,96770,1,0,0:0:0:0:
64,192,96920,1,0,0:0:0:0:
448,192,97070,1,0,0:0:0:0:
192,192,97220,128,0,98120:0:0:0:0:
448,192,98120,128,0,98420:0:0:0:0:
320,192,98420,128,0,98720:0:0:0:0:
448,192,98720,128,0,99020:0:0:0:0:
192,192,99020,128,0,99620:0:0:0:0:
64,192,99620,1,0,0:0:0:0:
448,192,99620,1,0,0:0:0:0:
192,192,99770,1,0,0:0:0:0:
64,192,99920,1,0,0:0:0:0:
320,192,100070,1,0,0:0:0:0:
192,192,100220,1,0,0:0:0:0:
448,192,100370,1,0,0:0:0:0:
64,192,100520,1,0,0:0:0:0:
320,192,100670,1,0,0:0:0:0:
64,192,100820,1,0,0:0:0:0:
320,192,100895,1,0,0:0:0:0:
320,192,101120,1,0,0:0:0:0:
320,192,101345,1,0,0:0:0:0:
192,192,101420,128,0,101720:0:0:0:0:
448,192,101870,1,0,0:0:0:0:
320,192,102020,1,0,0:0:0:0:
192,192,102320,1,0,0:0:0:0:
64,192,102470,1,0,0:0:0:0:
448,192,102620,1,0,0:0:0:0:
320,192,102770,1,0,0:0:0:0:
320,192,102920,1,0,0:0:0:0:
320,192,103070,1,0,0:0:0:0:
448,192,103220,128,0,103370:0:0:0:0:
64,192,103370,128,0,103520:0:0:0:0:
192,192,103520,128,0,103670:0:0:0:0:
320,192,103670,128,0,103820:0:0:0:0:
448,192,103820,128,0,104420:0:0:0:0:
320,192,104420,128,0,105620:0:0:0:0:
448,192,105620,1,0,0:0:0:0:
320,192,105845,1,0,0:0:0:0:
192,192,106070,1,0,0:0:0:0:
64,192,106295,1,0,0:0:0:0:
448,192,106520,1,0,0:0:0:0:
192,192,106745,1,0,0:0:0:0:
320,192,106970,1,0,0:0:0:0:
64,192,107195,1,0,0:0:0:0:
448,192,107420,1,0,0:0:0:0:
192,192,107570,1,0,0:0:0:0:
448,192,107720,1,0,0:0:0:0:
64,192,107870,1,0,0:0:0:0:
192,192,108020,1,0,0:0:0:0:
320,192,108170,1,0,0:0:0:0:
64,192,108320,1,0,0:0:0:0:
448,192,108470,1,0,0:0:0:0:
64,192,108620,1,0,0:0:0:0:
448,192,108770,1,0,0:0:0:0:
64,192,108920,1,0,0:0:0:0:
448,192,109070,1,0,0:0:0:0:
64,192,109220,1,0,0:0:0:0:
192,192,109220,1,0,0:0:0:0:
320,192,109370,1,0,0:0:0:0:
64,192,109520,1,0,0:0:0:0:
320,192,109670,1,0,0:0:0:0:
192,192,109820,1,0,0:0:0:0:
448,192,109970,1,0,0:0:0:0:
192,192,110120,1,0,0:0:0:0:
448,192,110270,1,0,0:0:0:0:
64,192,110420,128,0,110570:0:0:0:0:
192,192,110570,1,0,0:0:0:0:
320,192,110720,128,0,110870:0:0:0:0:
448,192,110870,128,0,111170:0:0:0:0:
192,192,111020,1,0,0:0:0:0:
64,192,111170,1,0,0:0:0:0:
448,192,111320,1,0,0:0:0:0:
192,192,111470,1,0,0:0:0:0:
320,192,111620,1,0,0:0:0:0:
64,192,111770,1,0,0:0:0:0:
64,192,111920,1,0,0:0:0:0:
320,192,112070,1,0,0:0:0:0:
320,192,112220,1,0,0:0:0:0:
64,192,112370,1,0,0:0:0:0:
320,192,112520,1,0,0:0:0:0:
64,192,112670,1,0,0:0:0:0:
448,192,112820,128,0,112970:0:0:0:0:
64,192,112970,128,0,113120:0:0:0:0:
192,192,113120,128,0,113270:0:0:0:0:
320,192,113270,128,0,113420:0:0:0:0:
448,192,113420,128,0,113570:0:0:0:0:
320,192,113570,128,0,113720:0:0:0:0:
64,192,113720,1,0,0:0:0:0:
192,192,113870,1,0,0:0:0:0:
64,192,114020,1,0,0:0:0:0:
448,192,114020,1,0,0:0:0:0:
320,192,114170,1,0,0:0:0:0:
192,192,114320,1,0,0:0:0:0:
448,192,114470,1,0,0:0:0:0:
320,192,114620,1,0,0:0:0:0:
64,192,114770,1,0,0:0:0:0:
192,192,114920,1,0,0:0:0:0:
448,192,115070,1,0,0:0:0:0:
64,192,115220,1,0,0:0:0:0:
320,192,115295,1,0,0:0:0:0:
192,192,115370,1,0,0:0:0:0:
320,192,115520,1,0,0:0:0:0:
64,192,115670,1,0,0:0:0:0:
320,192,115745,1,0,0:0:0:0:
192,192,115820,128,0,116270:0:0:0:0:
448,192,115970,1,0,0:0:0:0:
320,192,116120,1,0,0:0:0:0:
448,192,116270,1,0,0:0:0:0:
64,192,116420,1,0,0:0:0:0:
320,192,116570,1,0,0:0:0:0:
192,192,116720,1,0,0:0:0:0:
320,192,116870,1,0,0:0:0:0:
448,192,117020,1,0,0:0:0:0:
192,192,117170,1,0,0:0:0:0:
192,192,117320,1,0,0:0:0:0:
192,192,117470,1,0,0:0:0:0:
448,192,117620,128,0,117770:0:0:0:0:
64,192,117770,128,0,117920:0:0:0:0:
192,192,117920,128,0,118070:0:0:0:0:
320,192,118070,128,0,118220:0:0:0:0:
448,192,118220,128,0,118820:0:0:0:0:
64,192,118370,1,0,0:0:0:0:
192,192,118520,1,0,0:0:0:0:
64,192,118670,1,0,0:0:0:0:
192,192,118820,1,0,0:0:0:0:
320,192,118820,1,0,0:0:0:0:
64,192,118970,1,0,0:0:0:0:
320,192,119120,1,0,0:0:0:0:
192,192,119270,1,0,0:0:0:0:
448,192,119420,1,0,0:0:0:0:
320,192,119570,1,0,0:0:0:0:
64,192,119720,1,0,0:0:0:0:
192,192,119870,1,0,0:0:0:0:
448,192,120020,1,0,0:0:0:0:
320,192,120170,1,0,0:0:0:0:
192,192,120320,1,0,0:0:0:0:
64,192,120470,1,0,0:0:0:0:
448,192,120620,1,0,0:0:0:0:
192,192,120695,1,0,0:0:0:0:
64,192,120770,1,0,0:0:0:0:
320,192,120845,1,0,0:0:0:0:
448,192,120920,1,0,0:0:0:0:
64,192,121220,1,0,0:0:0:0:
192,192,121370,1,0,0:0:0:0:
448,192,121520,1,0,0:0:0:0:
320,192,121670,1,0,0:0:0:0:
64,192,121820,1,0,0:0:0:0:
448,192,121970,1,0,0:0:0:0:
320,192,122120,1,0,0:0:0:0:
192,192,122270,1,0,0:0:0:0:
64,192,122420,1,0,0:0:0:0:
448,192,122570,1,0,0:0:0:0:
320,192,122720,1,0,0:0:0:0:
192,192,122870,1,0,0:0:0:0:
64,192,123020,1,0,0:0:0:0:
192,192,123095,1,0,0:0:0:0:
448,192,123170,1,0,0:0:0:0:
320,192,123245,1,0,0:0:0:0:
64,192,123320,1,0,0:0:0:0:
192,192,123620,1,0,0:0:0:0:
448,192,123770,1,0,0:0:0:0:
64,192,123920,1,0,0:0:0:0:
320,192,124070,1,0,0:0:0:0:
192,192,124220,1,0,0:0:0:0:
64,192,124370,1,0,0:0:0:0:
448,192,124520,1,0,0:0:0:0:
320,192,124670,1,0,0:0:0:0:
192,192,124820,1,0,0:0:0:0:
448,192,124970,1,0,0:0:0:0:
320,192,125120,1,0,0:0:0:0:
64,192,125270,1,0,0:0:0:0:
192,192,125420,1,0,0:0:0:0:
448,192,125495,1,0,0:0:0:0:
320,192,125570,1,0,0:0:0:0:
64,192,125645,1,0,0:0:0:0:
192,192,125720,1,0,0:0:0:0:
448,192,126020,1,0,0:0:0:0:
64,192,126170,1,0,0:0:0:0:
320,192,126320,1,0,0:0:0:0:
192,192,126470,1,0,0:0:0:0:
448,192,126620,1,0,0:0:0:0:
320,192,126770,1,0,0:0:0:0:
192,192,126920,1,0,0:0:0:0:
64,192,127070,1,0,0:0:0:0:
448,192,127220,1,0,0:0:0:0:
192,192,127370,1,0,0:0:0:0:
64,192,127520,1,0,0:0:0:0:
320,192,127670,1,0,0:0:0:0:
448,192,127820,1,0,0:0:0:0:
320,192,127895,1,0,0:0:0:0:
192,192,127970,1,0,0:0:0:0:
64,192,128045,1,0,0:0:0:0:
448,192,128120,1,0,0:0:0:0:
448,192,128420,1,0,0:0:0:0:
64,192,128420,128,0,130520:0:0:0:0:
192,192,128570,1,0,0:0:0:0:
320,192,128720,1,0,0:0:0:0:
192,192,128870,1,0,0:0:0:0:
448,192,129020,1,0,0:0:0:0:
320,192,129170,1,0,0:0:0:0:
192,192,129320,1,0,0:0:0:0:
320,192,129470,1,0,0:0:0:0:
448,192,129620,1,0,0:0:0:0:
192,192,129770,1,0,0:0:0:0:
320,192,129920,1,0,0:0:0:0:
192,192,130070,1,0,0:0:0:0:
448,192,130220,1,0,0:0:0:0:
448,192,130370,1,0,0:0:0:0:
448,192,130520,1,0,0:0:0:0:
192,192,130820,128,0,132920:0:0:0:0:
320,192,130820,1,0,0:0:0:0:
448,192,130970,1,0,0:0:0:0:
64,192,131120,1,0,0:0:0:0:
448,192,131270,1,0,0:0:0:0:
320,192,131420,1,0,0:0:0:0:
64,192,131570,1,0,0:0:0:0:
448,192,131720,1,0,0:0:0:0:
64,192,131870,1,0,0:0:0:0:
320,192,132020,1,0,0:0:0:0:
448,192,132170,1,0,0:0:0:0:
64,192,132320,1,0,0:0:0:0:
448,192,132470,1,0,0:0:0:0:
320,192,132620,1,0,0:0:0:0:
320,192,132770,1,0,0:0:0:0:
320,192,132920,1,0,0:0:0:0:
320,192,133220,128,0,135320:0:0:0:0:
64,192,133220,1,0,0:0:0:0:
448,192,133370,1,0,0:0:0:0:
192,192,133520,1,0,0:0:0:0:
448,192,133670,1,0,0:0:0:0:
64,192,133820,1,0,0:0:0:0:
192,192,133970,1,0,0:0:0:0:
448,192,134120,1,0,0:0:0:0:
192,192,134270,1,0,0:0:0:0:
64,192,134420,1,0,0:0:0:0:
448,192,134570,1,0,0:0:0:0:
192,192,134720,1,0,0:0:0:0:
448,192,134870,1,0,0:0:0:0:
64,192,135020,1,0,0:0:0:0:
64,192,135170,1,0,0:0:0:0:
64,192,135320,1,0,0:0:0:0:
448,192,135620,128,0,136520:0:0:0:0:
64,192,135620,1,0,0:0:0:0:
192,192,135770,1,0,0:0:0:0:
320,192,135920,1,0,0:0:0:0:
192,192,136070,1,0,0:0:0:0:
64,192,136220,1,0,0:0:0:0:
320,192,136370,1,0,0:0:0:0:
192,192,136520,1,0,0:0:0:0:
320,192,136670,1,0,0:0:0:0:
64,192,136820,128,0,137720:0:0:0:0:
448,192,136820,1,0,0:0:0:0:
192,192,136970,1,0,0:0:0:0:
320,192,137120,1,0,0:0:0:0:
192,192,137270,1,0,0:0:0:0:
448,192,137420,1,0,0:0:0:0:
448,192,137570,1,0,0:0:0:0:
448,192,137720,1,0,0:0:0:0:
320,192,138020,1,0,0:0:0:0:
192,192,138020,1,0,0:0:0:0:
64,192,138170,1,0,0:0:0:0:
192,192,138320,1,0,0:0:0:0:
320,192,138470,1,0,0:0:0:0:
448,192,138620,1,0,0:0:0:0:
320,192,138770,1,0,0:0:0:0:
192,192,138920,1,0,0:0:0:0:
64,192,139070,1,0,0:0:0:0:
448,192,139220,1,0,0:0:0:0:
192,192,139370,1,0,0:0:0:0:
64,192,139520,1,0,0:0:0:0:
320,192,139670,1,0,0:0:0:0:
192,192,139745,1,0,0:0:0:0:
448,192,139820,1,0,0:0:0:0:
320,192,139895,1,0,0:0:0:0:
192,192,139970,1,0,0:0:0:0:
64,192,140045,1,0,0:0:0:0:
448,192,140120,1,0,0:0:0:0:
64,192,140420,1,0,0:0:0:0:
448,192,140420,1,0,0:0:0:0:
192,192,140570,1,0,0:0:0:0:
320,192,140720,1,0,0:0:0:0:
448,192,140870,1,0,0:0:0:0:
64,192,141020,1,0,0:0:0:0:
448,192,141170,1,0,0:0:0:0:
320,192,141320,1,0,0:0:0:0:
192,192,141470,1,0,0:0:0:0:
64,192,141620,1,0,0:0:0:0:
320,192,141770,1,0,0:0:0:0:
448,192,141920,1,0,0:0:0:0:
192,192,142070,1,0,0:0:0:0:
320,192,142145,1,0,0:0:0:0:
64,192,142220,1,0,0:0:0:0:
192,192,142295,1,0,0:0:0:0:
320,192,142370,1,0,0:0:0:0:
448,192,142445,1,0,0:0:0:0:
192,192,142520,1,0,0:0:0:0:
320,192,142820,1,0,0:0:0:0:
448,192,142820,1,0,0:0:0:0:
192,192,142970,1,0,0:0:0:0:
448,192,143120,1,0,0:0:0:0:
64,192,143270,1,0,0:0:0:0:
320,192,143420,1,0,0:0:0:0:
192,192,143570,1,0,0:0:0:0:
64,192,143720,1,0,0:0:0:0:
448,192,143870,1,0,0:0:0:0:
320,192,144020,1,0,0:0:0:0:
192,192,144170,1,0,0:0:0:0:
448,192,144320,1,0,0:0:0:0:
64,192,144470,1,0,0:0:0:0:
192,192,144545,1,0,0:0:0:0:
320,192,144620,1,0,0:0:0:0:
448,192,144695,1,0,0:0:0:0:
192,192,144770,1,0,0:0:0:0:
64,192,144845,1,0,0:0:0:0:
320,192,144920,1,0,0:0:0:0:
192,192,145220,1,0,0:0:0:0:
448,192,145295,1,0,0:0:0:0:
320,192,145370,1,0,0:0:0:0:
192,192,145520,1,0,0:0:0:0:
320,192,145595,1,0,0:0:0:0:
192,192,145670,1,0,0:0:0:0:
320,192,145820,1,0,0:0:0:0:
320,192,145970,1,0,0:0:0:0:
64,192,146120,1,0,0:0:0:0:
192,192,146195,1,0,0:0:0:0:
320,192,146270,1,0,0:0:0:0:
64,192,146420,1,0,0:0:0:0:
320,192,146570,1,0,0:0:0:0:
64,192,146720,1,0,0:0:0:0:
320,192,146795,1,0,0:0:0:0:
64,192,146870,1,0,0:0:0:0:
320,192,147020,1,0,0:0:0:0:
320,192,147170,1,0,0:0:0:0:
64,192,147320,1,0,0:0:0:0:
320,192,147395,1,0,0:0:0:0:
448,192,147470,1,0,0:0:0:0:
64,192,147620,1,0,0:0:0:0:
192,192,147620,1,0,0:0:0:0:
64,192,147920,1,0,0:0:0:0:
448,192,148220,1,0,0:0:0:0:
320,192,148220,1,0,0:0:0:0:
64,192,148820,1,0,0:0:0:0:
64,192,149120,1,0,0:0:0:0:
320,192,149420,1,0,0:0:0:0:
448,192,149420,1,0,0:0:0:0:
192,192,150020,1,0,0:0:0:0:
448,192,150020,1,0,0:0:0:0:
192,192,150320,1,0,0:0:0:0:
320,192,150620,1,0,0:0:0:0:
448,192,150620,1,0,0:0:0:0:
192,192,151220,1,0,0:0:0:0:
192,192,151520,1,0,0:0:0:0:
320,192,151820,1,0,0:0:0:0:
448,192,151820,1,0,0:0:0:0:
64,192,152420,1,0,0:0:0:0:
320,192,152420,1,0,0:0:0:0:
320,192,152720,1,0,0:0:0:0:
192,192,153020,1,0,0:0:0:0:
448,192,153020,1,0,0:0:0:0:
320,192,153620,1,0,0:0:0:0:
320,192,153920,1,0,0:0:0:0:
192,192,154220,1,0,0:0:0:0:
448,192,154220,1,0,0:0:0:0:
64,192,154820,1,0,0:0:0:0:
192,192,154820,1,0,0:0:0:0:
64,192,155120,1,0,0:0:0:0:
192,192,155420,1,0,0:0:0:0:
320,192,155420,1,0,0:0:0:0:
64,192,156020,1,0,0:0:0:0:
64,192,156320,1,0,0:0:0:0:
192,192,156620,1,0,0:0:0:0:
320,192,156620,1,0,0:0:0:0:
64,192,157220,1,0,0:0:0:0:
320,192,157220,1,0,0:0:0:0:
192,192,157370,1,0,0:0:0:0:
64,192,157520,1,0,0:0:0:0:
192,192,157670,1,0,0:0:0:0:
64,192,157820,1,0,0:0:0:0:
192,192,157970,1,0,0:0:0:0:
64,192,158120,1,0,0:0:0:0:
192,192,158270,1,0,0:0:0:0:
64,192,158420,1,0,0:0:0:0:
192,192,158570,1,0,0:0:0:0:
64,192,158720,1,0,0:0:0:0:
192,192,158870,1,0,0:0:0:0:
64,192,159020,1,0,0:0:0:0:
320,192,159095,1,0,0:0:0:0:
192,192,159170,1,0,0:0:0:0:
448,192,159245,1,0,0:0:0:0:
64,192,159320,1,0,0:0:0:0:
192,192,159470,1,0,0:0:0:0:
320,192,159620,1,0,0:0:0:0:
64,192,159620,1,0,0:0:0:0:
192,192,159770,1,0,0:0:0:0:
320,192,159920,1,0,0:0:0:0:
192,192,160070,1,0,0:0:0:0:
320,192,160220,1,0,0:0:0:0:
192,192,160370,1,0,0:0:0:0:
320,192,160520,1,0,0:0:0:0:
192,192,160670,1,0,0:0:0:0:
320,192,160820,1,0,0:0:0:0:
192,192,160970,1,0,0:0:0:0:
320,192,161120,1,0,0:0:0:0:
192,192,161270,1,0,0:0:0:0:
320,192,161420,1,0,0:0:0:0:
64,192,161495,1,0,0:0:0:0:
192,192,161570,1,0,0:0:0:0:
448,192,161645,1,0,0:0:0:0:
320,192,161720,1,0,0:0:0:0:
192,192,161870,1,0,0:0:0:0:
320,192,162020,1,0,0:0:0:0:
64,192,162020,1,0,0:0:0:0:
448,192,162170,1,0,0:0:0:0:
320,192,162320,1,0,0:0:0:0:
448,192,162470,1,0,0:0:0:0:
320,192,162620,1,0,0:0:0:0:
448,192,162770,1,0,0:0:0:0:
320,192,162920,1,0,0:0:0:0:
448,192,163070,1,0,0:0:0:0:
320,192,163220,1,0,0:0:0:0:
448,192,163370,1,0,0:0:0:0:
320,192,163520,1,0,0:0:0:0:
448,192,163670,1,0,0:0:0:0:
320,192,163820,1,0,0:0:0:0:
192,192,163895,1,0,0:0:0:0:
448,192,163970,1,0,0:0:0:0:
64,192,164045,1,0,0:0:0:0:
320,192,164120,1,0,0:0:0:0:
448,192,164270,1,0,0:0:0:0:
192,192,164420,1,0,0:0:0:0:
320,192,164570,1,0,0:0:0:0:
192,192,164720,1,0,0:0:0:0:
320,192,164870,1,0,0:0:0:0:
192,192,165020,1,0,0:0:0:0:
320,192,165170,1,0,0:0:0:0:
192,192,165320,1,0,0:0:0:0:
320,192,165470,1,0,0:0:0:0:
192,192,165620,1,0,0:0:0:0:
320,192,165770,1,0,0:0:0:0:
192,192,165920,1,0,0:0:0:0:
320,192,166070,1,0,0:0:0:0:
192,192,166220,1,0,0:0:0:0:
320,192,166370,1,0,0:0:0:0:
192,192,166520,1,0,0:0:0:0:
320,192,166670,1,0,0:0:0:0:
448,192,166820,1,0,0:0:0:0:
64,192,166820,1,0,0:0:0:0:
448,192,166970,1,0,0:0:0:0:
192,192,167120,1,0,0:0:0:0:
448,192,167270,1,0,0:0:0:0:
448,192,167420,1,0,0:0:0:0:
192,192,167570,1,0,0:0:0:0:
448,192,167720,1,0,0:0:0:0:
192,192,168020,1,0,0:0:0:0:
448,192,168020,1,0,0:0:0:0:
192,192,168170,1,0,0:0:0:0:
64,192,168320,1,0,0:0:0:0:
192,192,168470,1,0,0:0:0:0:
448,192,168470,1,0,0:0:0:0:
192,192,168620,1,0,0:0:0:0:
64,192,168770,1,0,0:0:0:0:
192,192,168920,1,0,0:0:0:0:
320,192,168920,1,0,0:0:0:0:
