osu file format v5

[General]
AudioFilename: 09 Track 9.mp3
AudioLeadIn: 0
PreviewTime: -1
Countdown: 1
SampleSet: None
StackLeniency: 0.7
Mode: 0

[Metadata]
Title:Who Let the Dogs Out
Artist:Anselm Douglas
Creator:mattiu1999_007
Version:Insane
Source:halloween
Tags:dogs

[Difficulty]
HPDrainRate:5
CircleSize:5
OverallDifficulty:5
SliderMultiplier:1.4
SliderTickRate:1

[Events]
//Background and Video events
//Break Periods
//Storyboard Layer 0 (Background)
//Storyboard Layer 1 (Failing)
//Storyboard Layer 2 (Passing)
//Storyboard Layer 3 (Foreground)
//Storyboard Sound Samples
//Background Colour Transformations
3,100,163,162,255

[TimingPoints]
1646,544.786145857358,4,0,0,100

[HitObjects]
256,192,5050,12,0,5936
256,192,6140,12,0,6549
256,192,6821,12,0,7161
256,192,7434,12,0,7706
256,192,7979,12,0,8183
256,192,8455,12,0,8660
256,192,8864,12,0,9068
256,192,9341,12,0,9613
256,192,9817,12,0,10022
256,192,10294,12,0,10498
256,192,10703,12,0,10907
256,192,11179,12,0,11384
256,192,11588,12,0,11996
256,192,12201,12,0,14244
96,160,14925,1,0
128,96,15129,1,0
160,160,15469,1,0
160,160,15674,1,0
160,160,15878,1,0
160,160,16082,1,0
160,160,16287,1,0
256,96,16831,1,0
256,192,17308,1,0
288,96,17649,1,0
288,128,17785,1,0
320,224,18057,1,0
288,256,18193,1,0
192,224,18330,1,0
224,192,19011,1,0
256,128,19147,1,0
288,128,19351,1,0
320,192,19623,1,0
288,224,19896,1,0
256,224,20032,1,0
192,192,20236,1,0
128,160,20849,1,0
224,160,22484,2,0,B|256:160,22,17.5
128,192,26706,2,0,B|160:192,38,17.5
128,160,30451,1,0
288,128,30860,1,0
192,160,31336,1,0
384,160,32085,1,0
192,224,32494,1,0
96,128,32903,1,0
128,128,33175,1,0
192,160,33652,1,0
96,192,33924,1,0
96,160,34128,1,0
160,160,34605,1,0
160,192,35082,1,0
288,96,35763,1,0
128,224,36239,1,0
32,288,36580,1,0
256,192,37533,12,0,38827
256,192,39031,12,0,39508
256,192,39917,12,0,40325
256,192,40598,12,0,41142
256,192,41415,12,0,41619
256,192,42028,12,0,42709
128,192,43662,2,0,B|160:192,53,17.5
128,224,48020,2,0,B|160:224,29,17.5
128,224,50268,2,0,B|160:224,10,17.5
128,224,51153,2,0,B|160:224,21,17.5
128,224,52855,2,0,B|160:224,7,17.5
256,192,56192,12,0,56805
256,192,57009,12,0,57350
256,192,57554,12,0,57827
256,192,58099,12,0,58371
256,192,58644,12,0,58848
256,192,59052,12,0,59529
256,192,60074,12,0,60551
256,192,60891,12,0,61095
256,192,61368,12,0,61572
256,192,61708,12,0,61981
64,160,62866,1,0
160,96,63479,1,0
224,192,63683,1,0
224,160,63819,1,0
256,96,64092,1,0
256,96,64228,1,0
288,192,64500,1,0
288,192,64636,1,0
352,256,64841,1,0
352,192,65045,1,0
192,160,66203,1,0
320,96,66339,1,0
320,128,66475,1,0
320,192,66679,1,0
256,160,67428,1,0
256,160,67565,1,0
384,128,67837,1,0
384,128,67973,1,0
288,224,68246,1,0
288,224,68382,1,0
288,224,68518,1,0
448,192,68722,1,0
448,192,68858,1,0
416,192,69063,1,0
320,192,69267,1,0
288,96,69403,1,0
288,64,69539,1,0
256,32,69676,1,0
192,128,69948,1,0
192,160,70152,1,0
160,160,70629,1,0
160,160,70765,1,0
160,160,70970,1,0
160,160,71242,1,0
96,128,71787,1,0
256,96,72195,1,0
192,128,72468,1,0
192,128,72604,1,0
192,128,72740,1,0
320,96,72944,1,0
320,96,73081,1,0
320,96,73217,1,0
224,224,73421,1,0
224,224,73557,1,0
224,224,73693,1,0
288,160,74306,1,0
288,160,74511,1,0
128,128,74715,1,0
128,128,74919,1,0
256,64,75532,1,0
160,128,75941,1,0
192,96,76145,1,0
192,96,76281,1,0
192,96,76417,1,0
320,96,76622,1,0
320,96,76758,1,0
320,96,76894,1,0
256,192,77098,1,0
256,192,77235,1,0
256,192,77371,1,0
224,160,77779,1,0
192,96,78256,1,0
128,96,78460,1,0
96,128,78665,1,0
256,160,79209,1,0
256,96,79618,1,0
288,96,79822,1,0
288,96,80027,1,0
288,96,80163,1,0
160,96,80367,1,0
160,96,80503,1,0
288,64,80844,1,0
288,64,81116,1,0
192,160,81525,1,0
256,224,82682,5,0
256,192,84181,12,0,84725
64,192,103725,2,0,B|96:192,51,17.5
64,192,107538,2,0,B|96:192,13,17.5
96,192,111352,2,0,B|96:224,107,17.5
96,224,119592,2,0,B|128:192,21,35
128,192,124222,2,0,B|128:224,69,17.5
128,128,130351,1,0
160,128,130556,1,0
224,160,130760,1,0
288,160,131032,1,0
288,160,131168,1,0
256,256,131441,1,0
96,256,131645,1,0
64,192,131917,1,0
96,128,132122,1,0
160,192,134097,6,0,B|192:192,33,17.5
160,192,136480,2,0,B|192:192,10,17.5
160,192,137502,2,0,B|192:192,9,17.5
160,192,138455,2,0,B|192:192,7,17.5
160,192,139272,2,0,B|192:192,9,17.5
160,192,140157,2,0,B|192:192,12,17.5
64,224,142949,2,0,B|352:192|352:192|320:96|320:96|128:128|128:128|160:160|128:192,3,647.5
128,160,152756,5,0
192,96,153164,1,0
224,224,153573,1,0
256,192,154730,12,0,155752
256,192,156092,12,0,156433
256,192,156773,12,0,157114
256,192,157386,12,0,157659
256,192,157931,12,0,158203
256,192,158408,12,0,158544
256,192,158816,12,0,159021
256,192,159361,12,0,159497
96,192,160723,1,0
128,128,160927,1,0
160,64,161064,1,0
192,64,161404,1,0
256,96,161745,1,0
192,160,161949,1,0
288,192,162221,1,0
224,256,162698,1,0
320,256,163106,1,0
256,96,163924,1,0
224,224,164605,1,0
192,256,164809,1,0
160,192,165013,1,0
256,160,165490,1,0
256,160,165694,1,0
256,160,165899,1,0
128,192,166375,1,0
160,192,166852,1,0
160,192,167533,1,0
192,192,168146,1,0
224,128,168418,1,0
224,128,168759,1,0
192,128,169235,1,0
192,128,169440,1,0
160,128,169644,1,0
160,128,170189,1,0
288,224,170597,1,0
224,288,170870,1,0
160,192,171074,1,0
224,128,171346,1,0
352,128,171755,1,0
288,96,172027,1,0
288,96,172164,1,0
256,96,172436,1,0
224,160,172913,1,0
224,192,173117,1,0
256,224,173321,1,0
384,160,173798,1,0
256,64,174275,1,0
160,96,175024,1,0
224,32,175568,1,0
448,128,175841,1,0
384,224,176181,1,0
256,224,176590,1,0
256,160,176862,1,0
256,160,177067,1,0
320,160,177475,1,0
224,96,178088,1,0
320,96,178701,1,0
192,128,179314,1,0
288,160,179654,1,0
96,192,179859,1,0
160,160,180540,1,0
288,160,180744,1,0
128,192,181016,1,0
288,192,181289,1,0
192,192,181493,1,0
288,224,181697,1,0
192,256,181970,1,0
256,256,182174,1,0
224,288,182446,1,0
256,288,182651,1,0
224,320,182855,1,0
256,160,183195,1,0
256,160,183332,1,0
224,160,183604,1,0
192,160,184013,1,0
192,160,184285,1,0
192,160,184557,1,0
128,96,184966,1,0
256,32,185375,1,0
320,96,185647,1,0
320,128,185919,1,0
288,192,186124,1,0
224,192,186600,1,0
192,128,186873,1,0
192,128,187009,1,0
192,128,187281,1,0
