osu file format v10

[General]
AudioFilename: Anotsu - Man On The Run [LoudTronix.me] (3).mp3
AudioLeadIn: 0
PreviewTime: 147985
Countdown: 0
SampleSet: Normal
StackLeniency: 0.7
Mode: 0
LetterboxInBreaks: 1

[Editor]
DistanceSpacing: 0.8
BeatDivisor: 4
GridSize: 4

[Metadata]
Title:Man on The Run
TitleUnicode:
Artist:Anotsu
ArtistUnicode:
Creator:Caco Roth
Version:Insane
Source:
Tags:anotsu
BeatmapID:178228
BeatmapSetID:59476

[Difficulty]
HPDrainRate:6
CircleSize:4
OverallDifficulty:6
ApproachRate:8
SliderMultiplier:1.7
SliderTickRate:1

[Events]
//Background and Video events
0,0,"ESCURI1.jpg"
//Break Periods
2,37100,59027
//Storyboard Layer 0 (Background)
//Storyboard Layer 1 (Fail)
//Storyboard Layer 2 (Pass)
//Storyboard Layer 3 (Foreground)
//Storyboard Sound Samples
//Background Colour Transformations
3,100,163,162,255

[TimingPoints]
12395,382.892294581531,4,1,0,50,1,0
13065,382.892294581531,4,1,0,50,1,0

[HitObjects]
112,160,12395,1,0,0:0:0
176,160,12778,2,0,B|176:96|260:116,1,85
304,112,13161,1,0,0:0:0
324,112,13257,1,0,0:0:0
344,112,13352,1,0,0:0:0
356,180,13544,1,0,0:0:0
356,196,13640,1,0,0:0:0
356,216,13735,2,0,B|336:264|284:264|232:264|180:216,1,170
112,248,14310,5,0,0:0:0
112,176,14501,1,0,0:0:0
112,156,14597,1,0,0:0:0
112,136,14693,1,0,0:0:0
168,100,14883,2,0,B|212:80|260:108,1,85
332,112,15266,1,0,0:0:0
332,132,15362,1,0,0:0:0
332,152,15458,1,0,0:0:0
332,172,15553,1,0,0:0:0
332,192,15649,1,0,0:0:0
332,228,15745,2,0,B|388:216|416:272|332:308,1,127.5
244,252,16223,5,0,0:0:0
224,252,16319,1,0,0:0:0
204,252,16415,1,0,0:0:0
184,252,16511,1,0,0:0:0
164,252,16606,1,0,0:0:0
144,252,16702,1,0,0:0:0
124,224,16798,2,0,B|134:139|166:92|252:96,1,170
292,56,17564,1,0,0:0:0
428,56,17946,1,0,0:0:0
452,184,18329,6,0,B|456:304|348:272|348:144|224:144|224:260,1,340
156,256,19287,1,0,0:0:0
88,256,19478,1,0,0:0:0
88,188,19669,1,0,0:0:0
88,168,19765,1,0,0:0:0
88,148,19861,1,0,0:0:0
88,128,19957,1,0,0:0:0
88,108,20052,1,0,0:0:0
136,60,20244,6,0,B|180:96|224:96|264:96|312:60,1,170
364,72,20818,1,0,0:0:0
432,72,21010,1,0,0:0:0
456,136,21201,1,0,0:0:0
456,204,21392,2,0,B|468:328|316:284,1,170
284,292,21967,5,0,0:0:0
264,292,22063,1,0,0:0:0
244,292,22158,1,0,0:0:0
176,296,22350,1,0,0:0:0
156,296,22445,1,0,0:0:0
136,296,22541,1,0,0:0:0
68,296,22733,1,0,0:0:0
48,296,22828,1,0,0:0:0
28,296,22924,1,0,0:0:0
84,208,23307,1,0,0:0:0
156,124,23690,6,0,B|124:160|180:232,3,85
256,192,24551,12,0,26370,0:0:0
256,184,26753,6,0,B|272:140|272:140|256:100,2,85
256,192,27423,12,0,29242,0:0:0
64,188,29816,5,0,0:0:0
132,188,30008,1,0,0:0:0
200,188,30199,1,0,0:0:0
268,192,30391,1,0,0:0:0
336,196,30582,1,0,0:0:0
404,196,30773,1,0,0:0:0
404,176,30869,1,0,0:0:0
404,156,30965,1,0,0:0:0
404,136,31060,1,0,0:0:0
404,116,31156,1,0,0:0:0
336,112,31348,1,0,0:0:0
280,76,31539,6,0,B|236:64|236:64|160:76,3,85
176,132,32305,1,0,0:0:0
176,152,32401,1,0,0:0:0
176,180,32496,1,0,0:0:0
176,200,32592,1,0,0:0:0
176,220,32688,1,0,0:0:0
208,292,32879,5,0,0:0:0
228,292,32974,1,0,0:0:0
248,292,33070,1,0,0:0:0
268,292,33166,1,0,0:0:0
288,292,33261,1,0,0:0:0
368,244,33454,6,0,B|304:236|304:184|260:184|260:240|196:240,1,170
156,236,34028,1,0,0:0:0
156,212,34123,1,0,0:0:0
156,192,34219,1,0,0:0:0
156,172,34315,1,0,0:0:0
156,152,34410,1,0,0:0:0
156,132,34506,1,0,0:0:0
156,112,34602,1,0,0:0:0
156,92,34698,1,0,0:0:0
156,72,34793,1,0,0:0:0
156,52,34889,1,0,0:0:0
156,32,34985,1,0,0:0:0
256,192,35177,12,0,36900,0:0:0
208,188,59777,5,0,0:0:0
228,188,59873,1,0,0:0:0
248,188,59969,1,0,0:0:0
268,188,60064,1,0,0:0:0
288,188,60160,1,0,0:0:0
308,188,60256,1,0,0:0:0
328,188,60351,1,0,0:0:0
348,188,60447,1,0,0:0:0
368,188,60543,1,0,0:0:0
388,188,60639,1,0,0:0:0
408,188,60734,1,0,0:0:0
428,188,60830,1,0,0:0:0
448,188,60926,1,0,0:0:0
444,120,61213,6,0,B|356:120|356:120|356:216,1,127.5
356,244,61692,2,0,B|312:264|312:264|240:244,1,85
204,244,62075,1,0,0:0:0
168,244,62171,1,0,0:0:0
132,244,62267,1,0,0:0:0
128,176,62458,2,0,B|128:80,1,85
148,92,62745,1,0,0:0:0
168,92,62841,2,0,B|208:76|208:76|268:92,1,85
316,92,63223,2,0,B|332:136|332:136|312:184,1,85
248,172,63606,5,0,0:0:0
212,172,63702,1,0,0:0:0
180,176,63798,2,0,B|136:160|136:160|92:176,2,85
180,244,64372,1,0,0:0:0
176,312,64564,1,0,0:0:0
208,312,64659,1,0,0:0:0
244,312,64755,1,0,0:0:0
252,244,64946,2,0,B|268:200|268:200|248:152,1,85
212,172,65234,1,0,0:0:0
180,172,65329,2,0,B|164:128|164:128|184:80,1,85
248,96,65712,5,0,0:0:0
284,96,65808,1,0,0:0:0
312,96,65904,1,0,0:0:0
380,100,66095,2,0,B|380:56,2,42.5
380,168,66478,2,0,B|404:176|404:212|368:260,1,85
312,244,66861,1,0,0:0:0
276,244,66957,1,0,0:0:0
244,244,67052,1,0,0:0:0
176,248,67244,2,0,B|148:208|148:208|176:160,1,85
176,108,67627,5,0,0:0:0
208,108,67722,1,0,0:0:0
244,108,67818,1,0,0:0:0
312,108,68010,1,0,0:0:0
316,176,68201,1,0,0:0:0
325,195,68296,1,0,0:0:0
330,215,68392,1,0,0:0:0
330,236,68488,1,0,0:0:0
326,257,68583,1,0,0:0:0
316,276,68679,1,0,0:0:0
303,293,68775,1,0,0:0:0
288,308,68871,1,0,0:0:0
272,321,68966,1,0,0:0:0
204,320,69158,1,0,0:0:0
136,320,69350,6,0,B|112:284|112:284|136:236,1,85
132,180,69733,1,0,0:0:0
132,160,69828,1,0,0:0:0
132,140,69924,1,0,0:0:0
132,120,70020,1,0,0:0:0
132,100,70115,1,0,0:0:0
192,96,70307,2,0,B|232:76|232:76|304:108,1,85
312,176,70690,1,0,0:0:0
312,196,70786,1,0,0:0:0
312,216,70881,1,0,0:0:0
308,284,71073,2,0,B|268:264|268:264|196:296,1,85
176,236,71456,1,0,0:0:0
176,216,71551,1,0,0:0:0
176,196,71647,1,0,0:0:0
176,128,71838,6,0,B|152:92|152:92|176:28,1,85
244,44,72221,1,0,0:0:0
264,44,72317,1,0,0:0:0
284,44,72413,1,0,0:0:0
304,44,72509,1,0,0:0:0
324,44,72604,1,0,0:0:0
344,44,72700,1,0,0:0:0
364,44,72796,1,0,0:0:0
432,52,72987,2,0,B|464:108|464:108|432:204,1,127.5
368,184,73561,5,0,0:0:0
296,180,73753,1,0,0:0:0
276,180,73849,1,0,0:0:0
256,180,73944,2,0,B|216:200|216:200|144:180,1,85
108,188,74327,1,0,0:0:0
108,168,74423,1,0,0:0:0
108,148,74519,1,0,0:0:0
108,128,74614,1,0,0:0:0
108,108,74710,1,0,0:0:0
108,40,74902,2,0,B|148:20|208:40,1,85
212,100,75284,2,0,B|232:140|212:200,1,85
216,252,75667,1,0,0:0:0
236,252,75763,1,0,0:0:0
256,252,75859,1,0,0:0:0
324,252,76050,6,0,B|376:252,2,42.5,0|0|0,0:0|0:0|0:0,0:0:0
364,196,76433,2,0,B|384:160|384:160|364:92,1,85
292,108,76816,1,0,0:0:0
272,108,76912,1,0,0:0:0
252,108,77008,1,0,0:0:0
232,108,77103,1,0,0:0:0
212,108,77199,1,0,0:0:0
144,112,77390,2,0,B|120:156|120:156|144:224,1,85
152,244,77773,5,0,0:0:0
172,244,77869,1,0,0:0:0
200,244,77965,1,0,0:0:0
220,244,78060,1,0,0:0:0
240,244,78156,1,0,0:0:0
260,244,78252,1,0,0:0:0
280,244,78348,1,0,0:0:0
336,200,78539,2,0,B|360:152|336:100,1,85
276,112,78922,2,0,B|232:92|172:112,1,85
116,100,79305,5,0,0:0:0
116,120,79400,1,0,0:0:0
116,140,79496,1,0,0:0:0
116,160,79592,1,0,0:0:0
116,180,79688,1,0,0:0:0
116,200,79783,1,0,0:0:0
116,220,79879,1,0,0:0:0
184,224,80071,6,0,B|272:224,1,85
268,156,80454,2,0,B|268:112,2,42.5
336,160,80836,1,0,0:0:0
356,160,80932,1,0,0:0:0
376,160,81028,1,0,0:0:0
444,164,81219,2,0,B|444:256,1,85
424,248,81506,1,0,0:0:0
404,248,81602,2,0,B|372:280|372:280|300:248,1,85
264,248,81985,1,0,0:0:0
244,248,82081,1,0,0:0:0
224,248,82177,1,0,0:0:0
156,248,82368,6,0,B|128:216|128:216|156:152,1,85
212,160,82751,1,0,0:0:0
232,160,82847,1,0,0:0:0
252,160,82942,1,0,0:0:0
272,160,83038,1,0,0:0:0
292,160,83134,1,0,0:0:0
360,160,83325,2,0,B|388:196|388:196|360:268,1,85
356,280,83612,1,0,0:0:0
320,284,83708,2,0,B|284:304|284:304|232:284,1,85
240,220,84091,6,0,B|264:180|264:180|236:116,1,85
168,136,84474,1,0,0:0:0
148,136,84570,1,0,0:0:0
128,136,84665,1,0,0:0:0
60,136,84857,2,0,B|32:168|32:168|60:236,1,85
60,288,85240,1,0,0:0:0
92,288,85335,1,0,0:0:0
128,288,85431,1,0,0:0:0
196,288,85623,2,0,B|232:312|232:312|288:288,1,85
348,288,86005,5,0,0:0:0
348,268,86101,1,0,0:0:0
348,248,86197,1,0,0:0:0
348,228,86293,1,0,0:0:0
348,208,86388,1,0,0:0:0
348,188,86484,1,0,0:0:0
348,168,86580,1,0,0:0:0
348,148,86676,1,0,0:0:0
348,124,86771,1,0,0:0:0
280,116,86963,2,0,B|240:140|240:140|176:116,1,85
144,208,87441,1,0,0:0:0
148,284,87728,2,0,B|188:288|208:308|208:308|224:288|284:284,1,127.5
348,276,88207,1,0,0:0:0
348,176,88494,2,0,B|240:176,1,85
196,172,88877,1,0,0:0:0
192,240,89069,1,0,0:0:0
224,240,89164,1,0,0:0:0
260,240,89260,1,0,0:0:0
216,112,89643,5,0,0:0:0
216,76,89739,1,0,0:0:0
216,44,89834,1,0,0:0:0
284,40,90026,2,0,B|324:56|332:24|396:40,1,85
368,108,90409,1,0,0:0:0
368,176,90600,1,0,0:0:0
368,212,90696,1,0,0:0:0
368,248,90792,1,0,0:0:0
372,316,90983,2,0,B|332:292|332:292|256:316,1,85
228,308,91366,2,0,B|192:272|192:272|228:220,1,85
216,176,91749,2,0,B|252:148|252:148|216:84,1,85
