osu file format v12

[General]
AudioFilename: KOTONE feat.Another Infinity.mp3
AudioLeadIn: 1500
PreviewTime: 105361
Countdown: 0
SampleSet: Soft
StackLeniency: 0.7
Mode: 0
LetterboxInBreaks: 0
WidescreenStoryboard: 0

[Editor]
Bookmarks: 30694,91138,151583,212027,224472,268916,276027
DistanceSpacing: 1.4
BeatDivisor: 4
GridSize: 4

[Metadata]
Title:kotone
TitleUnicode:kotone
Artist:Another Infinity feat. Mayumi Morinaga
ArtistUnicode:Another Infinity feat. Mayumi Morinaga
Creator:Strawberry
Version:Collab
Source:
Tags:Jpop 1st Album Glitter senya JauiPlaY spboxer3 Loneight Snowy Dream buhei a3272509123 Evil_Twilight kanpakyin aabc271 ryu starving trancer
BeatmapID:227403
BeatmapSetID:82094

[Difficulty]
HPDrainRate:6
CircleSize:4
OverallDifficulty:7
ApproachRate:8
SliderMultiplier:1.8
SliderTickRate:1

[Events]
//Background and Video events
0,0,"BG.jpg",0,0
//Break Periods
2,16449,26388
2,59338,60166
2,134005,136611
2,212227,223722
2,269116,275277
//Storyboard Layer 0 (Background)
//Storyboard Layer 1 (Fail)
//Storyboard Layer 2 (Pass)
//Storyboard Layer 3 (Foreground)
Sprite,Foreground,Centre,"Strawberry.png",320,240 F,2,1805,2250,0,1 M,0,2250,,164,184 R,0,2250,,0.06606445 F,0,2250,28916,1,0.9821033 F,0,28916,30694,0.9821033,0
Sprite,Foreground,Centre,"JauiPlaY.png",320,240 F,0,30583,30694,0,1 M,0,30694,,215,344 R,0,30694,,-0.1981933 S,0,30694,30805,1,1.156903 F,0,30694,90916,1 S,0,30805,30916,1.156903,1 F,0,90916,91138,1,0
Sprite,Foreground,Centre,"Loneight.png",320,240 M,0,151583,,515,164 R,0,151583,,0.06606414 S,0,151583,151694,1,1.099097 F,1,151583,211138,1 S,0,151694,151805,1.099097,1 F,2,211138,212027,1,0
Sprite,Foreground,Centre,"spboxer3.png",320,240 F,2,90916,91138,0,1 M,0,91138,,151,247 R,0,91138,,-0.09909728 S,0,91138,91249,1,1.074322 F,0,91138,119138,1 S,0,91249,91361,1.074322,1 F,2,119138,119583,1,0
Sprite,Foreground,Centre,"Strawberry.png",320,240 F,0,119361,119583,0,1 M,0,119583,,163,172 R,0,119583,,0.1156131 S,0,119583,119694,1,1.099097 F,0,119583,150694,1 S,0,119694,119805,1.099097,1 F,2,150694,151583,1,0
Sprite,Foreground,Centre,"Snowy Dream.png",320,240 F,0,224249,224472,0,1 M,0,224472,,415,390 R,0,224472,,-0.1156128 F,0,224472,268472,1 S,0,226249,226361,1,1.099097 S,0,226361,226472,1.099097,1 F,2,268472,268916,1,0
Sprite,Foreground,Centre,"Strawberry.png",320,240 F,1,274916,275361,0 F,0,275361,276027,0,1 S,0,275916,276027,1,1.090838 M,0,276027,,158,182 R,0,276027,,0.08258057 S,0,276027,276138,1.090838,1 F,0,276027,306694,1 F,2,306694,308027,1,0
//Storyboard Sound Samples
//Background Colour Transformations
3,100,163,162,255

[TimingPoints]
2250,444.444444444444,4,2,1,70,1,0
2250,-133.333333333333,4,2,1,60,0,0
16027,-133.333333333333,4,2,1,70,0,0
16249,-133.333333333333,4,2,1,60,0,0
27138,-133.333333333333,4,2,1,40,0,0
28916,-133.333333333333,4,2,1,45,0,0
29361,-133.333333333333,4,2,1,50,0,0
29805,-133.333333333333,4,2,1,55,0,0
30249,-133.333333333333,4,2,1,50,0,0
30694,-133.333333333333,4,2,1,80,0,1
44694,-133.333333333333,4,2,1,80,0,0
44916,-133.333333333333,4,2,1,80,0,1
59138,-133.333333333333,4,2,0,80,0,0
60916,-133.333333333333,4,2,1,80,0,0
91138,-100,4,2,0,80,0,1
91138,-100,4,2,1,80,0,1
91361,-100,4,2,1,80,0,1
105138,-100,4,2,1,80,0,0
105361,-100,4,2,0,80,0,0
105583,-100,4,2,1,80,0,1
119583,-100,4,2,1,70,0,0
137361,-133.333333333333,4,2,1,70,0,0
148027,-117.647058823529,4,2,1,70,0,0
149805,-200,4,2,1,70,0,0
150694,-133.333333333333,4,2,1,80,0,0
151583,-100,4,2,0,80,0,1
151694,-100,4,2,1,80,0,1
164027,-100,4,2,0,50,0,1
164138,-100,4,2,1,80,0,1
165583,-100,4,2,1,80,0,0
165805,-100,4,2,0,80,0,1
165916,-100,4,2,1,80,0,1
172916,-100,4,2,0,50,0,1
173027,-100,4,2,1,80,0,1
178249,-100,4,2,0,50,0,1
178361,-100,4,2,1,80,0,1
180027,-133.333333333333,4,2,0,60,0,0
180138,-133.333333333333,4,2,1,50,0,0
185694,-133.333333333333,4,2,1,5,0,0
188027,-133.333333333333,4,2,1,20,0,0
188472,-133.333333333333,4,2,1,50,0,0
188916,-100,4,2,0,70,0,0
189027,-100,4,2,1,70,0,0
196027,-100,4,2,0,50,0,0
196138,-100,4,2,1,70,0,0
199583,-100,4,2,0,50,0,0
199694,-100,4,2,1,70,0,0
203138,-90.9090909090909,4,2,0,70,0,0
203249,-90.9090909090909,4,2,1,70,0,0
204916,-83.3333333333333,4,2,0,70,0,0
205027,-83.3333333333333,4,2,1,70,0,0
205805,-83.3333333333333,4,2,1,70,0,0
206694,-76.9230769230769,4,2,0,50,0,0
206805,-76.9230769230769,4,2,1,70,0,0
207583,-100,4,2,1,70,0,0
208472,-133.333333333333,4,2,0,50,0,0
208583,-133.333333333333,4,2,1,50,0,0
210472,-133.333333333333,4,2,1,40,0,0
210916,-133.333333333333,4,2,1,30,0,0
211749,-133.333333333333,4,2,1,40,0,0
212027,-100,4,2,1,50,0,0
212027,-133.333333333333,4,2,1,50,0,0
224361,-100,4,2,1,50,0,0
226249,-100,4,2,0,80,0,1
226472,-100,4,2,1,80,0,1
233249,-100,4,2,0,80,0,1
233472,-100,4,2,1,80,0,1
238583,-100,4,2,0,80,0,1
238805,-100,4,2,1,80,0,1
240249,-100,4,2,1,80,0,0
240472,-100,4,2,0,80,0,1
240583,-100,4,2,1,80,0,1
247472,-100,4,2,0,80,0,1
247694,-100,4,2,1,80,0,1
254583,-100,4,2,1,80,0,0
254694,-100,4,2,0,80,0,1
254805,-100,4,2,1,80,0,1
261749,-100,4,2,0,80,0,1
261861,-100,4,2,1,80,0,1
265361,-100,4,2,0,80,0,1
265583,-100,4,2,1,80,0,1
267027,-100,4,2,0,80,0,1
267249,-100,4,2,1,80,0,1
267916,-100,4,2,0,80,0,1
268138,-100,4,2,1,80,0,1
268916,-100,4,2,0,80,0,0
268916,-100,4,2,1,80,0,0
276027,-100,4,2,1,80,0,0
283138,-100,4,2,0,80,0,0
283361,-100,4,2,1,80,0,0
290249,-100,4,2,0,80,0,0
290472,-100,4,2,1,80,0,0
292027,-100,4,2,0,80,0,0
292249,-100,4,2,1,80,0,0
293805,-100,4,2,0,80,0,0
294027,-100,4,2,1,80,0,0
294694,-100,4,2,0,80,0,0
294916,-100,4,2,1,80,0,0
297027,-100,4,2,1,70,0,0
297138,-100,4,2,1,60,0,0
297249,-100,4,2,1,50,0,0
297361,-133.333333333333,4,2,1,60,0,0
302805,-133.333333333333,4,2,1,20,0,0
305361,-133.333333333333,4,2,1,30,0,0
305805,-133.333333333333,4,2,1,40,0,0
306249,-133.333333333333,4,2,1,30,0,0
306694,-133.333333333333,4,2,1,40,0,0

[Colours]
Combo1 : 255,155,55
Combo2 : 0,128,255
Combo3 : 255,128,192
Combo4 : 128,255,128

[HitObjects]
204,316,2250,1,4,0:0:0:0:
280,288,2472,1,0,0:0:0:0:
328,224,2694,1,2,0:0:0:0:
463,108,2916,2,0,P|400:104|344:144,1,135.000005149842,0|2,0:0|0:0,0:0:0:0:
161,324,3805,2,0,P|224:328|280:288,1,135.000005149842
320,180,4472,1,2,0:0:0:0:
248,92,4694,2,0,P|212:140|212:216,1,135.000005149842
404,236,5361,2,0,P|424:200|424:160,1,67.5000025749208,2|0,0:0|0:0,0:0:0:0:
320,180,5805,5,2,0:0:0:0:
296,280,6027,1,0,0:0:0:0:
200,316,6249,1,0,0:0:0:0:
112,264,6472,2,0,P|64:216|48:152,1,135.000005149842,0|2,0:0|0:0,0:0:0:0:
48,32,7138,2,0,L|101:74,1,67.5000025749208
180,136,7583,5,0,0:0:0:0:
296,88,7805,1,0,0:0:0:0:
416,76,8027,2,0,P|464:72|512:84,1,67.5000025749208,2|0,0:0|0:0,0:0:0:0:
332,200,8472,2,0,P|280:212|200:200,1,135.000005149842,0|4,0:0|0:0,0:0:0:0:
332,200,9361,5,2,0:0:0:0:
216,204,9583,1,0,0:0:0:0:
120,140,9805,1,2,0:0:0:0:
112,24,10027,2,0,P|184:40|228:112,1,135.000005149842,0|2,0:0|0:0,0:0:0:0:
325,265,10916,2,0,P|253:249|216:204,1,135.000005149842
332,152,11583,1,2,0:0:0:0:
436,212,11805,2,0,P|448:296|416:348,1,135.000005149842
332,152,12472,2,0,P|356:120|392:108,1,67.5000025749208,2|0,0:0|0:0,0:0:0:0:
325,265,12916,6,0,P|256:288|184:272,1,135.000005149842,0|2,0:0|0:0,0:0:0:0:
16,188,13583,2,0,P|85:165|157:181,1,135.000005149842,0|0,0:0|0:0,0:0:0:0:
144,175,14472,1,0,0:0:0:0:
144,175,14694,6,0,L|204:140,1,67.5000025749208
272,196,15138,1,2,0:0:0:0:
272,196,15361,2,0,P|344:176|420:204,1,135.000005149842,2|2,0:0|0:0,0:0:0:0:
300,276,16027,2,0,P|264:284|220:254,1,67.5000025749208,4|4,0:0|0:0,0:0:0:0:
256,192,27138,12,2,30250,0:0:0:0:
256,192,30694,5,4,0:0:0:0:
404,128,31138,1,8,0:0:0:0:
404,128,31361,2,0,P|423:191|403:255,1,135.000005149842,0|8,0:0|0:0,0:0:0:0:
108,255,32249,2,0,P|88:191|108:128,1,135.000005149842,8|0,0:0|0:0,0:0:0:0:
108,128,32916,1,8,0:0:0:0:
192,92,33138,2,0,B|232:84|256:72|256:72|280:84|320:92,1,135.000005149842
256,160,33805,2,0,L|256:236,1,67.5000025749208,8|0,0:0|0:0,0:0:0:0:
304,292,34249,6,0,B|384:252|400:204|400:204,1,135.000005149842,0|8,0:0|0:0,0:0:0:0:
208,292,34916,2,0,B|128:252|112:204|112:204,1,135.000005149842,0|8,0:0|0:0,0:0:0:0:
111,201,35583,1,0,0:0:0:0:
208,160,35805,2,0,P|256:120|304:160,2,135.000005149842,8|8|8,0:0|0:0|0:0,0:0:0:0:
156,96,36916,1,0,0:0:0:0:
216,40,37138,1,8,0:0:0:0:
296,40,37361,1,8,0:0:0:0:
356,96,37583,1,0,0:0:0:0:
380,172,37805,6,0,B|384:232|372:264|372:264|388:336,1,135.000005149842,0|8,0:0|0:0,0:0:0:0:
130,305,38472,2,0,B|140:264|140:264|128:232|132:172,1,135.000005149842,0|8,0:0|0:0,0:0:0:0:
132,172,39138,1,0,0:0:0:0:
208,140,39361,2,0,P|256:100|304:140,1,135.000005149842,8|0,0:0|0:0,0:0:0:0:
304,312,40027,1,8,0:0:0:0:
304,312,40249,2,0,P|256:352|208:312,1,135.000005149842
256,243,40916,2,0,L|256:176,1,67.5000025749208,8|0,0:0|0:0,0:0:0:0:
176,212,41361,6,0,P|110:134|88:82,1,135.000005149842,0|8,0:0|0:0,0:0:0:0:
176,212,42027,1,0,0:0:0:0:
256,176,42249,2,0,L|256:32,1,135.000005149842,0|8,0:0|0:0,0:0:0:0:
256,176,42916,1,0,0:0:0:0:
336,212,43138,2,0,P|401:134|423:82,1,135.000005149842,4|8,0:0|0:0,0:0:0:0:
336,212,43805,1,0,0:0:0:0:
336,92,44027,5,8,0:0:0:0:
304,52,44138,1,0,0:0:0:0:
256,36,44249,1,8,0:0:0:0:
208,52,44361,1,0,0:0:0:0:
176,92,44472,1,12,0:0:0:0:
256,136,44694,1,0,0:0:0:0:
256,228,44916,5,4,0:0:0:0:
304,304,45138,1,0,0:0:0:0:
212,304,45361,1,8,0:0:0:0:
256,228,45583,1,0,0:0:0:0:
256,372,46027,1,8,0:0:0:0:
136,300,46472,1,8,0:0:0:0:
136,300,46694,5,0,0:0:0:0:
376,300,47138,1,8,0:0:0:0:
92,232,47583,1,0,0:0:0:0:
420,232,48027,1,8,0:0:0:0:
420,232,48249,1,0,0:0:0:0:
420,232,48472,6,0,P|384:168|336:128,1,135.000005149842,0|8,0:0|0:0,0:0:0:0:
92,232,49138,2,0,P|128:168|176:128,1,135.000005149842,0|8,0:0|0:0,0:0:0:0:
256,176,49805,2,0,L|256:248,1,67.5000025749208,0|8,0:0|0:0,0:0:0:0:
340,260,50249,2,0,L|332:332,2,67.5000025749208,0|0|8,0:0|0:0|0:0,0:0:0:0:
172,260,50916,1,0,0:0:0:0:
172,260,51138,2,0,L|180:332,2,67.5000025749208,0|8|8,0:0|0:0|0:0,0:0:0:0:
340,260,51805,1,0,0:0:0:0:
256,312,52027,6,0,L|256:152,1,135.000005149842,4|8,0:0|0:0,0:0:0:0:
192,108,52694,2,0,P|256:88|319:107,2,135.000005149842,0|8|8,0:0|0:0|0:0,0:0:0:0:
192,268,53805,2,0,P|255:287|319:267,1,135.000005149842,0|8,0:0|0:0,0:0:0:0:
256,188,54472,2,0,L|256:336,1,135.000005149842
336,188,55138,2,0,L|344:116,1,67.5000025749208,8|0,0:0|0:0,0:0:0:0:
176,188,55583,6,0,L|168:116,1,67.5000025749208
192,44,56027,2,0,B|232:36|256:24|256:24|280:36|320:44,1,135.000005149842,8|0,0:0|0:0,0:0:0:0:
256,112,56694,1,0,0:0:0:0:
256,196,56916,2,0,L|256:352,1,135.000005149842,8|4,0:0|0:0,0:0:0:0:
332,296,57583,5,0,0:0:0:0:
256,220,57805,1,8,0:0:0:0:
180,296,58027,1,0,0:0:0:0:
256,372,58249,2,0,L|256:320,4,33.7500012874604,8|0|8|0|12,0:0|0:0|0:0|0:0|0:0,0:0:0:0:
256,220,58916,1,0,0:0:0:0:
256,220,59138,1,4,0:0:0:0:
256,192,60916,5,0,0:0:0:0:
256,80,61249,1,0,0:0:0:0:
256,80,61361,1,0,0:0:0:0:
352,64,61584,2,0,P|371:127|351:191,1,135.000005149842,0|2,0:0|0:0,0:0:0:0:
304,276,62249,1,0,0:0:0:0:
208,276,62472,1,2,0:0:0:0:
161,191,62693,6,0,P|141:127|160:64,1,135.000005149842,0|0,0:0|0:0,0:0:0:0:
256,192,63361,1,0,0:0:0:0:
208,276,63583,1,0,0:0:0:0:
304,276,63805,1,0,0:0:0:0:
256,192,64027,1,0,0:0:0:0:
256,356,64249,1,0,0:0:0:0:
396,276,64472,5,0,0:0:0:0:
116,276,64916,1,0,0:0:0:0:
116,276,65138,1,0,0:0:0:0:
396,276,65583,1,2,0:0:0:0:
320,340,65805,1,0,0:0:0:0:
256,260,66027,1,2,0:0:0:0:
192,340,66249,6,0,P|184:240|184:176,1,135.000005149842
192,340,66916,1,0,0:0:0:0:
320,340,67138,2,0,P|328:240|328:176,1,135.000005149842
320,340,67805,1,0,0:0:0:0:
256,260,68027,6,0,L|256:156,1,101.250003862381,0|0,0:0|0:0,0:0:0:0:
256,132,68472,1,0,0:0:0:0:
336,84,68694,1,0,0:0:0:0:
354,181,68916,1,0,0:0:0:0:
176,84,69138,1,2,0:0:0:0:
256,20,69361,1,0,0:0:0:0:
256,132,69583,1,2,0:0:0:0:
158,181,69805,6,0,B|148:236|148:236|156:232|156:232|148:288|124:316,1,135.000005149842
354,181,70472,2,0,B|364:236|364:236|356:232|356:232|364:288|388:316,1,135.000005149842
376,298,71138,1,0,0:0:0:0:
312,356,71361,2,0,B|288:332|256:320|256:320|224:332|200:356,2,135.000005149842
376,298,72472,2,0,P|368:264|352:232,1,67.5000025749208,0|2,0:0|0:0,0:0:0:0:
157,235,72916,2,0,P|144:264|135:298,1,67.5000025749208,2|0,0:0|0:0,0:0:0:0:
304,172,73361,6,0,P|256:132|208:172,1,135.000005149842,0|8,0:0|0:0,0:0:0:0:
320,56,74027,2,0,P|256:36|192:55,1,135.000005149842
128,124,74694,1,8,0:0:0:0:
304,172,74916,1,0,0:0:0:0:
208,171,75138,1,0,0:0:0:0:
384,124,75361,5,0,0:0:0:0:
208,76,75583,1,8,0:0:0:0:
304,76,75805,1,0,0:0:0:0:
256,160,76027,1,0,0:0:0:0:
256,256,76249,2,0,L|256:308,2,33.7500012874604,2|0|8,0:0|0:0|0:0,0:0:0:0:
328,348,76694,1,2,0:0:0:0:
328,348,76916,6,0,P|404:288|436:232,1,135.000005149842,0|8,0:0|0:0,0:0:0:0:
340,232,77583,2,0,P|382:144|386:80,1,135.000005149842,0|0,0:0|0:0,0:0:0:0:
304,112,78249,2,0,P|301:67|296:36,1,67.5000025749208,8|0,0:0|0:0,0:0:0:0:
184,348,78694,2,0,P|108:288|76:232,1,135.000005149842,0|8,0:0|0:0,0:0:0:0:
172,232,79361,2,0,P|129:144|125:80,1,135.000005149842,0|2,0:0|0:0,0:0:0:0:
208,112,80027,2,0,P|210:67|215:36,1,67.5000025749208,8|2,0:0|0:0,0:0:0:0:
125,107,80472,5,0,0:0:0:0:
175,266,80694,1,0,0:0:0:0:
156,185,80916,1,8,0:0:0:0:
184,348,81138,1,0,0:0:0:0:
328,348,81361,5,0,0:0:0:0:
356,185,81583,1,0,0:0:0:0:
337,266,81805,1,8,0:0:0:0:
386,107,82027,1,0,0:0:0:0:
386,107,82249,6,0,P|334:93|299:104,1,67.5000025749208
156,185,82694,2,0,P|189:227|224:239,1,67.5000025749208,8|0,0:0|0:0,0:0:0:0:
356,185,83138,2,0,P|322:227|287:239,1,67.5000025749208,0|2,0:0|0:0,0:0:0:0:
125,107,83583,2,0,P|177:93|189:95,1,67.5000025749208,8|2,0:0|0:0,0:0:0:0:
256,160,84027,5,4,0:0:0:0:
256,252,84249,1,0,0:0:0:0:
356,184,84472,1,8,0:0:0:0:
156,184,84694,1,0,0:0:0:0:
176,292,84916,1,0,0:0:0:0:
208,332,85027,1,0,0:0:0:0:
256,348,85138,1,0,0:0:0:0:
304,332,85250,1,0,0:0:0:0:
336,292,85361,1,8,0:0:0:0:
256,252,85583,1,0,0:0:0:0:
256,160,85805,6,0,L|256:40,2,101.250003862381,0|8|8,0:0|0:0|0:0,0:0:0:0:
172,108,86694,1,0,0:0:0:0:
256,252,87027,1,8,0:0:0:0:
340,108,87361,1,8,0:0:0:0:
256,160,87583,6,0,L|256:244,1,67.5000025749208,4|8,0:0|0:0,0:0:0:0:
162,227,88027,1,0,0:0:0:0:
162,227,88138,1,8,0:0:0:0:
198,337,88361,1,0,0:0:0:0:
198,337,88472,1,12,0:0:0:0:
313,337,88694,1,0,0:0:0:0:
313,337,88805,1,8,0:0:0:0:
349,227,89027,1,0,0:0:0:0:
349,227,89138,1,8,0:0:0:0:
216,140,89361,5,4,0:0:0:0:
206,98,89472,1,0,0:0:0:0:
234,63,89583,1,8,0:0:0:0:
277,63,89694,1,0,0:0:0:0:
305,98,89805,1,0,0:0:0:0:
295,140,89916,1,8,0:0:0:0:
256,160,90026,1,0,0:0:0:0:
200,236,90249,6,0,L|172:256,2,33.7500012874604,0|8|0,0:0|0:0|0:0,0:0:0:0:
312,236,90694,6,0,L|340:256,2,33.7500012874604,8|0|0,0:0|0:0|0:0,0:0:0:0:
296,324,91138,6,0,P|340:316|379:295,2,90,4|0|8,0:0|0:0|0:0,0:0:0:0:
188,324,91805,2,0,P|100:296|52:224,1,180
160,224,92472,1,8,0:0:0:0:
267,217,92694,2,0,P|220:148|132:120,2,180,0|2|2,0:0|0:0|0:0,0:0:0:0:
296,324,93805,1,4,0:0:0:0:
296,324,93916,1,0,0:0:0:0:
296,324,94027,1,0,0:0:0:0:
396,340,94249,2,0,P|448:328|480:296,1,90,8|0,0:0|0:0,0:0:0:0:
392,236,94694,6,0,P|360:180|356:92,1,135
360,56,95138,2,0,L|460:68,1,90,8|0,0:0|0:0,0:0:0:0:
472,172,95583,1,0,0:0:0:0:
284,208,95805,2,0,L|184:220,2,90,0|8|0,0:0|0:0|0:0,0:0:0:0:
256,312,96472,1,0,0:0:0:0:
356,280,96694,1,2,0:0:0:0:
156,280,96916,1,10,0:0:0:0:
316,372,97138,1,0,0:0:0:0:
316,372,97249,1,0,0:0:0:0:
316,372,97361,1,2,0:0:0:0:
256,208,97583,1,0,0:0:0:0:
196,372,97805,1,8,0:0:0:0:
412,244,98027,1,2,0:0:0:0:
204,88,98249,6,0,P|152:108|100:104,2,90,0|0|8,0:0|0:0|0:0,0:0:0:0:
300,140,98916,2,0,P|332:196|296:304,1,180
256,220,99583,1,8,0:0:0:0:
212,140,99805,2,0,P|180:196|216:304,1,180
300,360,100472,2,0,P|340:368|388:361,1,90,8|0,0:0|0:0,0:0:0:0:
436,264,100916,2,0,P|392:256|348:264,1,90,4|0,0:0|0:0,0:0:0:0:
388,362,101361,2,0,P|436:368|476:360,1,90,8|0,0:0|0:0,0:0:0:0:
500,184,101805,6,0,L|516:40,1,135
508,104,102249,2,0,P|456:128|408:116,2,90,8|0|0,0:0|0:0|0:0,0:0:0:0:
344,96,102916,2,0,P|312:91|260:115,1,90,0|8,0:0|0:0,0:0:0:0:
196,200,103361,1,0,0:0:0:0:
256,300,103583,6,0,P|336:308|416:264,1,135,0|0,0:2|0:0,0:0:0:0:
396,244,104027,2,0,L|372:352,1,90,8|0,0:0|0:0,0:0:0:0:
432,54,104472,6,0,L|424:97,1,45,8|0,0:0|0:0,0:0:0:0:
495,143,104694,2,0,L|488:188,1,45,2|0,0:0|0:0,0:0:0:0:
413,149,104916,2,0,L|405:193,1,45,8|0,0:0|0:0,0:0:0:0:
476,239,105138,2,0,L|468:283,1,45,2|0,0:0|0:0,0:0:0:0:
396,244,105361,6,0,P|352:256|307:258,2,90,4|0|8,0:0|0:0|0:0,0:0:0:0:
216,252,106027,2,0,P|148:236|72:124,2,180,0|2|2,0:0|0:0|0:0,0:0:0:0:
256,352,107138,2,0,L|344:338,1,90
396,244,107583,2,0,L|307:257,1,90,8|0,0:0|0:0,0:0:0:0:
488,192,108027,2,0,L|474:103,1,90,4|0,0:0|0:0,0:0:0:0:
380,52,108472,2,0,L|393:140,1,90,8|0,0:0|0:0,0:0:0:0:
304,200,108916,6,0,P|236:216|160:200,1,135
124,180,109361,1,8,0:0:0:0:
88,280,109583,2,0,P|136:304|171:309,1,90
300,308,110027,2,0,P|335:302|383:278,2,90,0|8|0,0:0|0:0|0:0,0:0:0:0:
256,208,110694,5,0,0:0:0:0:
192,120,110916,1,2,0:0:0:0:
320,120,111138,1,10,0:0:0:0:
152,208,111361,1,0,0:0:0:0:
152,208,111472,1,0,0:0:0:0:
152,208,111583,1,2,0:0:0:0:
360,208,111805,1,2,0:0:0:0:
256,368,112027,1,8,0:0:0:0:
192,288,112249,1,2,0:0:0:0:
360,208,112472,6,0,L|472:208,2,90,0|0|8,0:0|0:0|0:0,0:0:0:0:
288,128,113138,2,0,P|292:68|412:44,2,180,0|2|2,0:0|0:0|0:0,0:0:0:0:
256,232,114249,2,0,P|200:236|156:220,1,90
40,112,114694,2,0,P|96:108|140:124,1,90,8|0,0:0|0:0,0:0:0:0:
90,279,115138,2,0,P|86:223|96:192,1,90,4|0,0:0|0:0,0:0:0:0:
205,64,115583,2,0,P|209:120|200:152,1,90,8|0,0:0|0:0,0:0:0:0:
90,280,116027,6,0,P|48:236|36:160,1,135
40,112,116472,1,8,0:0:0:0:
120,192,116694,1,0,0:0:0:0:
224,224,116916,2,0,L|316:216,2,90,0|0|8,0:0|0:0|0:0,0:0:0:0:
196,328,117583,1,0,0:0:0:0:
300,356,117805,2,0,P|384:344|428:296,1,135
436,260,118249,1,10,0:0:0:0:
384,164,118472,1,0,0:0:0:0:
468,96,118694,5,2,0:0:0:0:
420,72,118805,1,0,0:0:0:0:
368,64,118916,1,2,0:0:0:0:
320,84,119027,1,0,0:0:0:0:
236,48,119138,1,8,0:0:0:0:
204,89,119249,1,0,0:0:0:0:
155,108,119360,1,8,0:0:0:0:
102,111,119471,1,0,0:0:0:0:
48,100,119583,5,0,0:0:0:0:
132,184,119805,2,0,L|208:248,1,90,0|8,0:0|0:0,0:0:0:0:
364,340,120249,2,0,P|245:311|189:323,1,180
96,328,120916,2,0,L|27:270,1,90,8|0,0:0|0:0,0:0:0:0:
16,60,121361,1,0,0:0:0:0:
52,160,121583,1,0,0:0:0:0:
52,160,121694,1,0,0:0:0:0:
52,160,121805,2,0,L|148:152,1,90,8|0,0:0|0:0,0:0:0:0:
320,140,122249,2,0,P|364:120|384:80,1,90
236,124,122694,2,0,P|240:176|288:212,1,90,8|0,0:0|0:0,0:0:0:0:
368,232,123138,5,0,0:0:0:0:
268,276,123361,1,0,0:0:0:0:
216,372,123583,1,8,0:0:0:0:
352,360,123805,2,0,P|444:344|488:264,1,180
368,232,124472,2,0,L|272:204,1,90,8|0,0:0|0:0,0:0:0:0:
298,82,124916,2,0,P|206:98|164:168,1,180,0|8,0:0|0:0,0:0:0:0:
72,256,125583,2,0,B|80:304|120:332|120:332|164:328|208:296,1,180
244,376,126249,2,0,P|288:352|328:308,1,90,8|0,0:0|0:0,0:0:0:0:
336,300,126583,1,0,0:0:0:0:
356,276,126694,5,2,0:0:0:0:
256,192,126916,1,0,0:0:0:0:
156,276,127138,1,8,0:0:0:0:
120,152,127361,1,0,0:0:0:0:
220,68,127583,1,0,0:0:0:0:
256,192,127805,1,2,0:0:0:0:
356,276,128027,1,8,0:0:0:0:
393,147,128249,2,0,B|408:88|408:88|320:88|318:31,1,180,0|0,0:0|0:0,0:0:0:0:
396,4,128916,1,8,0:0:0:0:
220,68,129138,2,0,P|140:88|80:76,1,135
56,76,129583,2,0,L|76:168,1,90,0|8,0:0|0:0,0:0:0:0:
112,328,130027,1,0,0:0:0:0:
28,300,130249,6,0,P|100:240|176:264,1,180,0|8,0:0|0:0,0:0:0:0:
340,312,130916,2,0,P|416:336|488:276,1,180
404,252,131583,1,8,0:0:0:0:
256,292,131805,1,0,0:0:0:0:
176,196,132027,2,0,B|168:148|168:148|180:96,1,90
336,20,132472,2,0,B|344:68|344:68|332:120,1,90,8|2,0:0|0:0,0:0:0:0:
256,292,132916,1,0,0:0:0:0:
176,196,133138,1,2,0:0:0:0:
336,196,133361,1,8,0:0:0:0:
256,368,133583,1,4,0:0:0:0:
256,148,133805,1,4,1:0:0:0:
192,232,137361,6,0,B|232:236|256:216|256:216|280:236|320:232,1,135.000005149842,4|0,0:1|0:0,0:0:0:0:
336,320,138027,2,0,P|380:296|408:260,1,67.5000025749208
256,148,138472,1,2,0:0:0:0:
120,283,138694,2,0,P|132:296|176:320,1,67.5000025749208,0|0,0:0|0:0,0:0:0:0:
340,192,139138,2,0,P|352:160|344:112,1,67.5000025749208,2|2,0:0|0:0,0:0:0:0:
162,127,139583,2,0,P|160:160|172:192,1,67.5000025749208,0|2,0:0|0:0,0:0:0:0:
256,64,140027,1,0,0:0:0:0:
256,224,140249,1,0,0:0:0:0:
256,224,140472,2,0,B|235:261|233:278|280:312|280:324|256:372,1,135.000005149842,0|4,0:0|0:1,0:0:0:0:
120,72,141583,1,4,0:0:0:0:
120,72,142027,6,0,P|172:72|200:84,1,67.5000025749208
256,148,142472,1,0,0:0:0:0:
220,253,142694,2,0,P|163:211|147:151,1,135.000005149842,4|0,0:1|0:0,0:0:0:0:
292,44,143361,2,0,P|348:85|364:145,1,135.000005149842
256,148,144027,1,4,0:0:0:0:
256,340,144472,5,4,0:1:0:0:
256,296,145361,5,4,0:1:0:0:
256,248,146249,5,4,0:1:0:0:
184,160,146694,1,2,0:0:0:0:
256,72,147138,1,4,0:0:0:0:
328,160,147583,1,2,0:0:0:0:
168,292,148027,6,0,L|88:264,1,76.5000014591217,4|0,0:1|0:0,0:0:0:0:
40,96,148472,1,0,0:0:0:0:
40,95,148694,2,0,P|60:152|140:200,1,153.000002918243,2|0,0:0|0:0,0:0:0:0:
228,188,149361,1,0,0:0:0:0:
308,144,149583,1,2,0:0:0:0:
356,68,149805,6,0,P|404:77|452:76,1,90,0|4,0:0|0:0,0:0:0:0:
424,264,150694,1,0,0:0:0:0:
416,240,150805,1,0,0:0:0:0:
408,216,150916,1,0,0:0:0:0:
296,256,151138,1,0,0:0:0:0:
284,216,151250,1,0,0:0:0:0:
272,176,151361,1,0,0:0:0:0:
204,92,151583,5,4,0:0:0:0:
344,120,151805,1,0,0:0:0:0:
272,176,152027,1,8,0:0:0:0:
392,280,152249,2,0,P|444:272|492:192,1,135,0|0,0:0|0:0,0:0:0:0:
392,280,152694,2,0,P|392:328|420:368,1,90,0|8,0:0|0:0,0:0:0:0:
400,192,153138,6,0,P|336:152|232:176,1,180,2|0,0:0|0:0,0:0:0:0:
308,280,153805,1,8,0:0:0:0:
196,96,154027,2,0,P|132:96|68:188,1,180,2|0,0:0|0:0,0:0:0:0:
104,304,154694,1,8,0:0:0:0:
164,184,154916,1,2,0:0:0:0:
100,324,155138,6,0,P|168:344|248:300,1,135,2|0,0:0|0:0,0:0:0:0:
272,264,155583,2,0,P|300:312|288:364,1,90,8|2,0:0|0:0,0:0:0:0:
188,220,156027,2,0,P|228:180|312:180,1,135,2|0,0:0|0:0,0:0:0:0:
360,224,156472,2,0,P|379:184|364:132,1,90,8|2,0:0|0:0,0:0:0:0:
272,264,156916,6,0,P|328:316|432:284,1,180,4|8,0:0|0:0,0:0:0:0:
424,152,157583,2,0,P|376:132|324:136,1,90,2|2,0:0|0:0,0:0:0:0:
264,180,158027,1,2,0:0:0:0:
424,152,158249,2,0,P|408:92|344:36,1,135,8|0,0:0|0:0,0:0:0:0:
308,96,158694,6,0,P|324:140|356:176,1,90,2|0,0:0|0:0,0:0:0:0:
452,68,159138,1,8,0:0:0:0:
284,24,159361,2,0,B|240:40|232:88|232:88|204:76|164:92,1,135,2|0,0:0|0:0,0:0:0:0:
284,24,159805,2,0,P|332:24|372:56,1,90,0|8,0:0|0:0,0:0:0:0:
364,204,160249,6,0,P|248:196|192:124,1,180,2|0,0:0|0:0,0:0:0:0:
308,96,160916,1,8,0:0:0:0:
148,236,161138,2,0,P|108:176|160:64,1,180,2|0,0:0|0:0,0:0:0:0:
308,96,161805,1,8,0:0:0:0:
324,264,162027,1,2,0:0:0:0:
316,84,162249,6,0,P|368:48|464:56,1,135,4|2,0:0|0:0,0:0:0:0:
508,76,162694,1,8,0:0:0:0:
348,172,162916,2,0,P|292:176|228:124,1,135,2|0,0:0|0:0,0:0:0:0:
224,56,163361,2,0,P|268:64|304:112,2,90,2|8|0,0:0|0:0|0:0,0:0:0:0:
100,108,164027,5,4,0:0:0:0:
72,143,164138,1,0,0:0:0:0:
68,188,164249,1,2,0:0:0:0:
83,229,164361,1,0,0:0:0:0:
117,258,164472,2,0,L|164:245,1,45,8|0,0:0|0:0,0:0:0:0:
68,188,164694,2,0,L|21:201,1,45,2|0,0:0|0:0,0:0:0:0:
117,258,164916,6,0,L|172:272,1,45,8|0,0:0|0:0,0:0:0:0:
68,188,165138,2,0,L|13:174,1,45,2|2,0:0|0:0,0:0:0:0:
117,258,165361,2,0,L|196:340,1,90,8|8,0:0|0:0,0:0:0:0:
284,356,165805,5,4,1:2:0:0:
312,268,166027,1,0,0:0:0:0:
256,144,166249,1,8,0:0:0:0:
312,268,166472,2,0,P|372:232|404:140,1,135,2|0,0:0|0:0,0:0:0:0:
312,268,166916,2,0,P|352:300|400:308,1,90,0|8,0:0|0:0,0:0:0:0:
484,200,167361,6,0,P|420:144|324:132,1,180,2|0,0:0|0:0,0:0:0:0:
268,196,168027,1,8,0:0:0:0:
212,64,168249,2,0,P|156:52|84:100,1,135,2|0,0:0|0:0,0:0:0:0:
64,160,168694,2,0,P|28:128|16:76,1,90,0|8,0:0|0:0,0:0:0:0:
56,8,169138,1,0,0:0:0:0:
168,152,169361,6,0,P|164:192|136:232,1,90,2|0,0:0|0:0,0:0:0:0:
16,236,169805,1,8,0:0:0:0:
168,152,170027,2,0,P|252:136|324:180,1,135,2|0,0:0|0:0,0:0:0:0:
316,228,170472,2,0,P|356:204|372:144,1,90,0|8,0:0|0:0,0:0:0:0:
232,236,170916,6,0,P|276:304|372:292,1,180,2|0,0:0|0:0,0:0:0:0:
295,155,171583,2,0,P|256:136|196:140,1,90,8|2,0:0|0:0,0:0:0:0:
364,80,172027,1,4,0:0:0:0:
224,44,172249,1,2,0:0:0:0:
216,44,172361,1,2,0:0:0:0:
208,44,172472,2,0,P|160:56|120:104,1,90,8|2,0:0|0:0,0:0:0:0:
96,232,172916,5,4,0:0:0:0:
48,308,173138,1,0,0:0:0:0:
28,176,173361,1,8,0:0:0:0:
136,316,173583,2,0,P|204:312|248:256,1,135,2|0,0:0|0:0,0:0:0:0:
136,316,174027,2,0,P|160:352|220:384,1,90,0|8,0:0|0:0,0:0:0:0:
320,324,174472,6,0,P|340:248|268:172,1,180,2|0,0:0|0:0,0:0:0:0:
246,265,175138,1,8,0:0:0:0:
352,104,175361,2,0,P|284:80|216:100,1,135,2|0,0:0|0:0,0:0:0:0:
172,148,175805,2,0,P|128:164|72:144,1,90,0|8,0:0|0:0,0:0:0:0:
124,72,176249,1,0,0:0:0:0:
220,228,176472,6,0,P|132:260|60:244,1,135,4|0,0:0|0:0,0:0:0:0:
20,228,176916,1,8,0:0:0:0:
120,356,177138,1,2,0:0:0:0:
120,356,177583,1,2,0:0:0:0:
192,232,177805,1,8,0:0:0:0:
48,232,178027,1,0,0:0:0:0:
120,356,178249,5,4,0:0:0:0:
161,374,178361,1,0,0:0:0:0:
205,379,178472,1,0,0:0:0:0:
248,367,178583,1,0,0:0:0:0:
284,340,178694,2,0,L|320:300,1,45,8|0,0:0|0:0,0:0:0:0:
280,232,178916,2,0,L|244:272,1,45,2|0,0:0|0:0,0:0:0:0:
368,244,179138,6,0,P|412:220|432:168,1,90,4|0,0:0|0:0,0:0:0:0:
416,144,179472,1,2,0:0:0:0:
376,128,179583,2,0,P|332:152|312:204,1,90,8|8,0:0|0:0,0:0:0:0:
356,336,180027,6,0,P|404:332|440:300,2,67.5000025749208,4|0|0,0:0|0:0|0:0,0:0:0:0:
216,280,180694,2,0,P|152:264|80:312,1,135.000005149842,2|2,0:0|0:0,0:0:0:0:
160,356,181361,1,0,0:0:0:0:
172,188,181583,6,0,P|132:188|92:204,2,67.5000025749208,0|2|0,0:0|0:0|0:0,0:0:0:0:
216,280,182249,1,0,0:0:0:0:
72,280,182472,2,0,P|32:252|36:144,1,135.000005149842,2|2,0:0|0:0,0:0:0:0:
108,52,183138,1,0,0:0:0:0:
172,188,183361,1,0,0:0:0:0:
124,44,183583,6,0,P|160:32|192:36,2,67.5000025749208,4|0|0,0:0|0:0|0:0,0:0:0:0:
240,116,184249,2,0,P|280:76|280:-8,2,135.000005149842,2|0|2,0:0|0:0|0:0,0:0:0:0:
124,44,185361,1,4,0:0:0:0:
256,192,185472,12,0,188027,0:0:0:0:
256,192,188472,5,0,0:0:0:0:
251,232,188583,1,0,0:0:0:0:
222,260,188694,1,0,0:0:0:0:
182,268,188805,1,0,0:0:0:0:
143,255,188916,6,0,P|100:260|65:289,1,90,4|0,0:0|0:0,0:0:0:0:
136,344,189361,1,8,0:0:0:0:
268,372,189583,2,0,P|296:364|312:344,1,45,2|0,0:0|0:0,0:0:0:0:
336,284,189805,2,0,P|380:264|444:280,1,90,2|0,0:0|0:0,0:0:0:0:
484,312,190138,1,2,0:0:0:0:
484,312,190249,2,0,P|496:264|480:216,1,90,8|2,0:0|0:0,0:0:0:0:
360,140,190694,5,2,0:0:0:0:
504,132,190916,1,2,0:0:0:0:
480,220,191138,1,8,0:0:0:0:
428,84,191361,1,2,0:0:0:0:
392,224,191583,2,0,P|348:228|296:204,1,90,4|0,0:0|0:0,0:0:0:0:
268,144,191916,1,2,0:0:0:0:
268,144,192027,2,0,P|224:132|172:144,1,90,8|2,0:0|0:0,0:0:0:0:
60,248,192472,5,2,0:0:0:0:
60,248,192916,1,8,0:0:0:0:
100,328,193138,1,2,0:0:0:0:
220,224,193361,1,2,0:0:0:0:
220,224,193805,1,8,0:0:0:0:
180,140,194027,1,2,0:0:0:0:
104,48,194249,6,0,P|52:56|16:84,1,90,0|2,0:0|0:0,0:0:0:0:
192,56,194694,2,0,P|248:40|276:4,1,90,8|2,0:0|0:0,0:0:0:0:
92,132,195138,2,0,P|80:180|108:228,1,90,4|2,0:0|0:0,0:0:0:0:
231,319,195583,1,8,0:0:0:0:
252,144,195805,1,2,0:0:0:0:
156,280,196027,6,0,P|200:316|252:312,1,90,4|0,0:0|0:0,0:0:0:0:
300,296,196361,1,0,0:0:0:0:
300,296,196472,2,0,P|353:282|409:298,1,90,8|2,0:0|0:0,0:0:0:0:
408,332,196805,1,2,0:0:0:0:
372,368,196916,6,0,L|320:376,1,45,2|0,0:0|0:0,0:0:0:0:
216,364,197138,2,0,L|268:356,1,45,2|0,0:0|0:0,0:0:0:0:
196,288,197361,2,0,P|152:280|92:300,1,90,8|2,0:0|0:0,0:0:0:0:
80,140,197805,6,0,P|144:124|228:140,1,135,2|2,0:0|0:0,0:0:0:0:
244,204,198249,2,0,P|280:168|288:112,1,90,8|2,0:0|0:0,0:0:0:0:
148,228,198694,2,0,P|180:280|264:300,1,135,4|2,0:0|0:0,0:0:0:0:
316,268,199138,2,0,P|324:320|300:360,1,90,8|2,0:0|0:0,0:0:0:0:
272,376,199472,1,0,0:0:0:0:
228,376,199583,6,0,P|168:364|100:308,1,135,4|2,0:0|0:0,0:0:0:0:
60,264,200027,1,8,0:0:0:0:
132,128,200249,1,2,0:0:0:0:
132,128,200694,1,2,0:0:0:0:
264,76,200916,1,8,0:0:0:0:
216,152,201138,1,2,0:0:0:0:
364,172,201361,6,0,P|424:208|448:276,1,135,2|2,0:0|0:0,0:0:0:0:
376,296,201805,2,0,P|340:272|312:232,1,90,8|2,0:0|0:0,0:0:0:0:
348,88,202249,1,4,0:0:0:0:
464,136,202472,1,2,0:0:0:0:
344,52,202694,1,8,0:0:0:0:
492,120,202916,1,2,0:0:0:0:
340,24,203138,6,0,P|264:36|208:104,1,148.50000453186,4|2,0:0|0:0,0:0:0:0:
232,160,203583,2,0,P|184:156|144:112,1,99.0000030212403,8|2,0:0|0:0,0:0:0:0:
320,128,204027,2,0,P|324:180|296:224,1,99.0000030212403,2|0,0:0|0:0,0:0:0:0:
164,280,204472,1,8,0:0:0:0:
80,140,204694,1,2,0:0:0:0:
80,320,204916,6,0,P|144:372|224:352,1,161.999995056153,4|2,0:0|0:0,0:0:0:0:
260,296,205361,2,0,P|312:280|384:296,1,107.999996704102,8|2,0:0|0:0,0:0:0:0:
248,208,205805,6,0,P|176:180|76:204,1,161.999995056153,4|2,0:0|0:0,0:0:0:0:
52,256,206249,2,0,L|36:148,1,107.999996704102,8|2,0:0|0:0,0:0:0:0:
192,92,206694,6,0,P|252:80|360:144,1,175.499991966248,4|2,0:0|0:0,0:0:0:0:
380,200,207138,1,8,0:0:0:0:
416,88,207361,1,8,0:0:0:0:
380,200,207583,6,0,P|392:276|440:328,1,135,4|0,0:0|0:0,0:0:0:0:
488,272,208027,2,0,P|476:224|452:192,1,90,8|8,0:0|0:0,0:0:0:0:
316,300,208472,6,0,P|256:312|232:304,1,67.5000025749208,4|0,0:0|0:0,0:0:0:0:
220,304,208805,2,0,L|168:284,1,33.7500012874604,0|0,0:0|0:0,0:0:0:0:
116,180,209138,2,0,L|84:148,2,33.7500012874604
252,180,209583,2,0,L|292:176,2,33.7500012874604
140,256,210027,2,0,L|96:288,2,33.7500012874604
188,128,210472,2,0,L|200:96,2,33.7500012874604
220,260,210916,2,0,L|236:304,2,33.7500012874604
356,264,211361,2,0,L|384:260,11,16.8750006437302
392,260,212027,1,4,0:0:0:0:
256,276,224472,5,8,0:0:0:0:
256,280,224916,1,8,0:0:0:0:
256,284,225361,1,8,0:0:0:0:
256,116,225694,1,8,0:0:0:0:
256,116,225805,1,8,0:0:0:0:
180,192,226027,1,8,0:0:0:0:
332,192,226249,6,0,P|428:192|476:128,2,180,4|8|0,0:0|0:0|0:0,0:0:0:0:
252,148,227361,1,0,0:0:0:0:
164,132,227583,2,0,P|120:128|72:140,1,90,8|0,0:0|0:0,0:0:0:0:
28,216,228027,2,0,B|72:292|72:292|116:268|176:276,1,180,0|8,0:0|0:0,0:0:0:0:
388,328,228694,6,0,P|324:256|244:244,1,180
176,184,229361,1,8,0:0:0:0:
272,64,229583,1,0,0:0:0:0:
316,80,229694,1,0,0:0:0:0:
352,108,229805,2,0,P|384:140|404:192,1,90,0|0,0:0|0:0,0:0:0:0:
268,268,230249,2,0,P|279:224|314:180,1,90,8|0,0:0|0:0,0:0:0:0:
452,252,230694,2,0,P|408:263|353:255,1,90,0|0,0:0|0:0,0:0:0:0:
184,256,231138,1,8,0:0:0:0:
316,336,231361,1,0,0:0:0:0:
456,168,231583,6,0,B|440:80|440:80|400:56|348:72,1,180,0|8,0:0|0:0,0:0:0:0:
368,160,232249,1,0,0:0:0:0:
276,156,232472,2,0,B|292:244|292:244|332:268|384:252,1,180,4|8,0:0|0:0,0:0:0:0:
468,256,233138,1,0,0:0:0:0:
340,344,233361,6,0,P|296:352|252:340,1,90,4|0,0:0|0:0,0:0:0:0:
180,284,233805,2,0,P|136:268|92:272,1,90,8|0,0:0|0:0,0:0:0:0:
48,348,234249,1,0,0:0:0:0:
48,348,234694,1,8,0:0:0:0:
40,220,234916,1,0,0:0:0:0:
120,116,235138,2,0,P|164:128|208:120,1,90,2|0,0:0|0:0,0:0:0:0:
296,100,235583,1,8,0:0:0:0:
376,160,235805,6,0,P|384:68|324:0,1,180
296,100,236472,1,8,0:0:0:0:
152,172,236694,1,0,0:0:0:0:
240,172,236916,2,0,P|196:252|112:256,1,180,4|8,0:0|0:0,0:0:0:0:
64,180,237583,2,0,P|108:100|192:96,1,180,0|0,0:0|0:0,0:0:0:0:
280,92,238249,1,8,0:0:0:0:
348,148,238472,1,0,0:0:0:0:
448,284,238694,6,0,P|448:236|468:196,1,90,4|0,0:0|0:0,0:0:0:0:
352,316,239138,2,0,L|328:220,1,90,8|0,0:0|0:0,0:0:0:0:
160,316,239583,2,0,L|181:228,1,90,4|0,0:0|0:0,0:0:0:0:
60,316,240027,1,8,0:0:0:0:
54,294,240138,1,0,0:0:0:0:
48,272,240249,1,0,0:0:0:0:
41,250,240361,1,0,0:0:0:0:
35,228,240472,5,4,0:0:0:0:
112,104,240694,1,0,0:0:0:0:
228,168,240916,1,8,0:0:0:0:
360,92,241138,2,0,P|396:176|372:264,2,180,0|4|0,0:0|0:0|0:0,0:0:0:0:
284,44,242249,2,0,P|240:32|192:36,1,90,2|0,0:0|0:0,0:0:0:0:
112,68,242694,1,8,0:0:0:0:
92,264,242916,6,0,P|120:176|192:124,1,180,4|4,0:0|0:0,0:0:0:0:
276,136,243583,1,8,0:0:0:0:
332,204,243805,1,0,0:0:0:0:
368,212,243916,1,0,0:0:0:0:
408,208,244027,2,0,P|444:180|464:140,1,90,2|0,0:0|0:0,0:0:0:0:
472,108,244361,1,0,0:0:0:0:
468,72,244472,1,8,0:0:0:0:
388,116,244694,1,0,0:0:0:0:
332,184,244916,2,0,P|312:228|308:276,1,90,0|0,0:0|0:0,0:0:0:0:
228,312,245361,2,0,P|192:280|172:240,1,90,8|0,0:0|0:0,0:0:0:0:
140,160,245805,5,2,0:0:0:0:
240,21,246027,1,0,0:0:0:0:
240,21,246138,1,0,0:0:0:0:
240,21,246249,1,8,0:0:0:0:
105,81,246472,1,2,0:0:0:0:
275,99,246694,1,0,0:0:0:0:
155,12,246916,1,2,0:0:0:0:
156,12,247027,1,0,0:0:0:0:
156,12,247138,1,8,0:0:0:0:
225,168,247361,1,2,0:0:0:0:
324,288,247583,6,0,P|364:265|392:229,1,90,4|0,0:0|0:0,0:0:0:0:
412,144,248027,1,8,0:0:0:0:
324,128,248249,2,0,B|280:184|280:184|228:160|164:184,1,180,0|2,0:0|0:0,0:0:0:0:
228,252,248916,1,8,0:0:0:0:
228,252,249138,1,2,0:0:0:0:
176,328,249361,2,0,P|144:284|140:244,1,90,0|2,0:0|0:0,0:0:0:0:
276,328,249805,1,8,0:0:0:0:
276,328,250027,2,0,P|308:284|312:249,1,90,0|0,0:0|0:0,0:0:0:0:
384,196,250472,1,2,0:0:0:0:
468,164,250694,1,8,0:0:0:0:
384,196,250916,1,2,0:0:0:0:
288,112,251138,6,0,P|196:124|144:56,1,180,4|8,0:0|0:0,0:0:0:0:
232,44,251805,2,0,L|176:220,1,180,8|8,0:0|0:0,0:0:0:0:
144,300,252472,1,8,0:0:0:0:
144,300,252694,1,0,0:0:0:0:
264,344,252916,6,0,P|340:288|424:300,1,180,4|8,0:0|0:0,0:0:0:0:
360,368,253583,1,0,0:0:0:0:
448,372,253805,1,8,0:0:0:0:
472,352,253916,1,0,0:0:0:0:
488,324,254027,1,0,0:0:0:0:
492,292,254138,1,0,0:0:0:0:
488,260,254249,1,8,0:0:0:0:
476,232,254361,1,0,0:0:0:0:
456,208,254472,1,0,0:0:0:0:
428,192,254583,1,0,0:0:0:0:
396,188,254694,6,0,P|372:144|368:104,2,90,4|0|8,0:0|0:0|0:0,0:0:0:0:
400,280,255361,2,0,P|320:320|240:288,1,180
172,232,256027,1,8,0:0:0:0:
88,200,256249,2,0,P|44:204|4:224,2,90,0|0|0,0:0|0:0|0:0,0:0:0:0:
156,140,256916,1,8,0:0:0:0:
236,180,257138,2,0,P|324:152|364:76,1,180
436,24,257805,2,0,P|480:8|528:12,2,90,8|0|0,0:0|0:0|0:0,0:0:0:0:
152,52,258694,5,8,0:0:0:0:
116,136,258916,1,0,0:0:0:0:
48,192,259138,2,0,P|84:220|144:216,1,90,0|0,0:0|0:0,0:0:0:0:
200,168,259583,1,8,0:0:0:0:
208,256,259805,1,0,0:0:0:0:
352,288,260027,6,0,P|380:252|388:204,1,90,2|0,0:0|0:0,0:0:0:0:
368,120,260472,1,8,0:0:0:0:
160,288,260694,1,0,0:0:0:0:
160,288,260805,1,0,0:0:0:0:
160,288,260916,2,0,P|132:252|124:204,1,90,4|0,0:0|0:0,0:0:0:0:
144,120,261361,1,8,0:0:0:0:
256,184,261583,1,0,0:0:0:0:
256,184,261694,1,0,0:0:0:0:
256,184,261805,5,4,0:0:0:0:
284,100,262027,1,0,0:0:0:0:
352,40,262249,1,8,0:0:0:0:
428,128,262472,2,0,P|464:208|456:304,2,180,0|4|0,0:0|0:0|0:0,0:0:0:0:
328,256,263583,5,4,0:1:0:0:
240,236,263805,1,0,0:0:0:0:
240,236,263916,1,0,0:0:0:0:
240,236,264027,1,8,0:0:0:0:
200,316,264249,2,0,P|152:228|192:160,1,180,4|0,0:0|0:0,0:0:0:0:
268,124,264916,2,0,P|304:88|320:48,1,90,6|0,0:0|0:0,0:0:0:0:
408,40,265361,2,0,P|440:88|440:176,1,135,4|0,0:0|0:0,0:0:0:0:
432,196,265805,1,8,0:0:0:0:
316,304,266027,5,0,0:0:0:0:
256,68,266472,1,4,0:0:0:0:
196,304,266916,1,4,0:0:0:0:
344,120,267138,5,4,0:0:0:0:
168,120,267361,1,0,0:0:0:0:
168,264,267583,1,8,0:0:0:0:
344,264,267805,1,0,0:0:0:0:
256,67,268027,5,4,0:0:0:0:
131,192,268250,1,0,0:0:0:0:
256,316,268472,1,8,0:0:0:0:
380,192,268694,1,0,0:0:0:0:
256,192,268916,5,4,0:0:0:0:
256,116,276027,6,0,B|256:84|256:84|272:52|260:12,1,90
328,168,276472,2,0,B|358:158|358:158|394:163|428:140,1,90,8|0,0:0|0:0,0:0:0:0:
300,253,276916,2,0,B|319:279|319:279|325:314|358:339,1,90
211,253,277361,2,0,B|192:279|192:279|160:295|146:335,1,90,8|0,0:0|0:0,0:0:0:0:
183,168,277805,6,0,B|153:158|153:158|127:133|86:132,1,90
16,256,278249,2,0,P|68:240|92:200,1,90,8|0,0:0|0:0,0:0:0:0:
100,192,278583,1,0,0:0:0:0:
104,168,278694,1,4,0:0:0:0:
32,48,278916,1,2,0:0:0:0:
176,284,279138,2,0,L|284:300,1,90,8|0,0:0|0:0,0:0:0:0:
476,264,279583,6,0,L|386:250,1,90,0|0,0:0|0:0,0:0:0:0:
412,108,280027,2,0,L|339:161,1,90,8|0,0:0|0:0,0:0:0:0:
252,44,280472,2,0,L|238:133,1,90,0|0,0:0|0:0,0:0:0:0:
100,96,280916,2,0,L|153:168,1,90,8|0,0:0|0:0,0:0:0:0:
152,220,281249,2,0,L|184:264,1,45,0|4,0:0|0:0,0:0:0:0:
296,192,281583,5,0,0:0:0:0:
340,304,281805,2,0,L|308:348,1,45,8|0,0:0|0:0,0:0:0:0:
384,80,282138,2,0,L|410:43,1,45,0|4,0:0|0:0,0:0:0:0:
460,192,282472,1,2,0:0:0:0:
460,192,282583,1,0,0:0:0:0:
460,192,282694,2,0,L|492:244,1,45,8|0,0:0|0:0,0:0:0:0:
372,172,282916,2,0,L|348:133,1,45,4|0,0:0|0:0,0:0:0:0:
296,28,283138,5,4,0:0:0:0:
128,88,283361,1,0,0:0:0:0:
296,148,283583,1,8,0:0:0:0:
192,0,283805,1,0,0:0:0:0:
192,0,283916,1,0,0:0:0:0:
192,0,284027,1,0,0:0:0:0:
192,180,284249,2,0,L|104:216,2,90,0|8|0,0:0|0:0|0:0,0:0:0:0:
376,216,284916,5,0,0:0:0:0:
480,184,285138,1,0,0:0:0:0:
296,148,285361,1,8,0:0:0:0:
192,180,285583,1,0,0:0:0:0:
400,120,285805,2,0,P|384:76|336:44,1,90,4|0,0:0|0:0,0:0:0:0:
284,224,286249,2,0,P|300:268|348:300,1,90,8|2,0:0|0:0,0:0:0:0:
360,300,286583,1,0,0:0:0:0:
388,296,286694,1,4,0:0:0:0:
192,180,286916,6,0,L|104:140,1,90,0|8,0:0|0:0,0:0:0:0:
240,68,287361,1,0,0:0:0:0:
352,112,287583,2,0,L|433:149,1,90
152,192,288027,2,0,L|70:154,1,90,8|0,0:0|0:0,0:0:0:0:
40,144,288361,6,0,L|16:208,1,45,0|2,0:0|0:0,0:0:0:0:
144,360,288694,1,0,0:0:0:0:
176,356,288805,2,0,L|244:352,1,45,0|8,0:0|0:0,0:0:0:0:
368,300,289138,1,0,0:0:0:0:
336,296,289249,2,0,L|268:292,1,45,0|4,0:0|0:0,0:0:0:0:
240,212,289583,1,0,0:0:0:0:
256,192,289694,1,0,0:0:0:0:
272,172,289805,1,8,0:0:0:0:
256,152,289916,1,0,0:0:0:0:
240,132,290027,1,2,0:0:0:0:
256,108,290138,1,0,0:0:0:0:
272,84,290249,1,4,0:0:0:0:
120,32,290472,5,0,0:0:0:0:
156,172,290694,1,8,0:0:0:0:
392,32,290916,1,0,0:0:0:0:
356,172,291138,1,0,0:0:0:0:
256,300,291361,2,0,L|256:196,1,90,0|8,0:0|0:0,0:0:0:0:
256,84,291805,5,2,0:0:0:0:
256,84,291916,1,0,0:0:0:0:
256,84,292027,1,4,0:0:0:0:
72,156,292249,2,0,P|80:208|116:244,1,90,0|8,0:0|0:0,0:0:0:0:
440,156,292694,2,0,P|432:208|396:244,1,90,0|4,0:0|0:0,0:0:0:0:
256,84,293138,2,0,L|256:192,1,90,0|8,0:0|0:0,0:0:0:0:
256,300,293583,5,0,0:0:0:0:
256,300,293694,1,0,0:0:0:0:
256,300,293805,1,4,0:0:0:0:
160,232,294027,2,0,L|52:240,1,90,0|8,0:0|0:0,0:0:0:0:
256,84,294472,5,2,0:0:0:0:
256,84,294583,1,0,0:0:0:0:
256,84,294694,1,4,0:0:0:0:
352,152,294916,2,0,L|460:144,1,90,0|8,0:0|0:0,0:0:0:0:
256,192,295361,5,2,0:0:0:0:
256,192,295472,1,0,0:0:0:0:
256,192,295583,2,0,B|224:168|224:168|192:168|144:140,1,90,8|0,0:0|0:0,0:0:0:0:
152,136,295916,1,0,0:0:0:0:
128,116,296027,2,0,P|88:144|72:192,1,90,8|0,0:0|0:0,0:0:0:0:
76,212,296361,1,0,0:0:0:0:
92,240,296472,6,0,L|148:228,1,45,2|0,0:0|0:0,0:0:0:0:
168,312,296694,2,0,L|224:300,1,45,2|0,0:0|0:0,0:0:0:0:
280,356,296916,1,8,0:0:0:0:
312,348,297027,1,2,0:0:0:0:
344,340,297138,1,2,0:0:0:0:
372,332,297249,1,2,0:0:0:0:
404,324,297361,1,0,0:0:0:0:
460,200,297583,5,2,0:0:0:0:
368,96,297805,1,0,0:0:0:0:
200,72,298027,2,0,P|200:132|240:196,1,135.000005149842,0|4,0:0|0:0,0:0:0:0:
460,200,298916,1,0,0:0:0:0:
380,244,299138,6,0,L|304:220,1,67.5000025749208,2|0,0:0|0:0,0:0:0:0:
232,260,299583,1,0,0:0:0:0:
148,296,299805,2,0,P|92:264|68:196,1,135.000005149842,2|0,0:0|0:0,0:0:0:0:
272,60,300472,2,0,P|240:116|172:140,1,135.000005149842,0|4,0:3|0:0,0:3:0:0:
84,96,301361,5,0,0:0:0:0:
184,212,301583,2,0,B|216:244|216:244|272:236|332:260,1,135.000005149842,0|0,0:0|0:0,0:0:0:0:
464,156,302583,2,0,L|424:176,1,33.7500012874604,0|4,0:0|0:0,0:0:0:0:
256,192,302805,12,0,307138,0:0:0:0:
