osu file format v9

[General]
AudioFilename: 10 - Snow Crystal.mp3
AudioLeadIn: 0
PreviewTime: 69815
Countdown: 0
SampleSet: Normal
StackLeniency: 0.7
Mode: 0
LetterboxInBreaks: 0

[Editor]
DistanceSpacing: 1
BeatDivisor: 4
GridSize: 4

[Metadata]
Title:Snow Crystal
Artist:Another Infinity feat. Mayumi Morinaga
Creator:Niva
Version:Normal
Source:
Tags:nivalis ryu ryu* rainbow*rainbow konami starving trancer

[Difficulty]
HPDrainRate:4
CircleSize:4
OverallDifficulty:4
ApproachRate:5
SliderMultiplier:1.18
SliderTickRate:2

[Events]
//Background and Video events
0,0,"sc-background.jpg"
//Break Periods
2,32570,36795
2,85070,89295
//Storyboard Layer 0 (Background)
//Storyboard Layer 1 (Fail)
//Storyboard Layer 2 (Pass)
//Storyboard Layer 3 (Foreground)
//Storyboard Sound Samples
//Background Colour Transformations
3,100,255,255,255

[TimingPoints]
2370,468.75,4,2,1,30,1,0
9752,-100,4,2,1,20,0,0
10573,-100,4,2,1,25,0,0
11510,-100,4,2,1,30,0,0
12448,-100,4,2,1,35,0,0
13385,-100,4,2,1,40,0,0
14557,-100,4,2,1,45,0,0
15963,-100,4,2,1,50,0,0
22877,-100,4,1,1,25,0,0
23463,-100,4,2,1,35,0,0
23580,-100,4,1,1,25,0,0
23815,-100,4,2,1,30,0,0
24284,-100,4,2,1,40,0,0
24518,-100,4,1,1,35,0,0
24752,-100,4,2,1,40,0,0
25104,-100,4,1,1,30,0,0
25221,-100,4,2,1,40,0,0
25924,-100,4,1,1,30,0,0
27096,-100,4,2,1,40,0,0
27330,-100,4,1,1,30,0,0
27565,-100,4,2,1,40,0,0
28034,-100,4,1,1,30,0,0
28971,-100,4,2,1,40,0,0
29205,-100,4,1,1,30,0,0
29557,-100,4,2,1,40,0,0
29674,-100,4,1,1,30,0,0
30377,-100,4,2,1,50,0,0
32370,-100,4,1,1,50,0,0
39284,-100,4,1,1,80,0,0
39635,-100,4,1,1,50,0,0
67877,-100,4,1,1,80,0,0
68112,-100,4,1,1,50,0,0
69870,-89.2857142857143,4,1,1,55,0,1
82877,-89.2857142857143,4,1,1,80,0,1
83112,-89.2857142857143,4,1,1,55,0,1
84870,-100,4,1,1,55,0,0
91901,-100,4,1,1,80,0,0
92370,-100,4,2,1,55,0,0
105377,-100,4,1,1,25,0,0
105963,-100,4,2,1,35,0,0
106080,-100,4,1,1,25,0,0
106315,-100,4,2,1,30,0,0
106784,-100,4,1,1,30,0,0
107018,-100,4,1,1,35,0,0
107252,-100,4,1,1,40,0,0
114870,-100,4,1,1,50,0,0
122370,-100,4,2,1,50,0,0
123307,-100,4,1,1,80,0,0
124245,-89.2857142857143,4,1,1,55,0,1
137370,-89.2857142857143,4,1,1,80,0,0
137487,-89.2857142857143,4,1,1,55,0,0
138776,-89.2857142857143,4,2,1,20,0,0
139245,-89.2857142857143,4,1,1,55,0,1
154245,-89.2857142857143,4,1,1,55,0,0
169245,-100,4,2,1,50,0,0
170299,-100,4,2,1,55,0,0
171002,-100,4,2,1,50,0,0
171940,-100,4,2,1,55,0,0
172877,-100,4,2,1,50,0,0
175690,-100,4,2,1,55,0,0
176745,-100,4,2,1,50,0,0
179440,-100,4,2,1,55,0,0
180377,-100,4,2,1,50,0,0
184245,-100,4,2,1,5,0,0

[Colours]
Combo1 : 148,196,254
Combo2 : 213,255,255
SliderBorder : 255,241,184

[HitObjects]
464,336,2370,2,0,B|472:286|439:245|384:239|343:272,1,177,6|2
315,156,3541,1,0
259,175,3776,1,0
231,227,4010,1,2
256,344,4479,2,0,B|192:408|112:400|36:340|55:248,1,295,0|2
167,268,6120,6,0,B|172:225|152:185|121:163|121:163|121:94,1,177,2|2
216,36,7291,1,0
264,72,7526,1,0
324,76,7760,1,2
436,50,8229,2,0,B|471:124|438:200|364:249|279:210,1,295,0|2
168,170,9870,6,0,B|106:156|55:190,2,118,6|2|0
256,91,11276,1,2
344,170,11745,2,0,B|406:156|457:190,2,118,0|2|0
256,249,13151,1,2
169,329,13620,6,0,B|128:282|142:219,1,118,0|2
65,128,14557,1,0
124,26,15026,1,2
238,54,15495,1,0
251,171,15963,1,2
143,218,16432,1,0
143,218,17370,6,0,B|168:277|233:306|295:299|343:247,1,236,4|0
251,171,18776,1,2
358,121,19245,2,0,B|333:62|268:33|206:40|158:92,1,236
45,68,20651,1,2
72,182,21120,6,0,B|91:245|41:292,1,118,0|2
140,361,22057,1,0
256,343,22526,1,2
373,364,22995,2,0,B|381:316|362:278|335:255|335:255|336:190,1,177
336,139,23932,1,2
226,94,24401,1,10
117,140,24870,6,0,B|49:162|1:114,2,118,4|2|0
173,122,26041,2,0,B|216:109|264:133,2,88.5
203,236,27213,1,2
203,236,27448,2,0,B|265:265|320:232|320:232|380:232,1,177
467,306,28620,5,0
467,306,28854,2,0,B|512:258|500:179|456:144,1,177,0|2
420,101,29791,2,0,B|403:59|432:17,2,88.5,0|0|4
256,192,30612,12,4,32370
256,192,37995,12,0,39401
316,304,39870,5,6
417,363,40338,1,8
498,277,40807,1,0
448,169,41276,1,10
332,188,41745,2,0,B|268:164|256:100,2,118,0|10|0
452,224,43151,1,10
508,328,43620,6,0,B|453:361|393:329|393:329|337:301|281:329,1,236
188,256,45026,1,10
96,328,45495,2,0,B|60:280|80:212,1,118,0|8
168,140,46432,2,0,B|232:128|280:180,1,118,2|10
188,256,47370,5,4
296,304,47838,1,8
404,252,48307,2,0,B|436:192|404:136,1,118,0|10
304,80,49245,2,0,B|272:140|304:196,1,118,0|10
201,254,50182,1,0
104,196,50651,1,10
3,144,51120,6,0,B|-33:219|7:313|104:312,1,236
104,196,52526,1,10
216,236,52995,2,0,B|280:256|328:220,1,118,0|10
384,324,53932,1,0
488,268,54401,1,8
432,164,54870,6,0,B|480:140|532:160|532:160|540:88|480:40,1,236,6|0
368,16,56276,1,10
252,44,56745,2,0,B|188:64|145:16,1,118,0|10
86,118,57682,1,0
33,223,58151,1,10
128,292,58620,6,0,B|180:328|240:292|240:292|296:256|352:292,1,236,0|0
460,336,60026,1,10
436,220,60495,2,0,B|388:176|328:168,1,118,0|8
256,76,61432,1,2
180,168,61901,1,10
72,120,62370,6,0,B|48:182|70:241|112:284|184:286,1,236,4|0
296,264,63776,1,10
412,240,64245,2,0,B|476:235|523:285,2,118,0|10|0
428,356,65651,1,10
316,320,66120,5,4
204,360,66588,1,10
133,265,67057,1,0
196,165,67526,1,8
309,198,67995,1,0
256,192,68112,12,4,69870
480,257,70338,6,0,B|413:257|413:257|384:281|352:271,1,132.160001260376,10|0
256,364,71276,1,10
160,272,71745,2,0,B|128:282|99:258|99:258|32:258,1,132.160001260376,0|10
156,197,72682,2,0,B|168:177|192:149|236:145|236:145|256:117|256:117|276:145|276:145|320:149|344:177|360:197,1,264.320002520752,0|0
256,276,74088,5,10
132,320,74557,2,0,B|61:337|12:280,1,132.160001260376,0|10
60,156,75495,1,0
112,36,75963,1,10
232,92,76432,2,0,B|297:115|357:67|357:67|418:23|484:44,1,264.320002520752,2|4
512,172,77838,5,10
392,228,78307,2,0,B|324:248|264:192,1,132.160001260376,0|10
152,132,79245,2,0,B|80:112|28:160,1,132.160001260376,0|10
80,36,80182,2,0,B|170:22|240:80|240:80|340:80,1,264.320002520752,0|0
416,184,81588,5,10
496,292,82057,2,0,B|448:336|360:340|292:276|284:216,1,264.320002520752,0|4
256,192,83112,12,4,84870
256,192,90495,12,4,91901
193,60,92370,6,4,B|152:110|148:171|148:171|120:162|87:169,1,177
110,287,93541,2,0,B|80:297|47:277,2,59,0|0|2
216,236,94479,2,0,B|292:184|388:204|388:204|428:92,1,295,0|2
336,20,96120,6,0,B|292:28|256:56|256:56|220:28|176:20,1,177,2|2
136,132,97291,1,0
117,188,97526,1,0
100,244,97760,1,2
136,356,98229,2,0,B|60:379|-17:336|-44:248|6:172,1,295,0|2
103,108,99870,6,0,B|153:95|188:124|188:124|224:153|272:141,1,177,2|2
384,168,101041,2,0,B|418:174|456:153,2,59,0|0|2
391,288,101979,2,0,B|371:316|338:340|294:325|268:292|268:292|240:257|205:240|161:252|139:285,1,295,0|2
63,192,103620,6,0,B|132:124|228:140,1,177,2|2
284,40,104791,1,0
300,96,105026,1,0
348,128,105260,1,2
406,140,105495,6,0,B|440:172|442:221|417:264|358:272,1,177,4|0
304,252,106432,1,2
252,360,106901,1,0
136,328,107370,6,0,B|74:308|24:355,1,118,4|8
77,246,108307,2,0,B|110:240|138:248|138:248|137:220|152:189,1,118,0|8
258,144,109245,1,0
362,193,109713,1,8
469,144,110182,2,0,B|496:208|473:264|431:310|362:311,1,236
256,258,111588,5,8
151,311,112057,2,0,B|104:356|36:332,1,118,0|8
73,218,112995,1,0
101,103,113463,1,8
209,150,113932,2,0,B|204:116|204:116|203:81|256:57|256:57|311:82|310:116|310:116|304:155,1,236,0|4
403,214,115338,5,8
386,330,115807,1,0
269,347,116276,1,8
222,238,116745,1,0
304,150,117213,1,8
403,214,117682,2,0,B|438:155|424:80|376:44|319:33,1,236
209,75,119088,5,8
98,116,119557,2,0,B|36:137|-21:94,2,118,0|8|0
256,192,120612,12,6,122370
436,319,123776,5,0
436,319,124010,1,0
436,319,124245,6,0,B|371:280|311:318|311:318|247:359|187:316,1,264.320002520752,6|0
62,358,125651,1,10
89,228,126120,2,0,B|108:155|58:104,2,132.160001260376,0|10|0
211,277,127526,1,10
335,231,127995,6,0,B|407:212|460:263,1,132.160001260376,0|10
505,139,128932,1,0
451,18,129401,1,10
327,66,129870,2,0,B|256:88|203:40,1,132.160001260376,0|10
147,160,130807,1,2
92,280,131276,1,10
216,328,131745,6,0,B|276:360|344:328|344:328|408:296|472:324,1,264.320002520752,4|0
512,196,133151,1,10
404,120,133620,2,0,B|336:92|280:140,1,132.160001260376,0|10
172,212,134557,2,0,B|96:228|52:168,1,132.160001260376,0|10
97,296,135495,6,0,B|173:310|226:280|226:280|281:249|355:265,1,264.320002520752
474,319,136901,1,10
512,193,137370,1,4
256,192,137487,12,0,138776
305,133,139245,6,0,B|346:61|260:-35|161:64|212:135,1,264.320002520752,6|0
191,264,140651,2,0,B|155:252|133:233|133:233|63:233,2,132.160001260376,10|0|10
321,264,142057,2,0,B|357:252|379:233|379:233|449:233,1,132.160001260376,0|10
508,116,142995,5,0
398,42,143463,1,10
273,87,143932,2,0,B|204:109|148:59,1,132.160001260376,0|10
77,171,144870,1,0
115,297,145338,1,10
243,263,145807,2,0,B|311:243|365:295,1,132.160001260376,2|10
323,168,146745,6,0,B|254:157|192:180|192:180|186:116|130:63,1,264.320002520752,4|0
257,23,148151,1,10
380,66,148620,2,0,B|452:86|501:36,2,132.160001260376,0|10|0
413,193,150026,1,10
503,289,150495,6,0,B|448:339|375:340|307:301|288:228,1,264.320002520752,4|0
169,288,151901,1,10
46,338,152370,1,0
256,192,152487,12,6,154245
379,287,154713,5,8
257,339,155182,1,2
134,287,155651,1,8
185,165,156120,2,0,B|130:146|85:167,2,99.120000945282,2|2|0
245,192,157057,2,0,B|313:217|375:180,1,132.160001260376,2|8
440,295,157995,5,2
336,380,158463,1,8
211,342,158932,2,0,B|140:319|86:366,1,132.160001260376,2|8
135,241,159870,2,0,B|82:245|40:281,2,99.120000945282,2|2|0
199,256,160807,1,2
305,177,161276,1,8
410,256,161745,6,0,B|452:197|428:130,2,132.160001260376,6|8|2
456,376,163151,1,8
326,359,163620,2,0,B|271:352|228:378,2,99.120000945282,2|2|0
392,368,164557,1,2
452,253,165026,1,8
395,133,165495,6,0,B|360:68|408:10,2,132.160001260376,2|8|2
273,184,166901,1,8
256,192,167370,12,6,169245
468,335,169713,6,0,B|439:350|404:348,1,59,0|2
290,336,170416,1,0
231,324,170651,1,0
173,335,170885,1,2
61,374,171354,2,0,B|38:281|117:232|117:232|118:147,1,236,0|0
118,100,172526,1,2
231,132,172995,6,0,B|277:139|315:117|315:117|359:95|403:102,1,177,2|2
450,210,174166,1,0
451,269,174401,1,0
484,316,174635,1,2
380,368,175104,2,0,B|319:390|267:347,1,118
233,303,175807,1,2
116,322,176276,1,2
35,253,176745,6,0,B|76:205|140:218|140:218|156:148,1,177,2|2
256,99,177916,1,0
308,128,178151,1,0
359,157,178385,1,2
461,216,178854,2,0,B|428:272|364:294|298:280|260:220,1,236
214,258,180026,1,2
113,319,180495,6,0,B|84:264|92:199|148:159,1,177,2|2
255,118,181666,2,0,B|256:54,2,59,0|2|2
256,192,182370,12,0,184245
