osu file format v9

[General]
AudioFilename: 10 - Snow Crystal.mp3
AudioLeadIn: 0
PreviewTime: 69815
Countdown: 0
SampleSet: Soft
StackLeniency: 0.7
Mode: 0
LetterboxInBreaks: 0

[Editor]
DistanceSpacing: 1
BeatDivisor: 4
GridSize: 4

[Metadata]
Title:Snow Crystal
Artist:Another Infinity feat. Mayumi Morinaga
Creator:Niva
Version:Hard
Source:
Tags:nivalis ryu ryu* rainbow*rainbow konami starving trancer

[Difficulty]
HPDrainRate:6
CircleSize:4
OverallDifficulty:6
ApproachRate:7
SliderMultiplier:1.68
SliderTickRate:2

[Events]
//Background and Video events
0,0,"sc-background.jpg"
//Break Periods
2,32570,37095
2,85070,89595
//Storyboard Layer 0 (Background)
//Storyboard Layer 1 (Fail)
//Storyboard Layer 2 (Pass)
//Storyboard Layer 3 (Foreground)
//Storyboard Sound Samples
//Background Colour Transformations
3,100,255,255,255

[TimingPoints]
2370,468.75,4,2,1,30,1,0
9752,-100,4,2,1,20,0,0
10573,-100,4,2,1,25,0,0
11510,-100,4,2,1,30,0,0
12448,-100,4,2,1,35,0,0
13385,-100,4,2,1,40,0,0
14557,-100,4,2,1,45,0,0
15963,-100,4,2,1,50,0,0
16491,-100,4,2,1,5,0,0
17370,-100,4,2,1,50,0,0
22877,-100,4,1,1,25,0,0
23463,-100,4,2,1,35,0,0
23580,-100,4,1,1,25,0,0
23815,-100,4,1,1,30,0,0
24518,-100,4,2,1,35,0,0
24752,-100,4,2,1,40,0,0
25104,-100,4,1,1,30,0,0
25221,-100,4,2,1,40,0,0
25924,-100,4,1,1,30,0,0
27096,-100,4,2,1,40,0,0
27330,-100,4,1,1,30,0,0
27565,-100,4,2,1,40,0,0
28034,-100,4,1,1,30,0,0
28971,-100,4,2,1,40,0,0
29557,-100,4,2,1,40,0,0
29674,-100,4,1,1,30,0,0
30377,-100,4,2,1,50,0,0
32370,-100,4,1,1,50,0,0
39284,-100,4,1,1,80,0,0
39635,-100,4,1,1,50,0,0
67877,-100,4,1,1,80,0,0
68112,-100,4,1,1,50,0,0
69401,-100,4,1,1,25,0,0
69870,-89.2857142857143,4,1,1,55,0,1
82877,-89.2857142857143,4,1,1,80,0,1
83112,-89.2857142857143,4,1,1,55,0,1
84870,-100,4,1,1,55,0,0
91901,-100,4,1,1,80,0,0
92370,-100,4,2,1,55,0,0
105377,-100,4,1,1,25,0,0
105963,-100,4,2,1,35,0,0
106080,-100,4,1,1,25,0,0
106315,-100,4,1,1,30,0,0
107018,-100,4,1,1,35,0,0
107252,-100,4,1,1,40,0,0
114870,-100,4,1,1,50,0,0
122370,-100,4,2,1,50,0,0
123541,-100,4,1,1,80,0,0
124245,-89.2857142857143,4,1,1,55,0,1
137370,-89.2857142857143,4,1,1,80,0,0
137487,-89.2857142857143,4,1,1,55,0,0
138776,-89.2857142857143,4,2,1,20,0,0
139245,-89.2857142857143,4,1,1,55,0,1
154245,-89.2857142857143,4,1,1,55,0,0
169245,-100,4,2,1,50,0,0
169713,-100,4,2,1,55,0,0
171354,-100,4,2,1,50,0,0
171940,-100,4,2,1,55,0,0
172877,-100,4,2,1,50,0,0
175690,-100,4,2,1,55,0,0
176745,-100,4,2,1,50,0,0
179440,-100,4,2,1,55,0,0
180377,-100,4,2,1,50,0,0

[Colours]
Combo1 : 148,196,254
Combo2 : 213,255,255
SliderBorder : 255,241,184

[HitObjects]
440,288,2370,2,0,B|400:264|352:272,1,84.0000000000001,6|0
280,248,2838,1,0
208,288,3073,2,0,B|166:313|119:311|83:274|71:230,1,168,2|0
44,156,3776,1,0
76,80,4010,1,2
76,80,4479,5,0
44,156,4713,2,0,B|0:140|-7:94,1,84.0000000000001,0|0
64,236,5182,2,0,B|72:282|36:311,1,84.0000000000001,2|0
128,180,5651,2,0,B|163:149|209:166,1,84.0000000000001,2|0
44,156,6120,5,2
64,236,6354,1,0
144,264,6588,1,0
208,208,6823,2,0,B|252:260|224:328|172:345,1,168,2|0
64,236,7526,1,0
212,212,7760,1,2
212,212,8229,5,0
156,140,8463,2,0,B|144:96|168:56,1,84.0000000000001
176,288,8932,2,0,B|143:320|97:319,1,84.0000000000001,2|0
288,200,9401,2,0,B|332:211|354:252,1,84.0000000000001,2|0
352,249,9870,6,0,B|393:241|436:240,2,84,6|0|2
148,208,10807,2,0,B|104:200|64:198,2,84,0|0|2
388,136,11745,2,0,B|428:126|471:126,2,84,0|0|2
96,88,12682,2,0,B|53:77|12:78,2,84,0|0|2
96,88,13620,5,0
176,68,13854,1,0
156,148,14088,2,0,B|110:192|34:175|16:113,1,168,2|0
96,88,14791,1,0
232,112,15026,2,0,B|272:92|316:112|316:112|356:132|396:116,1,168,2|0
360,40,15729,1,0
276,188,15963,2,0,B|320:212|360:208|360:208|392:292,1,168,2|0
256,192,16491,12,4,17370
470,274,17604,6,0,B|428:268|388:284,1,84.0000000000001
308,252,18073,1,2
232,288,18307,2,0,B|216:248|236:208|236:208|252:168|232:124,1,168,0|2
164,172,19010,1,2
308,252,19245,6,0,B|392:252,1,84.0000000000001,0|2
164,172,19713,2,0,B|76:172,1,84.0000000000001,2|0
308,252,20182,2,0,B|332:316|284:376|224:372,2,168,0|2|2
232,288,21354,5,0
384,341,21588,2,0,B|401:301|391:259,1,84,0|2
460,136,22057,1,0
340,192,22291,1,2
468,220,22526,1,2
380,116,22760,1,0
392,260,22995,6,0,B|320:296|272:240,1,126
277,246,23463,2,0,B|187:245,1,84.0000000000001,2|0
124,200,23932,2,0,B|100:160,4,42.0000000000001
120,284,24635,1,10
277,246,24870,6,0,B|319:236|363:240,1,84.0000000000001,4|0
420,300,25338,2,0,B|360:224|412:140,1,168,2|0
464,80,26041,1,0
488,204,26393,1,0
368,164,26745,6,0,B|328:184|284:164,1,84.0000000000001
208,196,27213,1,2
260,260,27448,2,0,B|230:287|176:291|137:260|126:212,1,168
208,196,28151,1,0
208,196,28620,6,0,B|244:112,1,84.0000000000001
260,260,29088,2,0,B|320:260|320:260|376:297|428:260,1,168,2|0
375,193,29791,1,0
375,193,30026,1,8
375,361,30495,5,4
256,192,30612,12,4,32370
256,192,37995,12,0,39401
460,338,39870,5,6
492,260,40104,1,0
416,220,40338,1,8
376,296,40573,2,2,B|340:316|296:296|296:296|252:276|212:296,1,168,0|0
256,368,41276,1,10
336,224,41510,2,0,B|332:176|364:142|403:125|453:147,1,168,2|0
484,69,42213,6,0,B|443:52|397:56,1,84.0000000000001,10|0
278,129,42682,1,0
332,7,42916,1,2
361,131,43151,1,10
259,48,43385,1,2
316,204,43620,6,0,B|250:230|190:181|197:128,1,168,0|8
71,56,44323,2,2,B|149:56|149:56|192:33|236:55,1,168,0|0
278,129,45026,1,10
316,204,45260,2,0,B|360:226|403:203|403:203|481:203,1,168,2|0
512,284,45963,2,0,B|429:284,1,84,10|0
219,342,46432,2,0,B|261:365|304:342,1,84,2|2
316,204,46901,1,8
316,204,47370,5,6
260,272,47604,1,0
232,192,47838,1,8
176,256,48073,2,2,B|128:208|140:140|200:112,1,168,0|0
164,40,48776,1,10
232,192,49010,2,0,B|188:200|150:180|150:180|111:159|64:168,1,168,2|0
32,244,49713,2,0,B|-12:224|-16:180,1,84.0000000000001,10|0
152,160,50182,2,0,B|156:208|120:233,1,84.0000000000001,0|2
20,104,50651,2,0,B|59:75|99:94,1,84,10|2
152,160,51120,6,0,B|196:180|236:160|236:160|272:144|316:160,1,168,0|8
275,234,51823,1,2
192,88,52291,2,0,B|239:96|277:70,1,84.0000000000001,0|10
192,88,52760,2,0,B|145:56|72:85|68:155,1,168,2|0
117,219,53463,1,10
0,199,53698,1,0
25,85,53932,1,2
138,103,54166,1,0
138,103,54870,5,6
220,80,55104,1,0
280,136,55338,1,8
200,160,55573,2,2,B|220:224|300:240|348:188,1,168,0|0
280,136,56276,1,10
252,296,56510,2,0,B|204:292|168:256|168:256|96:256,1,168,2|0
64,176,57213,2,0,B|148:176,1,84.0000000000001,10|0
261,55,57682,2,0,B|220:128,1,84.0000000000001,0|2
266,284,58151,2,0,B|224:212,1,84.0000000000001,10|2
200,340,58620,5,0
280,368,58854,1,0
348,316,59088,1,8
332,232,59323,2,2,B|312:184|312:184|344:166|368:136|360:88,1,168,0|0
304,24,60026,1,10
276,104,60260,2,0,B|236:122|196:104|196:104|156:85|113:104,1,168,2|0
155,176,60963,2,0,B|196:197|239:191,1,84,8|0
232,31,61432,2,0,B|191:10|148:16,1,84,2|2
33,97,61901,1,8
33,97,62370,5,6
10,177,62604,1,0
90,199,62838,1,8
116,119,63073,2,2,B|156:143|196:124|196:124|238:144|276:122,1,168,0|0
234,49,63776,1,10
213,217,64010,2,0,B|202:276|202:276|233:331|200:380,1,168,2|0
134,326,64713,2,0,B|35:325,1,84,10|0
296,362,65182,2,0,B|390:363,2,84,0|2|10
214,217,65885,1,2
162,150,66120,6,0,B|213:108|284:139|297:198,1,168,4|8
214,214,66823,2,2,B|269:51,1,168,0|0
345,22,67526,1,10
184,50,67760,1,2
27,25,67995,1,0
256,192,68112,12,0,69401
416,324,69870,5,6
478,253,70104,1,0
434,169,70338,1,8
341,188,70573,1,2
330,281,70807,2,0,B|287:259|238:281|238:281|194:300|145:278,1,188.160001794434,0|10
96,199,71510,1,0
57,284,71745,2,0,B|8:312|6:378,1,94.0800008972168,0|2
148,279,72213,2,0,B|199:303|256:272,1,94.0800008972168,10|0
95,199,72682,2,0,B|90:142|40:112|40:112|40:27,2,188.160001794434,0|8|2
0,197,73854,5,0
184,163,74088,2,0,B|286:164,1,94.0800008972168,8|2
361,208,74557,2,0,B|384:159|358:117,1,94.0800008972168,0|2
323,293,75026,2,0,B|300:342|331:394,1,94.0800008972168,10|0
406,335,75495,1,0
361,207,75729,1,2
236,259,75963,1,10
289,379,76198,1,0
323,293,76432,2,0,B|375:312|414:282|414:282|454:253|503:270,2,188.160001794434,2|8|6
362,207,77604,5,0
306,129,77838,2,0,B|267:158|268:212,1,94.0800008972168,8|2
452,194,78307,2,0,B|448:146|401:120,1,94.0800008972168,0|2
324,291,78776,2,0,B|368:311|415:284,1,94.0800008972168,10|0
268,368,79245,1,0
180,336,79479,1,2
180,244,79713,1,10
268,208,79948,1,0
324,292,80182,2,0,B|380:264|392:176|335:128,2,188.160001794434,0|8|2
268,208,81354,6,0,B|220:228|177:199,1,94.0800008972168,0|8
364,96,81823,2,0,B|371:45|417:23,1,94.0800008972168,2|0
408,268,82291,2,0,B|449:300|446:351,1,94.0800008972168,2|10
356,188,82760,1,0
356,188,82995,1,4
256,192,83112,12,4,84870
256,192,90495,12,4,91901
372,104,92370,22,0,B|416:120|456:104,2,84,6|0|0
376,188,93073,2,0,B|332:192|296:152|296:152|216:152,1,168,2|0
136,152,93776,1,0
180,80,94010,2,0,B|229:110|232:189|180:224,1,168,2|0
88,320,94713,1,0
220,300,94948,1,0
100,236,95182,1,2
164,360,95416,1,0
181,223,95651,1,2
181,223,96120,6,0,B|224:204|264:224,1,84,2|0
340,196,96588,1,0
395,64,96823,2,0,B|395:130|395:130|436:171|420:224,1,168,2|0
340,196,97526,1,0
260,222,97760,2,0,B|244:169|285:128|285:128|285:62,1,168,2|0
344,1,98463,2,0,B|380:37|368:89,1,84
229,123,98932,2,0,B|193:87|205:35,1,84,2|0
285,62,99401,1,2
287,66,99870,37,2
368,44,100104,1,0
392,124,100338,1,0
312,148,100573,2,0,B|320:208|408:232|448:188,1,168,2|0
392,124,101276,1,0
348,288,101510,2,0,B|304:280|272:252|272:252|184:252,1,168,2|0
112,216,102213,2,0,B|92:256|110:297,1,84
152,140,102682,2,0,B|172:100|152:56,1,84,2|0
76,96,103151,1,2
76,96,103620,5,2
112,216,103854,1,0
228,184,104088,1,0
196,64,104323,2,0,B|239:76|274:48|274:48|309:21|356:32,1,168,2|0
336,116,105026,1,0
420,132,105260,1,2
504,152,105495,38,0,B|485:212|433:229|377:214,1,126
409,219,105963,2,0,B|396:308,1,84,2|0
440,376,106432,2,0,B|468:360|476:332,4,42
356,376,107135,1,0
396,304,107370,6,0,B|356:284|316:304|316:304|272:324|232:304,1,168,4|8
272,232,108073,1,0
188,236,108307,2,0,B|196:284|233:304,1,84
356,224,108776,2,0,B|348:176|311:156,1,84,8|0
272,232,109245,1,0
236,116,109479,1,0
360,84,109713,1,8
388,200,109948,1,0
312,156,110182,2,0,B|284:220|192:212|168:168,2,168,0|0|0
388,200,111354,38,0,B|368:244|316:268,1,84,0|8
112,236,111823,2,0,B|140:272|184:280,1,84
236,115,112291,1,0
312,155,112526,1,8
232,30,112760,1,0
160,160,112995,2,0,B|110:164|78:125,1,84
312,156,113463,2,0,B|360:168|400:136,1,84,8|0
236,116,113932,2,0,B|208:176|248:240|304:240,2,168,0|0|4
312,156,115104,5,0
236,116,115338,2,0,B|192:108|152:136,1,84,8|0
315,241,115807,2,0,B|330:283|374:303,1,84
384,110,116276,2,0,B|412:75|408:31,1,84,8|0
312,156,116745,1,0
432,180,116979,1,0
456,72,117213,1,8
336,44,117448,1,0
385,110,117682,2,0,B|325:157|345:233|398:256,2,168,0|0|0
433,180,118854,37,0
271,151,119088,2,0,B|228:168|188:148,1,84,8|0
58,114,119557,1,0
140,218,119791,1,0
136,83,120026,1,8
59,198,120260,1,0
189,148,120495,1,0
256,192,120612,12,6,122370
398,327,123776,5,0
398,327,124010,1,0
398,327,124245,6,0,B|376:283|397:235|397:235|417:184|396:136,1,188.160001794434,6|8
489,235,124948,2,2,B|445:257|397:236|397:236|346:216|298:237,1,188.160001794434,0|0
350,317,125651,1,10
442,155,125885,2,0,B|390:136|352:136|352:136|357:97|331:43,1,188.160001794434,2|0
250,190,126588,2,0,B|268:144|255:97,1,94.0800008972168,10|0
195,265,127057,2,0,B|146:272|111:307,1,94.0800008972168,0|2
287,278,127526,2,0,B|317:316|365:328,1,94.0800008972168,10|2
250,190,127995,5,0
195,266,128229,1,0
226,354,128463,1,8
319,366,128698,2,2,B|373:344|380:292|380:292|467:292,1,188.160001794434,0|0
286,277,129401,1,10
256,187,129635,2,0,B|202:209|195:261|195:261|108:261,1,188.160001794434,2|0
179,131,130338,2,0,B|218:94|263:96,1,94.0800008972168,10|0
334,158,130807,1,2
280,11,131041,1,2
179,132,131276,1,8
184,136,131745,6,0,B|132:148|88:116,2,94.0800008972168,6|0|8
133,311,132448,2,2,B|160:224|160:224|208:228|252:200,1,188.160001794434,0|0
336,156,133151,1,10
324,248,133385,2,0,B|260:248|216:168|256:104,1,188.160001794434,2|0
408,96,134088,1,10
276,20,134323,1,0
336,156,134557,1,0
368,12,134791,1,2
253,107,135026,2,0,B|160:108,1,94.0800008972168,10|2
336,156,135495,6,8,B|396:208|468:188|492:128,1,188.160001794434,0|8
408,96,136198,2,2,B|404:146|432:186|432:186|459:227|455:273,1,188.160001794434,0|0
400,352,136901,2,0,B|356:324|360:264,1,94.0800008972168,10|2
455,276,137370,1,4
256,192,137487,12,0,138776
403,324,139245,6,0,B|444:270|404:210|404:210|404:133,1,188.160001794434,6|8
484,96,139948,2,2,B|448:160|364:160|324:100,1,188.160001794434,0|0
404,52,140651,1,10
404,240,140885,2,0,B|352:240|312:216|312:216|220:216,1,188.160001794434,2|0
140,164,141588,5,10
220,308,141823,1,0
304,164,142057,1,0
140,260,142291,1,2
300,260,142526,1,10
220,120,142760,1,2
140,260,142995,6,0,B|76:268|20:196|52:120,1,188.160001794434,0|8
140,68,143698,2,2,B|204:60|260:132|228:208,1,188.160001794434,0|0
140,164,144401,1,10
232,197,144635,2,0,B|279:219|324:197|324:197|370:178|416:196,1,188.160001794434,2|0
370,278,145338,1,10
327,363,145573,1,0
448,330,145807,1,2
414,196,146041,1,2
289,230,146276,1,8
293,233,146745,6,0,B|248:248|203:213|203:213|161:180|113:190,1,188.160001794434,6|8
188,304,147448,2,2,B|172:259|207:214|207:214|240:172|230:124,1,188.160001794434,0|0
140,152,148151,1,10
280,276,148385,2,0,B|344:276|344:276|404:316|464:276,1,188.160001794434,2|0
404,204,149088,1,10
452,124,149323,2,0,B|408:96|360:120,1,94.0800008972168
194,173,149791,2,0,B|240:196|284:168,1,94.0800008972168,2|10
232,92,150260,1,2
404,202,150495,6,0,B|404:264|404:264|440:328|399:384,1,188.160001794434,0|8
316,236,151198,2,2,B|316:176|316:176|280:112|320:56,1,188.160001794434,0|0
392,120,151901,1,10
208,120,152135,2,0,B|148:120|148:120|80:144|80:144|16:144,1,188.160001794434,2|0
0,52,152838,1,10
256,192,153073,12,6,154245
464,240,154596,6,0,B|417:253|384:298|394:351,1,141.120001345825
480,380,155182,1,2
464,240,155534,2,0,B|479:193|460:141|411:119,1,141.120001345825
378,207,156120,6,0,B|326:207|282:242,1,94.0800008972168,2|0
290,235,156471,2,0,B|178:234,1,94.0800008972168,2|2
171,275,156823,2,0,B|177:221|157:168,2,94.0800008972168,0|2|0
204,308,157409,2,2,B|154:299|105:319,1,94.0800008972168,2|0
34,262,157877,5,0
34,262,157995,2,0,B|47:187|9:127,2,141.120001345825,2|0|0
111,315,158932,2,0,B|153:296|224:312,1,94.0800008972168,2|0
249,320,159284,2,0,B|292:333|344:316,1,94.0800008972168
384,335,159635,2,0,B|367:284|377:238,1,94.0800008972168,0|2
403,152,160104,5,0
403,152,160221,1,2
419,59,160455,1,2
419,59,160573,2,0,B|418:34|412:9,2,47.0400004486084,0|0|2
256,192,160924,12,6,161745
484,340,162096,6,0,B|450:334|417:352|417:352|381:376|342:367,1,141.120001345825
256,356,162682,2,0,B|268:308|260:252,1,94.0800008972168,2|0
292,228,163034,2,0,B|244:240|196:220,1,94.0800008972168
156,208,163385,1,0
62,220,163620,6,0,B|54:168|94:132,1,94.0800008972168,2|0
135,119,163971,2,0,B|183:107|223:143,1,94.0800008972168,2|2
254,177,164323,2,0,B|301:193|346:173,1,94.0800008972168,0|2
388,155,164674,2,0,B|435:141|480:164,2,94.0800008972168,0|2|0
428,240,165377,5,0
427,240,165495,2,0,B|478:248|513:292|503:354,2,141.120001345825,2|0|0
337,266,166432,2,0,B|288:280|240:259,1,94.0800008972168,2|0
204,235,166784,2,0,B|155:222|105:241,1,94.0800008972168
78,271,167135,2,0,B|86:217|61:168,1,94.0800008972168,0|2
122,103,167604,5,0
123,102,167721,1,2
212,129,167955,1,2
212,129,168073,2,0,B|238:131|270:124,2,47.0400004486084,0|0|2
256,192,168424,12,4,169245
381,304,169479,6,0,B|424:290|462:309,1,84
304,339,169948,2,0,B|261:353|221:333|221:333|132:333,1,168,2|0
75,276,170651,1,0
58,358,170885,2,0,B|-11:347|-27:261|9:223,1,168,2|0
75,276,171588,2,0,B|155:248,1,84,0|0
190,172,172057,5,2
229,282,172291,1,0
127,322,172526,1,2
84,206,172760,1,2
229,282,172995,6,0,B|272:265|317:283,1,84,2|0
388,313,173463,1,0
374,229,173698,2,0,B|342:200|296:196|296:196|284:113,1,168,2|0
267,31,174401,1,0
346,57,174635,2,0,B|331:116|256:136|210:94,1,168,2|0
183,174,175338,2,0,B|142:160|127:115,1,84,2|0
263,197,175807,2,0,B|320:201|378:174|404:123,2,168,2|2|2
183,174,176979,5,0
118,227,177213,1,0
197,255,177448,2,0,B|175:312|104:331|56:283,1,168,2|0
118,227,178151,1,0
149,384,178385,2,0,B|196:376|224:349|224:349|313:350,1,168,2|0
452,178,179088,2,0,B|451:262,1,84,0|0
424,377,179557,5,2
308,350,179791,1,0
335,234,180026,1,2
451,261,180260,1,2
308,351,180495,6,0,B|214:350,1,84,2|0
102,286,180963,1,0
232,266,181198,1,2
140,360,181432,1,0
158,224,181666,1,2
225,350,181901,1,2
256,192,182018,12,0,183073
257,112,183307,6,0,B|257:12,1,84,2|0
