osu file format v12

[General]
AudioFilename: 12 - STARS (RyuRemix RRver.).mp3
AudioLeadIn: 1000
PreviewTime: -1
Countdown: 1
SampleSet: Normal
StackLeniency: 0.7
Mode: 0
LetterboxInBreaks: 1

[Editor]
Bookmarks: 101362,106666
DistanceSpacing: 2
BeatDivisor: 4
GridSize: 4

[Metadata]
Title:STARS (Ryu*Remix RRver.)
TitleUnicode:STARS (Ryu☆Remix RRver.)
Artist:Another Infinity feat. Mayumi Morinaga
ArtistUnicode:Another Infinity feat. Mayumi Morinaga
Creator:CSY the corrupt
Version:Hard
Source:REFLEC BEAT
Tags:limelight Rainbow☆Rainbow Sakura Luminance 神巫詞
BeatmapID:264692
BeatmapSetID:99529

[Difficulty]
HPDrainRate:6
CircleSize:4
OverallDifficulty:8
ApproachRate:9
SliderMultiplier:1.8
SliderTickRate:1

[Events]
//Background and Video events
0,0,"hehe.jpg",0,0
//Break Periods
//Storyboard Layer 0 (Background)
//Storyboard Layer 1 (Fail)
//Storyboard Layer 2 (Pass)
//Storyboard Layer 3 (Foreground)
//Storyboard Sound Samples
//Background Colour Transformations
3,100,163,162,255

[TimingPoints]
610,331.491712707182,4,2,0,30,1,0
610,-133.333333333333,4,2,0,30,0,0
5250,-200,4,2,0,30,0,0
5913,-133.333333333333,4,2,0,40,0,0
9891,-166.666666666667,4,2,0,50,0,0
10223,-133.333333333333,4,2,0,40,0,0
11217,-800,4,2,1,40,0,0
12377,-800,4,1,0,5,0,0
12460,-100,4,1,0,40,0,0
13869,-100,4,1,0,70,0,1
14035,-100,4,1,0,70,0,0
24477,-100,4,1,0,60,0,0
24808,-100,4,1,0,45,0,0
25140,-100,4,1,1,40,0,0
25471,-100,4,1,0,35,0,0
25803,-66.6666666666667,4,1,0,75,0,0
27129,-100,4,1,0,70,0,1
27295,-100,4,1,0,70,0,0
36079,-66.6666666666667,4,1,0,70,0,0
36411,-100,4,1,0,70,0,1
47018,-100,4,1,0,60,0,0
48344,-66.6666666666667,4,1,0,75,0,0
49670,-100,4,1,0,65,0,1
49836,-100,4,1,0,65,0,0
58952,-100,4,1,0,55,0,0
59284,-100,4,1,0,60,0,0
59615,-100,4,1,0,65,0,0
59947,-66.6666666666667,4,1,0,65,0,0
60278,-100,4,1,0,65,0,1
60444,-100,4,1,0,65,0,0
72212,-100,4,1,0,70,0,1
82819,-100,4,1,0,60,0,0
85471,-100,4,1,0,70,0,1
85637,-100,4,1,0,70,0,0
94919,-100,4,1,0,60,0,0
96079,-100,4,1,0,70,0,1
96245,-100,4,1,0,70,0,0
105361,-100,4,1,0,60,0,0
106687,-133.333333333333,4,2,0,40,0,0
111991,-100,4,1,0,55,0,0
117295,-200,4,1,0,40,0,0
118621,-133.333333333333,4,1,0,45,0,0
118952,-100,4,1,0,50,0,0
119284,-100,4,1,0,55,0,0
119615,-66.6666666666667,4,1,0,60,0,0
119947,-100,4,1,0,70,0,1
127902,-100,4,1,0,60,0,0
128068,-100,4,2,0,50,0,0
135858,-100,4,1,0,40,0,0

[Colours]
Combo1 : 205,188,65
Combo2 : 206,204,179
Combo3 : 18,124,255
Combo4 : 210,32,36

[HitObjects]
88,268,610,6,0,P|134:235|206:240,2,101.250003862381,0|0|0,0:0|0:0|0:0,0:0:0:0:
252,296,1272,6,0,P|275:244|258:174,2,101.250003862381
152,164,1935,5,0,0:0:0:0:
52,164,2184,1,0,0:0:0:0:
100,76,2433,1,0,0:0:0:0:
272,36,2598,5,0,0:0:0:0:
372,36,2847,1,0,0:0:0:0:
320,124,3096,1,0,0:0:0:0:
464,224,3261,6,0,P|444:272|396:320,1,101.250003862381
312,332,3759,1,0,0:0:0:0:
208,160,3924,5,0,0:0:0:0:
308,160,4173,2,0,P|339:176|378:228,1,101.250003862381
164,268,4587,5,0,0:0:0:0:
220,184,4836,1,0,0:0:0:0:
136,128,5085,1,0,0:0:0:0:
84,318,5250,6,0,P|120:352|168:356,1,90
408,184,5913,6,0,B|436:212|436:212|436:272,1,67.5000025749208,2|0,0:0|0:0,0:0:0:0:
420,272,6162,2,0,L|316:324,1,101.250003862381
176,176,6576,6,0,P|204:152|200:116,1,67.5000025749208,2|0,0:0|0:0,0:0:0:0:
172,108,6825,2,0,L|72:60,1,101.250003862381
28,296,7239,5,2,0:0:0:0:
136,336,7405,1,0,0:0:0:0:
168,328,7488,1,0,0:0:0:0:
248,236,7654,1,0,0:0:0:0:
280,248,7737,1,0,0:0:0:0:
312,260,7819,1,0,0:0:0:0:
344,272,7902,5,2,0:0:0:0:
396,356,8068,1,0,0:0:0:0:
428,340,8151,2,0,P|448:312|440:228,1,101.250003862381
300,136,8565,5,2,0:0:0:0:
376,64,8731,1,0,0:0:0:0:
356,36,8814,2,0,L|244:36,1,101.250003862381
136,164,9228,6,0,P|176:176|180:208,1,67.5000025749208,2|0,0:0|0:0,0:0:0:0:
168,228,9477,2,0,L|72:308,1,101.250003862381
32,120,9891,6,0,P|56:72|116:60,1,107.999996704102,2|0,0:0|0:0,0:0:0:0:
236,100,10389,5,0,0:0:0:0:
236,100,10471,1,0,0:0:0:0:
236,100,10554,2,0,L|288:40,1,67.5000025749208
384,40,10803,2,0,L|318:116,1,101.250003862381
263,183,11217,6,0,P|280:224|302:250,1,78.75
256,192,12460,12,0,13538,1:0:0:0:
240,152,13869,5,4,0:0:0:0:
204,252,14035,1,0,0:0:0:0:
188,268,14118,1,0,0:0:0:0:
172,284,14201,2,0,P|128:292|60:268,1,90
20,93,14532,2,0,P|77:110|138:173,1,135
84,282,14864,2,0,P|60:239|49:188,1,90
50,199,15195,1,0,0:0:0:0:
240,56,15361,5,0,0:0:0:0:
196,72,15444,1,0,0:0:0:0:
288,148,15609,1,0,0:0:0:0:
332,164,15692,1,0,0:0:0:0:
408,344,15858,2,0,P|352:320|320:232,1,135
476,180,16190,2,0,L|408:256,1,90
248,336,16521,5,0,0:0:0:0:
220,336,16604,1,0,0:0:0:0:
192,336,16687,1,0,0:0:0:0:
164,336,16770,1,0,0:0:0:0:
136,336,16853,1,0,0:0:0:0:
48,272,17018,1,0,0:0:0:0:
68,256,17101,1,0,0:0:0:0:
88,240,17184,6,0,B|136:196|136:196|72:132,1,135
52,120,17516,1,0,0:0:0:0:
176,64,17681,2,0,L|272:64,1,90
392,308,18013,6,0,L|424:216,1,90
348,168,18261,2,0,L|240:168,1,90
228,252,18510,2,0,L|318:252,1,90
428,148,18759,2,0,L|398:62,1,90,0|0,0:0|0:0,0:0:0:0:
320,28,19007,1,0,0:0:0:0:
300,28,19090,1,0,0:0:0:0:
280,28,19173,6,0,B|236:36|236:36|204:72,1,90,4|0,0:0|0:0,0:0:0:0:
204,180,19505,2,0,B|248:172|248:172|278:138,1,90
207,69,19836,2,0,L|103:69,1,90
68,92,20085,2,0,B|32:120|32:120|56:180,1,90
36,216,20333,1,0,0:0:0:0:
212,312,20499,5,4,0:0:0:0:
156,220,20665,1,0,0:0:0:0:
184,208,20748,1,0,0:0:0:0:
212,196,20830,1,0,0:0:0:0:
240,208,20913,1,0,0:0:0:0:
268,220,20996,1,0,0:0:0:0:
296,208,21079,1,0,0:0:0:0:
324,196,21162,6,0,P|352:160|368:104,1,90
352,96,21411,1,0,0:0:0:0:
328,84,21493,2,0,L|216:60,1,90
28,72,21825,5,4,0:0:0:0:
144,48,21991,1,0,0:0:0:0:
224,184,22156,1,0,0:0:0:0:
108,160,22322,1,0,0:0:0:0:
52,304,22488,2,0,P|96:340|192:352,1,135,4|0,0:0|0:0,0:0:0:0:
208,332,22819,2,0,L|272:244,1,90,4|0,0:0|0:0,0:0:0:0:
256,136,23151,6,0,L|293:111,1,45,4|0,0:0|0:0,0:0:0:0:
396,140,23317,5,0,0:0:0:0:
376,152,23400,2,0,L|328:184,1,45,0|4,0:0|0:0,0:0:0:0:
364,260,23565,5,0,0:0:0:0:
384,272,23648,2,0,L|424:296,1,45
356,356,23814,6,0,L|296:368,1,45,4|0,0:0|0:0,0:0:0:0:
252,316,23980,2,0,L|192:328,1,45,0|0,0:0|0:0,0:0:0:0:
107,280,24145,6,0,L|152:272,1,45
3,240,24311,2,0,L|48:232,1,45,0|0,0:0|0:0,0:0:0:0:
92,168,24477,6,0,P|104:108|16:128,1,180
56,352,25140,2,0,B|96:372|96:372|140:336|180:372|180:372|220:352,1,180
424,64,25803,5,4,0:0:0:0:
316,16,25969,1,4,0:0:0:0:
268,68,26051,1,4,0:0:0:0:
304,200,26217,1,4,0:0:0:0:
352,148,26299,1,4,0:0:0:0:
140,108,26466,5,4,0:0:0:0:
208,312,26632,1,4,0:0:0:0:
352,148,26797,2,0,P|332:88|252:72,1,135.000005149842,4|0,0:0|0:0,0:0:0:0:
140,108,27129,5,4,0:0:0:0:
152,128,27212,1,0,0:0:0:0:
164,148,27295,1,0,0:0:0:0:
152,168,27377,1,0,0:0:0:0:
140,188,27460,1,0,0:0:0:0:
28,152,27626,1,0,0:0:0:0:
83,300,27792,2,0,L|56:264,1,45
196,272,28040,2,0,L|240:264,1,45
336,336,28289,1,0,0:0:0:0:
452,124,28455,6,0,P|488:140|508:200,1,90
468,224,28703,2,0,L|348:248,1,90
320,252,28952,1,0,0:0:0:0:
72,152,29118,5,0,0:0:0:0:
204,60,29284,1,0,0:0:0:0:
216,220,29449,2,0,P|196:256|144:284,1,90
28,232,29781,5,0,0:0:0:0:
84,356,29947,1,0,0:0:0:0:
216,344,30112,2,0,L|280:272,1,90
396,216,30444,1,0,0:0:0:0:
384,196,30527,1,0,0:0:0:0:
372,176,30609,1,0,0:0:0:0:
388,160,30692,1,0,0:0:0:0:
404,144,30775,1,0,0:0:0:0:
356,48,30941,1,0,0:0:0:0:
248,28,31107,6,0,P|204:32|160:80,1,90
202,189,31355,2,0,P|228:152|232:108,1,90
40,184,31687,1,0,0:0:0:0:
16,232,31770,2,0,B|28:276|28:276|76:328,2,90
124,232,32267,1,0,0:0:0:0:
324,340,32433,6,0,P|260:344|180:292,1,135,4|0,0:0|0:0,0:0:0:0:
208,232,32764,2,0,P|252:204|296:200,1,90,4|0,0:0|0:0,0:0:0:0:
416,100,33096,1,0,0:0:0:0:
376,80,33179,1,0,0:0:0:0:
216,112,33344,1,0,0:0:0:0:
236,72,33427,1,0,0:0:0:0:
128,24,33593,1,0,0:0:0:0:
16,184,33759,6,0,P|60:184|112:152,1,90,4|0,0:0|0:0,0:0:0:0:
251,234,34007,2,0,P|224:204|180:184,1,90
164,96,34339,5,0,0:0:0:0:
200,68,34422,2,0,P|248:52|304:56,1,90,4|0,0:0|0:0,0:0:0:0:
344,200,34753,2,0,P|296:181|256:142,1,90,4|0,0:0|0:0,0:0:0:0:
477,39,35085,5,4,0:0:0:0:
465,59,35168,1,0,0:0:0:0:
453,79,35250,2,0,L|429:123,1,45
500,156,35416,5,4,0:0:0:0:
481,170,35499,1,0,0:0:0:0:
463,185,35581,2,0,L|425:218,1,45
480,276,35748,5,4,0:0:0:0:
457,282,35831,1,0,0:0:0:0:
435,290,35913,2,0,L|388:308,1,45
260,324,36079,6,0,P|272:253|324:249,1,135.000005149842,0|0,0:0|0:0,0:0:0:0:
313,101,36411,6,0,P|285:65|248:76,1,90,4|0,0:0|0:0,0:0:0:0:
232,92,36659,1,0,0:0:0:0:
222,112,36742,1,0,0:0:0:0:
232,220,36908,1,0,0:0:0:0:
128,256,37074,1,0,0:0:0:0:
108,248,37156,1,0,0:0:0:0:
88,240,37239,2,0,L|48:140,2,90
371,247,37737,6,0,P|335:279|296:288,1,90
276,284,37985,1,0,0:0:0:0:
256,280,38068,1,0,0:0:0:0:
248,152,38234,1,0,0:0:0:0:
268,140,38317,1,0,0:0:0:0:
288,128,38400,2,0,P|308:92|288:48,1,90
136,44,38731,1,0,0:0:0:0:
140,68,38814,1,0,0:0:0:0:
144,92,38897,1,0,0:0:0:0:
144,220,39063,5,0,0:0:0:0:
128,236,39145,1,0,0:0:0:0:
112,252,39228,1,0,0:0:0:0:
176,344,39394,2,0,P|224:360|280:352,1,90
294,231,39726,2,0,P|326:199|368:184,1,90
392,188,39974,1,0,0:0:0:0:
412,196,40057,1,0,0:0:0:0:
424,316,40223,1,0,0:0:0:0:
220,164,40389,6,0,L|252:80,1,90
232,68,40637,1,0,0:0:0:0:
212,56,40720,2,0,L|108:8,1,90
16,272,41051,1,0,0:0:0:0:
64,156,41217,1,0,0:0:0:0:
136,256,41383,1,0,0:0:0:0:
64,156,41549,1,0,0:0:0:0:
88,348,41714,6,0,P|124:376|176:384,1,90,4|0,0:0|0:0,0:0:0:0:
188,380,41963,1,0,0:0:0:0:
208,372,42046,2,0,P|240:340|256:264,1,90
172,144,42377,1,0,0:0:0:0:
264,200,42543,1,0,0:0:0:0:
288,196,42626,1,0,0:0:0:0:
312,192,42709,1,0,0:0:0:0:
384,104,42875,1,0,0:0:0:0:
448,276,43040,5,4,0:0:0:0:
432,292,43123,1,0,0:0:0:0:
416,308,43206,1,0,0:0:0:0:
296,324,43372,1,0,0:0:0:0:
308,304,43455,1,0,0:0:0:0:
320,284,43538,1,0,0:0:0:0:
240,124,43703,2,0,B|200:104|200:104|136:116,1,90
68,216,44035,2,0,B|108:236|108:236|172:224,1,90
316,52,44366,5,4,0:0:0:0:
396,148,44532,1,0,0:0:0:0:
288,212,44698,1,0,0:0:0:0:
268,216,44781,1,0,0:0:0:0:
248,220,44864,1,0,0:0:0:0:
44,284,45029,1,4,0:0:0:0:
128,316,45195,1,0,0:0:0:0:
120,132,45361,1,4,0:0:0:0:
124,224,45527,1,0,0:0:0:0:
204,264,45692,6,0,P|255:266|347:224,1,135,4|0,0:0|0:0,0:0:0:0:
352,158,46024,2,0,P|398:145|468:175,1,90,4|0,0:0|0:0,0:0:0:0:
256,192,46355,12,0,47018,0:0:0:0:
396,216,47184,5,0,0:0:0:0:
312,248,47350,1,0,0:0:0:0:
292,240,47433,1,0,0:0:0:0:
212,284,47598,1,0,0:0:0:0:
192,276,47681,1,0,0:0:0:0:
172,268,47764,1,0,0:0:0:0:
152,260,47847,1,0,0:0:0:0:
92,328,48013,1,0,0:0:0:0:
72,320,48096,1,0,0:0:0:0:
52,312,48179,1,0,0:0:0:0:
56,64,48344,5,4,0:0:0:0:
192,64,48510,1,4,0:0:0:0:
152,124,48593,1,4,0:0:0:0:
208,248,48759,1,4,0:0:0:0:
248,188,48842,1,4,0:0:0:0:
56,64,49007,5,4,0:0:0:0:
140,280,49173,1,4,0:0:0:0:
284,100,49339,2,0,P|252:40|164:32,1,135.000005149842,4|0,0:0|0:0,0:0:0:0:
56,144,49670,5,4,0:0:0:0:
124,228,49836,1,0,0:0:0:0:
148,232,49919,1,0,0:0:0:0:
172,236,50002,1,0,0:0:0:0:
272,196,50168,1,0,0:0:0:0:
344,352,50333,2,0,P|372:312|356:248,1,90
272,196,50665,1,0,0:0:0:0:
368,116,50830,1,0,0:0:0:0:
252,24,50996,5,0,0:0:0:0:
232,36,51079,1,0,0:0:0:0:
208,36,51162,1,0,0:0:0:0:
188,48,51245,1,0,0:0:0:0:
164,48,51328,1,0,0:0:0:0:
104,136,51493,1,0,0:0:0:0:
148,236,51659,2,0,P|172:244|192:264,2,45
40,256,51991,2,0,P|40:296|68:356,1,90
221,359,52322,6,0,P|265:339|284:304,1,90
280,280,52571,1,0,0:0:0:0:
276,256,52654,1,0,0:0:0:0:
348,164,52819,1,0,0:0:0:0:
460,320,52985,1,0,0:0:0:0:
440,308,53068,1,0,0:0:0:0:
419,297,53151,1,0,0:0:0:0:
448,184,53317,2,0,L|520:112,1,90
424,28,53648,5,0,0:0:0:0:
324,104,53814,1,0,0:0:0:0:
304,92,53897,1,0,0:0:0:0:
284,80,53980,1,0,0:0:0:0:
160,108,54145,1,0,0:0:0:0:
68,196,54311,5,0,0:0:0:0:
16,320,54477,1,0,0:0:0:0:
68,196,54643,1,0,0:0:0:0:
160,296,54808,1,0,0:0:0:0:
288,184,54974,6,0,P|284:136|261:101,1,90
152,64,55306,1,0,0:0:0:0:
308,16,55471,1,0,0:0:0:0:
332,20,55554,1,0,0:0:0:0:
356,24,55637,1,0,0:0:0:0:
404,136,55803,1,0,0:0:0:0:
424,124,55886,1,0,0:0:0:0:
444,112,55969,1,0,0:0:0:0:
512,200,56134,1,0,0:0:0:0:
400,344,56300,6,0,P|353:309|359:256,1,90
360,259,56549,1,0,0:0:0:0:
364,237,56632,2,0,P|357:196|293:147,1,90
192,140,56963,1,0,0:0:0:0:
100,252,57129,1,0,0:0:0:0:
120,264,57212,1,0,0:0:0:0:
140,276,57295,1,0,0:0:0:0:
264,232,57460,1,0,0:0:0:0:
88,140,57626,5,0,0:0:0:0:
96,120,57709,1,0,0:0:0:0:
112,104,57792,1,0,0:0:0:0:
116,80,57875,1,0,0:0:0:0:
132,64,57958,1,0,0:0:0:0:
272,76,58123,1,0,0:0:0:0:
420,136,58289,5,0,0:0:0:0:
412,156,58372,1,0,0:0:0:0:
396,172,58455,1,0,0:0:0:0:
392,196,58538,1,0,0:0:0:0:
376,212,58621,1,0,0:0:0:0:
264,328,58786,1,0,0:0:0:0:
140,344,58952,5,4,0:0:0:0:
120,336,59035,1,0,0:0:0:0:
100,328,59118,2,0,L|56:296,1,45
32,232,59284,5,4,0:0:0:0:
51,224,59367,1,0,0:0:0:0:
72,217,59450,2,0,L|126:212,1,45
184,176,59615,6,0,L|216:136,1,45
120,136,59781,2,0,L|152:96,1,45,0|0,0:0|0:0,0:0:0:0:
148,18,59947,6,0,P|90:10|72:72,1,135.000005149842
184,176,60278,5,4,0:0:0:0:
324,168,60444,1,0,0:0:0:0:
316,188,60527,1,0,0:0:0:0:
308,208,60609,2,0,P|320:252|392:292,1,90
466,219,60941,2,0,P|478:179|476:132,1,90
460,116,61190,1,0,0:0:0:0:
444,100,61272,1,0,0:0:0:0:
336,32,61438,1,0,0:0:0:0:
192,132,61604,5,0,0:0:0:0:
168,128,61687,1,0,0:0:0:0:
144,124,61770,1,0,0:0:0:0:
12,220,61935,2,0,B|36:264|36:264|100:284,1,90
184,232,62267,1,0,0:0:0:0:
296,272,62433,1,0,0:0:0:0:
308,292,62516,1,0,0:0:0:0:
320,312,62598,1,0,0:0:0:0:
416,240,62764,1,0,0:0:0:0:
424,220,62847,1,0,0:0:0:0:
432,200,62930,6,0,P|432:156|404:108,1,90
296,152,63261,1,0,0:0:0:0:
304,132,63344,1,0,0:0:0:0:
312,112,63427,1,0,0:0:0:0:
80,44,63593,2,0,P|96:89|126:116,1,90
150,120,63842,1,0,0:0:0:0:
170,132,63924,2,0,P|190:176|178:248,1,90
88,348,64256,6,0,L|32:260,1,90
192,216,64587,2,0,L|292:216,1,90
384,140,64919,1,0,0:0:0:0:
507,160,65085,1,0,0:0:0:0:
484,284,65250,1,0,0:0:0:0:
361,263,65416,1,0,0:0:0:0:
283,106,65582,6,0,P|239:106|200:128,1,90,4|0,0:0|0:0,0:0:0:0:
188,148,65830,1,0,0:0:0:0:
180,168,65913,1,0,0:0:0:0:
244,272,66079,1,0,0:0:0:0:
128,320,66245,1,0,0:0:0:0:
112,308,66328,1,0,0:0:0:0:
96,296,66411,1,0,0:0:0:0:
80,284,66493,1,0,0:0:0:0:
64,272,66576,1,0,0:0:0:0:
72,152,66742,1,0,0:0:0:0:
240,28,66908,6,0,P|264:64|256:128,1,90
252,128,67156,1,0,0:0:0:0:
236,144,67239,2,0,P|188:156|136:136,1,90
32,216,67571,1,0,0:0:0:0:
112,308,67737,1,0,0:0:0:0:
136,308,67819,1,0,0:0:0:0:
160,308,67902,1,0,0:0:0:0:
272,308,68068,1,0,0:0:0:0:
356,212,68234,6,0,P|364:164|408:128,1,90
256,40,68565,2,0,L|208:28,2,45
184,160,68897,2,0,P|144:184|80:184,1,90
20,300,69228,2,0,L|-4:348,2,45
112,112,69560,5,0,0:0:0:0:
185,314,69726,1,0,0:0:0:0:
216,124,69891,1,0,0:0:0:0:
257,236,70057,1,0,0:0:0:0:
292,48,70223,1,0,0:0:0:0:
365,250,70389,1,0,0:0:0:0:
396,60,70554,1,0,0:0:0:0:
437,172,70720,1,0,0:0:0:0:
256,192,70886,12,0,71880,0:0:0:0:
40,104,72212,6,0,L|152:64,1,90,4|0,0:0|0:0,0:0:0:0:
268,84,72543,1,0,0:0:0:0:
192,204,72709,1,0,0:0:0:0:
284,316,72875,1,0,0:0:0:0:
328,304,72958,1,0,0:0:0:0:
392,176,73123,1,0,0:0:0:0:
348,168,73206,1,0,0:0:0:0:
268,84,73372,1,0,0:0:0:0:
164,168,73538,6,0,P|116:180|76:160,1,90
28,104,73786,2,0,P|48:64|116:32,1,90
216,56,74118,1,0,0:0:0:0:
240,92,74201,2,0,P|288:116|344:116,1,90
360,48,74449,1,0,0:0:0:0:
400,64,74532,2,0,P|432:96|448:144,1,90
356,372,74864,5,0,0:0:0:0:
404,244,75029,1,0,0:0:0:0:
272,264,75195,1,0,0:0:0:0:
404,244,75361,1,0,0:0:0:0:
320,140,75527,2,0,L|268:116,1,45
172,36,75775,2,0,L|116:68,1,45
156,176,76024,1,0,0:0:0:0:
152,200,76107,1,0,0:0:0:0:
148,224,76190,6,0,L|72:280,1,90
88,364,76438,2,0,L|160:310,1,90
240,220,76770,1,0,0:0:0:0:
280,204,76853,2,0,B|324:200|324:200|384:248,1,90
384,312,77101,1,0,0:0:0:0:
340,324,77184,2,0,B|290:327|290:327|233:284,1,90
228,36,77516,5,4,0:0:0:0:
280,204,77681,1,0,0:0:0:0:
124,92,77847,1,0,0:0:0:0:
160,212,78013,1,0,0:0:0:0:
280,112,78179,1,0,0:0:0:0:
324,120,78261,1,0,0:0:0:0:
372,248,78427,1,0,0:0:0:0:
404,216,78510,1,0,0:0:0:0:
444,84,78676,1,0,0:0:0:0:
228,36,78842,6,0,B|184:48|184:48|152:104,1,90,4|0,0:0|0:0,0:0:0:0:
168,108,79090,1,0,0:0:0:0:
176,128,79173,1,0,0:0:0:0:
184,148,79256,1,0,0:0:0:0:
144,272,79422,1,0,0:0:0:0:
108,256,79505,1,0,0:0:0:0:
252,228,79670,1,0,0:0:0:0:
260,252,79753,1,0,0:0:0:0:
268,276,79836,2,0,P|252:320|204:356,1,90
344,36,80168,5,4,0:0:0:0:
460,52,80333,1,0,0:0:0:0:
512,156,80499,1,0,0:0:0:0:
396,140,80664,1,0,0:0:0:0:
332,240,80830,1,4,0:0:0:0:
372,264,80913,1,0,0:0:0:0:
256,320,81079,1,0,0:0:0:0:
212,332,81162,1,4,0:0:0:0:
108,244,81328,1,4,0:0:0:0:
192,136,81493,6,0,P|200:92|168:48,1,90,4|0,0:0|0:0,0:0:0:0:
24,60,81742,2,0,P|64:104|100:108,1,90
116,108,81991,1,0,0:0:0:0:
305,57,82156,5,4,0:0:0:0:
443,122,82322,1,0,0:0:0:0:
378,260,82488,1,4,0:0:0:0:
240,196,82654,1,4,0:0:0:0:
120,292,82819,5,4,0:0:0:0:
120,292,82985,1,0,0:0:0:0:
20,176,83151,1,0,0:0:0:0:
20,176,83234,1,0,0:0:0:0:
20,176,83317,1,0,0:0:0:0:
140,80,83482,1,0,0:0:0:0:
140,80,83565,1,0,0:0:0:0:
140,80,83648,1,0,0:0:0:0:
140,80,83731,1,0,0:0:0:0:
140,80,83814,1,0,0:0:0:0:
240,196,83980,1,0,0:0:0:0:
336,76,84145,5,0,0:0:0:0:
336,76,84311,1,0,0:0:0:0:
440,188,84477,1,0,0:0:0:0:
440,188,84560,1,0,0:0:0:0:
320,284,84726,1,0,0:0:0:0:
320,284,84808,1,0,0:0:0:0:
460,348,84974,1,0,0:0:0:0:
460,348,85057,1,0,0:0:0:0:
460,348,85140,1,0,0:0:0:0:
460,348,85223,1,0,0:0:0:0:
460,348,85306,1,0,0:0:0:0:
424,80,85471,5,4,0:0:0:0:
316,144,85637,1,0,0:0:0:0:
296,140,85720,1,0,0:0:0:0:
276,136,85803,1,0,0:0:0:0:
252,252,85969,1,0,0:0:0:0:
20,328,86134,2,0,P|96:351|148:339,1,135
172,296,86466,2,0,P|212:284|288:324,1,90
257,295,86797,1,0,0:0:0:0:
424,320,86963,6,0,B|444:280|444:280|420:212,1,90
368,200,87212,2,0,B|352:152|352:152|388:104,1,90
324,68,87460,2,0,L|216:32,1,90
176,76,87709,2,0,L|96:132,1,90
44,172,87958,1,0,0:0:0:0:
200,344,88123,6,0,P|224:304|208:248,1,90
204,244,88372,1,0,0:0:0:0:
188,228,88455,1,0,0:0:0:0:
260,104,88621,1,0,0:0:0:0:
472,172,88786,1,0,0:0:0:0:
452,184,88869,1,0,0:0:0:0:
432,196,88952,1,0,0:0:0:0:
412,208,89035,1,0,0:0:0:0:
392,220,89118,2,0,L|292:220,1,90
220,164,89449,1,0,0:0:0:0:
60,336,89615,6,0,P|28:280|40:244,1,90,4|0,0:0|0:0,0:0:0:0:
128,136,89864,2,0,P|128:188|80:248,1,90,4|0,0:0|0:0,0:0:0:0:
132,296,90112,1,4,0:0:0:0:
144,316,90195,1,0,0:0:0:0:
156,336,90278,1,0,0:0:0:0:
176,348,90361,1,0,0:0:0:0:
196,356,90444,1,4,0:0:0:0:
216,352,90527,1,0,0:0:0:0:
236,348,90609,1,0,0:0:0:0:
256,344,90692,1,0,0:0:0:0:
276,340,90775,6,0,B|320:316|320:316|352:308|380:336,2,90,4|0|0,0:0|0:0|0:0,0:0:0:0:
428,360,91272,1,0,0:0:0:0:
474,157,91438,2,0,P|428:173|372:248,1,135
504,320,91770,2,0,P|491:273|452:235,1,90
464,242,92101,1,0,0:0:0:0:
320,120,92267,5,0,0:0:0:0:
352,88,92350,1,0,0:0:0:0:
204,76,92516,1,0,0:0:0:0:
160,84,92598,1,0,0:0:0:0:
84,216,92764,1,0,0:0:0:0:
128,224,92847,1,0,0:0:0:0:
280,176,93013,1,0,0:0:0:0:
316,204,93096,2,0,P|332:241|328:289,1,90
208,352,93427,6,0,L|92:368,1,90
128,224,93759,2,0,L|16:192,1,90
216,24,94090,2,0,P|256:48|256:140,1,135
232,160,94422,1,0,0:0:0:0:
360,316,94587,1,0,0:0:0:0:
360,316,94919,5,0,0:0:0:0:
360,316,95002,1,0,0:0:0:0:
405,56,95168,1,0,0:0:0:0:
216,238,95416,1,0,0:0:0:0:
216,238,95499,1,0,0:0:0:0:
476,202,95665,1,0,0:0:0:0:
476,202,95748,1,0,0:0:0:0:
244,79,95913,1,0,0:0:0:0:
360,316,96079,6,0,P|312:352|256:352,1,90,4|0,0:0|0:0,0:0:0:0:
196,336,96411,2,0,L|104:288,1,90
296,160,96742,2,0,L|176:223,1,135
80,180,97074,2,0,L|172:132,1,90
159,138,97405,1,0,0:0:0:0:
408,52,97571,6,0,P|440:88|420:148,1,90
352,204,97819,2,0,P|340:156|372:108,1,90
440,240,98068,2,0,P|416:280|344:292,1,90
288,260,98317,2,0,P|252:224|192:224,1,90
144,252,98565,1,0,0:0:0:0:
32,60,98731,5,0,0:0:0:0:
204,140,98897,2,0,P|184:92|128:68,2,90
40,260,99394,2,0,L|88:184,1,90
108,176,99643,1,0,0:0:0:0:
128,184,99726,2,0,L|175:260,1,90
104,336,100057,1,0,0:0:0:0:
288,352,100223,5,0,0:0:0:0:
320,320,100306,1,0,0:0:0:0:
316,160,100471,1,0,0:0:0:0:
284,192,100554,1,0,0:0:0:0:
404,252,100720,1,0,0:0:0:0:
448,252,100803,1,0,0:0:0:0:
352,56,100969,1,0,0:0:0:0:
308,56,101052,1,0,0:0:0:0:
188,128,101217,1,0,0:0:0:0:
44,28,101383,5,4,0:0:0:0:
4,192,101549,1,0,0:0:0:0:
88,277,101714,1,0,0:0:0:0:
118,165,101880,1,0,0:0:0:0:
344,92,102046,2,0,P|300:136|228:156,1,135
168,48,102377,2,0,P|212:48|264:80,1,90
231,155,102709,1,0,0:0:0:0:
124,328,102875,6,0,P|168:328|212:292,1,90
248,244,103123,2,0,P|292:236|348:268,1,90
359,354,103372,2,0,P|320:348|288:312,1,90
332,252,103620,2,0,P|372:232|436:240,1,90
484,280,103869,1,0,0:0:0:0:
428,56,104035,5,0,0:0:0:0:
328,56,104201,1,0,0:0:0:0:
100,144,104366,1,0,0:0:0:0:
228,144,104532,1,0,0:0:0:0:
324,284,104698,1,0,0:0:0:0:
288,312,104780,1,0,0:0:0:0:
180,352,104947,1,0,0:0:0:0:
144,324,105029,1,0,0:0:0:0:
28,344,105195,1,0,0:0:0:0:
72,232,105361,5,4,0:0:0:0:
12,136,105527,5,0,0:0:0:0:
28,120,105609,2,0,L|76:72,1,45
192,64,105775,5,0,0:0:0:0:
176,80,105857,2,0,L|128:128,1,45
152,228,106024,6,0,L|200:180,1,45
300,188,106190,2,0,L|252:236,1,45
276,332,106355,6,0,L|324:284,1,45
392,323,106521,2,0,L|424:292,1,45
484,228,106687,5,4,1:0:0:0:
364,28,107350,1,0,0:0:0:0:
288,356,108013,1,0,0:0:0:0:
168,24,108676,1,0,0:0:0:0:
112,232,109339,5,0,0:0:0:0:
448,132,110002,1,0,0:0:0:0:
40,104,110665,1,0,0:0:0:0:
496,264,111328,1,0,0:0:0:0:
226,360,111991,5,4,0:0:0:0:
86,161,112322,1,0,0:0:0:0:
285,22,112654,1,0,0:0:0:0:
424,221,112985,1,0,0:0:0:0:
197,352,113317,5,0,0:0:0:0:
416,250,113648,1,0,0:0:0:0:
314,30,113980,1,0,0:0:0:0:
94,132,114311,1,0,0:0:0:0:
170,340,114643,5,0,0:0:0:0:
342,43,114974,1,0,0:0:0:0:
107,105,115306,1,0,0:0:0:0:
404,277,115637,1,0,0:0:0:0:
366,60,115969,5,0,0:0:0:0:
146,322,116300,1,0,0:0:0:0:
386,301,116632,1,0,0:0:0:0:
124,80,116963,1,0,0:0:0:0:
256,192,117295,5,0,2:0:0:0:
328,192,117626,1,0,2:0:0:0:
400,192,117958,1,0,2:0:0:0:
472,192,118289,1,0,2:0:0:0:
416,72,118621,6,0,B|384:56|384:56|328:56,1,67.5000025749208,0|0,3:0|3:0,0:0:0:0:
192,176,118952,6,0,B|232:200|232:200|288:200,1,90,0|0,3:0|3:0,0:0:0:0:
408,192,119284,5,0,3:0:0:0:
383,171,119366,1,0,3:0:0:0:
358,150,119449,1,0,3:0:0:0:
72,184,119615,6,0,P|57:132|113:84,1,135.000005149842
308,280,119947,6,0,P|284:320|244:333,1,90,4|0,0:0|0:0,0:0:0:0:
220,333,120195,1,0,0:0:0:0:
196,333,120278,1,0,0:0:0:0:
112,248,120444,1,0,0:0:0:0:
268,144,120609,1,0,0:0:0:0:
160,44,120775,1,0,0:0:0:0:
180,36,120858,1,0,0:0:0:0:
200,28,120941,2,0,L|304:28,1,90
440,136,121272,6,0,L|492:172,2,45
316,296,121604,2,0,L|316:360,2,45
212,196,121935,1,0,0:0:0:0:
280,68,122101,1,0,0:0:0:0:
136,72,122267,1,0,0:0:0:0:
280,68,122433,1,0,0:0:0:0:
212,296,122598,6,0,B|136:296|136:296|80:240,1,135,4|0,0:0|0:0,0:0:0:0:
24,232,122930,2,0,B|36:204|36:204|104:160,1,90
332,144,123261,2,0,L|259:197,1,90
235,197,123510,1,0,0:0:0:0:
211,197,123593,1,0,0:0:0:0:
136,72,123759,1,0,0:0:0:0:
388,44,123924,5,4,0:0:0:0:
480,128,124090,1,0,0:0:0:0:
388,340,124256,1,0,0:0:0:0:
480,256,124422,1,0,0:0:0:0:
244,192,124587,5,4,0:0:0:0:
372,192,124753,1,0,0:0:0:0:
116,64,124919,1,4,0:0:0:0:
116,192,125085,1,0,0:0:0:0:
276,340,125250,5,4,0:0:0:0:
160,312,125416,1,0,0:0:0:0:
152,292,125499,1,0,0:0:0:0:
144,272,125582,1,4,0:0:0:0:
16,200,125748,1,0,0:0:0:0:
116,64,125913,5,4,0:0:0:0:
136,72,125996,1,0,0:0:0:0:
156,80,126079,2,0,L|200:100,1,45
212,184,126245,5,4,0:0:0:0:
232,176,126328,1,0,0:0:0:0:
251,167,126411,2,0,L|296:150,1,45
340,76,126576,6,0,B|352:32|352:32|300:4,2,90,4|4|4,0:0|0:0|0:0,0:0:0:0:
420,168,127074,1,0,0:0:0:0:
412,188,127156,1,0,0:0:0:0:
404,208,127239,6,0,P|368:248|280:272,1,135,4|0,0:0|0:0,0:0:0:0:
144,292,127571,2,0,P|175:252|229:233,1,90,4|0,0:0|0:0,0:0:0:0:
292,272,127902,5,4,0:0:0:0:
356,104,128068,5,0,0:0:0:0:
276,32,128317,1,0,0:0:0:0:
200,108,128565,1,0,0:0:0:0:
120,36,128814,1,0,0:0:0:0:
44,112,129063,1,0,0:0:0:0:
124,312,129394,5,0,0:0:0:0:
200,236,129643,1,0,0:0:0:0:
96,208,129891,1,0,0:0:0:0:
124,312,130140,1,0,0:0:0:0:
200,236,130389,1,0,0:0:0:0:
440,136,130720,5,0,0:0:0:0:
340,180,130969,1,0,0:0:0:0:
340,72,131217,1,0,0:0:0:0:
440,28,131466,1,0,0:0:0:0:
440,136,131714,1,0,0:0:0:0:
284,344,132046,5,0,0:0:0:0:
196,284,132295,1,0,0:0:0:0:
276,212,132543,1,0,0:0:0:0:
228,116,132792,1,0,0:0:0:0:
276,20,133040,1,0,0:0:0:0:
256,192,133206,12,0,135858,2:0:0:0:
