osu file format v13

[General]
AudioFilename: Another Infinity feat. Mayumi Morinaga - Glitter (Starving Trancer Remix).mp3
AudioLeadIn: 0
PreviewTime: 16050
Countdown: 0
SampleSet: Soft
StackLeniency: 0.7
Mode: 0
LetterboxInBreaks: 1
EpilepsyWarning: 1
WidescreenStoryboard: 0

[Editor]
Bookmarks: 12835,28264,40264,43692,55692,57407,69407,71119,72833,98548,113978,127692,155119,160262,172262,213407,221978,223692
DistanceSpacing: 0.5
BeatDivisor: 4
GridSize: 4
TimelineZoom: 1.4

[Metadata]
Title:Glitter (Starving Trancer Remix)
TitleUnicode:Glitter (Starving Trancer Remix)
Artist:Another Infinity feat. Mayumi Morinaga
ArtistUnicode:Another Infinity feat. Mayumi Morinaga
Creator:wmtokok
Version:Insane
Source:FAIRY TAIL
Tags:Ending 11 Hinsvar Ryu☆ フェアリーテイル 森永真由美
BeatmapID:369246
BeatmapSetID:149424

[Difficulty]
HPDrainRate:7
CircleSize:4
OverallDifficulty:8
ApproachRate:8
SliderMultiplier:1.8
SliderTickRate:2

[Events]
//Background and Video events
0,0,"fairytailbg.jpg",0,0
//Break Periods
2,30178,39514
2,102178,113228
2,160264,171514
//Storyboard Layer 0 (Background)
//Storyboard Layer 1 (Fail)
//Storyboard Layer 2 (Pass)
//Storyboard Layer 3 (Foreground)
//Storyboard Sound Samples
//Background Colour Transformations
3,100,163,162,255

[TimingPoints]
2550,428.571428571429,4,2,0,50,1,0
16264,-100,4,2,3,85,0,1
18728,-100,4,2,2,85,0,1
18942,-100,4,2,3,85,0,1
22157,-100,4,2,2,85,0,1
22371,-100,4,2,3,85,0,1
25585,-100,4,2,2,85,0,1
25800,-100,4,2,3,85,0,1
28264,-100,4,2,3,60,0,1
29764,-100,4,2,1,60,0,1
29978,-100,4,2,3,85,0,0
40264,-100,4,2,3,60,0,0
41978,-100,4,2,3,75,0,0
43692,-200,4,2,0,70,0,0
55692,-200,4,2,0,60,0,0
57407,-100,4,2,3,70,0,0
69407,-100,4,2,3,75,0,0
71121,-133.333333333333,4,2,3,75,0,0
72835,-100,4,2,3,40,0,0
74550,-100,4,2,3,85,0,1
77014,-100,4,2,2,85,0,1
77228,-100,4,2,3,85,0,1
80442,-100,4,2,2,85,0,1
80657,-100,4,2,3,85,0,1
83871,-100,4,2,2,85,0,1
84085,-100,4,2,3,85,0,1
87407,-100,4,2,3,60,0,1
88264,-100,4,2,3,85,0,1
90728,-100,4,2,2,85,0,1
90942,-100,4,2,3,85,0,1
94157,-100,4,2,2,85,0,1
94371,-100,4,2,3,85,0,1
97585,-100,4,2,2,85,0,1
97800,-100,4,2,3,85,0,1
100264,-100,4,2,3,60,0,1
101764,-100,4,2,1,60,0,1
101978,-100,4,2,3,85,0,0
113978,-100,4,2,3,60,0,0
114835,-100,4,2,3,70,0,0
115692,-100,4,2,3,75,0,0
118157,-100,4,2,2,75,0,0
118371,-100,4,2,3,75,0,0
121585,-100,4,2,2,75,0,0
121800,-100,4,2,3,75,0,0
125014,-100,4,2,2,75,0,0
125228,-100,4,2,3,75,0,0
129407,-100,4,2,3,75,0,0
143121,-100,4,2,3,80,0,0
158550,-100,4,2,2,60,0,0
172264,-100,4,2,0,60,0,0
174835,-100,4,2,1,30,0,0
175050,-100,4,2,1,40,0,0
175264,-100,4,2,1,50,0,0
175692,-100,4,2,3,85,0,1
178157,-100,4,2,2,85,0,1
178371,-100,4,2,3,85,0,1
181585,-100,4,2,2,85,0,1
181800,-100,4,2,3,85,0,1
185014,-100,4,2,2,85,0,1
185228,-100,4,2,3,85,0,1
187692,-100,4,2,3,60,0,1
189407,-100,4,2,3,85,0,1
191871,-100,4,2,2,85,0,1
192085,-100,4,2,3,85,0,1
195300,-100,4,2,2,85,0,1
195514,-100,4,2,3,85,0,1
198728,-100,4,2,2,85,0,1
198942,-100,4,2,3,85,0,1
202692,-100,4,2,1,50,0,1
203121,-100,4,2,3,85,0,1
205585,-100,4,2,2,85,0,1
205800,-100,4,2,3,85,0,1
209014,-100,4,2,2,85,0,1
209228,-100,4,2,3,85,0,1
212442,-100,4,2,2,85,0,1
212657,-100,4,2,3,85,0,1
216835,-200,4,2,0,60,0,0
219300,-200,4,2,2,60,0,0
219514,-200,4,2,0,60,0,0
221978,-200,4,2,2,60,0,0

[Colours]
Combo1 : 255,255,128
Combo2 : 0,128,255
Combo3 : 255,128,128

[HitObjects]
384,60,2550,6,0,P|432:132|384:220,1,180,2|0,0:0|0:0,0:0:0:0:
328,292,3192,2,0,P|284:216|328:132,1,180,2|2,0:0|0:0,0:0:0:0:
248,36,3835,2,0,P|200:36|148:68,1,90,0|2,0:0|0:0,0:0:0:0:
60,84,4264,6,0,P|120:152|216:148,1,180,2|0,0:0|0:0,0:0:0:0:
312,84,4907,2,0,P|248:144|248:236,1,180,2|0,0:0|0:0,0:0:0:0:
424,284,5550,2,0,P|408:240|372:204,1,90,0|2,0:0|0:0,0:0:0:0:
312,300,5978,6,0,B|260:344|200:312|200:312|148:348,1,180,2|0,0:0|0:0,0:0:0:0:
68,272,6621,2,0,P|60:188|140:132,1,180,2|0,0:0|0:0,0:0:0:0:
240,136,7264,1,0,0:0:0:0:
192,40,7478,1,2,0:0:0:0:
288,220,7692,6,0,B|368:199|376:251|464:219,1,180,2|0,0:0|0:0,0:0:0:0:
372,52,8335,2,0,P|284:64|240:144,1,180,2|0,0:0|0:0,0:0:0:0:
287,308,8978,2,0,P|296:264|288:220,1,90,0|2,0:0|0:0,0:0:0:0:
80,172,9407,6,0,P|104:228|212:264,1,180,2|0,0:0|0:0,0:0:0:0:
320,352,10050,2,0,P|352:272|316:188,1,180,2|0,0:0|0:0,0:0:0:0:
236,80,10692,2,0,L|332:80,1,90,2|0,0:0|0:0,0:0:0:0:
416,224,11121,5,2,0:0:0:0:
144,224,11550,2,0,L|48:224,1,90,0|2,0:0|0:0,0:0:0:0:
384,128,12192,1,2,0:0:0:0:
128,128,12621,1,2,0:0:0:0:
152,304,12835,6,0,P|232:256|320:256,1,180,2|0,0:0|0:0,0:0:0:0:
424,240,13478,2,0,P|404:192|364:160,1,90,2|0,0:0|0:0,0:0:0:0:
184,44,13907,2,0,P|216:128|292:168,1,180,2|0,0:0|0:0,0:0:0:0:
144,204,14550,6,0,P|56:184|-16:244,1,180,2|0,0:0|0:0,0:0:0:0:
80,288,15192,2,0,P|168:308|240:248,1,180,2|0,0:0|0:0,0:0:0:0:
144,204,15835,1,2,0:0:0:0:
408,208,16264,6,0,P|424:156|416:120,1,90,4|0,0:0|0:0,0:0:0:0:
220,24,16692,1,8,0:0:0:0:
252,128,16907,2,0,P|292:152|352:152,1,90,0|0,0:0|0:0,0:0:0:0:
324,56,17335,1,0,0:0:0:0:
152,152,17550,1,8,0:0:0:0:
260,264,17764,1,0,0:0:0:0:
152,252,17978,6,0,P|120:292|80:300,1,90
83,300,18300,1,0,0:0:0:0:
83,300,18407,1,8,0:0:0:0:
80,112,18621,2,0,L|68:208,1,90,0|4,0:0|0:0,0:0:0:0:
264,304,19050,2,0,L|224:216,1,90,0|8,0:0|0:0,0:0:0:0:
240,116,19478,1,0,0:0:0:0:
368,320,19692,6,0,P|400:280|400:232,1,90,0|0,0:0|0:0,0:0:0:0:
360,48,20121,2,0,P|328:88|328:136,1,90,8|0,0:0|0:0,0:0:0:0:
325,125,20442,1,0,0:0:0:0:
325,125,20550,1,0,0:0:0:0:
488,168,20764,1,0,0:0:0:0:
327,234,20978,1,8,0:0:0:0:
394,74,21192,1,0,0:0:0:0:
461,235,21407,5,2,0:0:0:0:
300,168,21621,1,0,0:0:0:0:
461,101,21835,1,8,0:0:0:0:
327,101,22050,1,2,0:0:0:0:
394,262,22264,1,4,0:0:0:0:
260,48,22692,1,8,0:0:0:0:
92,128,22907,1,0,0:0:0:0:
112,152,23014,1,0,0:0:0:0:
144,160,23121,6,0,P|180:120|180:72,1,90,4|0,0:0|0:0,0:0:0:0:
80,40,23550,1,8,0:0:0:0:
144,244,23764,2,0,P|172:268|224:268,1,90,2|0,0:0|0:0,0:0:0:0:
256,164,24192,1,0,0:0:0:0:
320,320,24407,2,0,P|356:340|408:340,1,90,8|0,0:0|0:0,0:0:0:0:
432,324,24728,1,0,0:0:0:0:
448,296,24835,6,0,B|472:208|472:208|460:160,1,135,0|0,0:0|0:0,0:0:0:0:
416,132,25264,2,0,L|472:56,1,90,8|0,0:0|0:0,0:0:0:0:
304,72,25692,1,4,0:0:0:0:
202,130,25907,2,0,P|158:124|124:96,2,90,0|8|0,0:0|0:0|0:0,0:0:0:0:
288,196,26550,5,2,0:0:0:0:
200,280,26764,1,0,0:0:0:0:
372,280,26978,1,8,0:0:0:0:
372,112,27192,1,0,0:0:0:0:
440,196,27407,1,2,0:0:0:0:
288,280,27621,1,0,0:0:0:0:
288,112,27835,1,8,0:0:0:0:
200,196,28050,1,0,0:0:0:0:
108,128,28264,6,0,L|64:112,3,45,4|0|0|0,0:0|0:0|0:0|0:0,0:0:0:0:
72,168,28692,2,0,L|20:160,3,45,8|0|0|0,0:0|0:0|0:0|0:0,0:0:0:0:
60,208,29121,1,4,0:0:0:0:
72,240,29228,1,0,0:0:0:0:
68,272,29335,1,0,0:0:0:0:
80,304,29442,1,0,0:0:0:0:
104,324,29550,2,0,L|160:296,1,45,4|0,0:0|0:0,0:0:0:0:
224,308,29764,2,0,L|248:268,1,45,2|2,0:0|0:0,0:0:0:0:
272,192,29978,1,4,0:0:0:0:
364,88,40264,6,0,L|316:84,3,45,0|0|0|0,0:0|0:0|0:0|0:0,0:0:0:0:
428,88,40692,2,0,L|476:84,3,45,8|0|0|0,0:0|0:0|0:0|0:0,0:0:0:0:
364,156,41121,2,0,L|320:160,3,45,0|0|0|0,0:0|0:0|0:0|0:0,0:0:0:0:
428,156,41550,2,0,L|472:160,3,45,8|0|0|0,0:0|0:0|0:0|0:0,0:0:0:0:
412,256,41978,5,4,0:0:0:0:
392,268,42085,1,0,0:0:0:0:
372,280,42192,1,0,0:0:0:0:
288,192,42407,1,8,0:0:0:0:
192,264,42621,5,2,0:0:0:0:
172,276,42728,1,0,0:0:0:0:
152,288,42835,1,4,0:0:0:0:
80,192,43050,1,0,0:0:0:0:
192,96,43264,1,4,0:0:0:0:
208,80,43371,1,0,0:0:0:0:
224,64,43478,1,0,0:0:0:0:
240,48,43585,1,0,0:0:0:0:
252,36,43692,6,0,P|284:100|284:132,1,90,6|2,0:0|0:0,0:0:0:0:
328,152,44335,1,0,0:0:0:0:
176,256,44764,2,0,B|136:256|120:296|80:296,1,90,2|2,0:0|0:0,0:0:0:0:
268,292,45407,6,0,P|272:236|256:184,1,90,2|0,0:0|0:0,0:0:0:0:
316,224,46050,2,0,P|372:228|424:212,1,90,2|0,0:0|0:0,0:0:0:0:
448,188,46692,2,0,L|448:144,1,45,2|0,0:0|0:0,0:0:0:0:
376,64,47121,6,0,P|328:80|280:80,1,90,2|0,0:0|0:0,0:0:0:0:
232,88,47764,2,0,L|232:184,1,90,2|0,0:0|0:0,0:0:0:0:
184,208,48407,1,2,0:0:0:0:
184,264,48621,1,0,0:0:0:0:
88,184,48835,6,0,P|104:136|104:96,1,90,2|0,0:0|0:0,0:0:0:0:
88,184,49478,2,0,P|72:232|72:272,1,90,2|0,0:0|0:0,0:0:0:0:
128,336,50121,1,2,0:0:0:0:
128,336,50335,1,0,0:0:0:0:
216,264,50550,6,0,B|248:232|280:240|304:216,1,90,2|0,0:0|0:0,0:0:0:0:
336,264,51192,2,0,B|368:232|360:200|384:176,1,90,2|0,0:0|0:0,0:0:0:0:
432,176,51835,1,2,0:0:0:0:
280,116,52050,1,0,0:0:0:0:
280,116,52157,1,0,0:0:0:0:
280,116,52264,6,0,P|232:132|176:132,1,90,2|0,0:0|0:0,0:0:0:0:
164,180,52907,1,2,0:0:0:0:
240,304,53335,1,2,0:0:0:0:
320,240,53550,1,2,0:0:0:0:
400,304,53764,1,2,0:0:0:0:
424,288,53871,1,0,0:0:0:0:
440,264,53978,6,0,P|440:216|456:176,1,90,2|0,0:0|0:0,0:0:0:0:
352,128,54621,1,2,0:0:0:0:
236,256,55050,2,0,L|188:256,1,45,0|2,0:0|0:0,0:0:0:0:
156,300,55478,1,0,0:0:0:0:
144,188,55692,5,2,0:0:0:0:
156,168,55800,1,0,0:0:0:0:
144,148,55907,1,0,0:0:0:0:
112,88,56121,1,0,0:0:0:0:
168,48,56335,1,2,0:0:0:0:
188,36,56442,1,0,0:0:0:0:
208,48,56550,2,0,L|272:48,1,45,0|2,0:0|0:0,0:0:0:0:
360,120,56978,2,0,L|296:120,1,45,0|2,0:0|0:0,0:0:0:0:
380,220,57407,6,0,P|452:160|448:64,1,180,4|8,0:0|0:0,0:0:0:0:
272,116,58050,2,0,P|320:128|376:112,1,90,0|0,0:0|0:0,0:0:0:0:
320,20,58478,1,0,0:0:0:0:
272,212,58692,1,8,0:0:0:0:
160,184,58907,1,0,0:0:0:0:
160,184,59014,1,0,0:0:0:0:
160,184,59121,6,0,P|116:196|72:188,2,90,0|0|8,0:0|0:0|0:0,0:0:0:0:
116,84,59764,1,0,0:0:0:0:
200,280,59978,2,0,P|232:312|288:312,1,90
380,284,60407,1,8,0:0:0:0:
268,180,60621,1,0,0:0:0:0:
248,160,60728,1,0,0:0:0:0:
232,136,60835,6,0,P|312:168|408:168,1,180,0|8,0:0|0:0,0:0:0:0:
216,36,61478,2,0,P|184:120|192:208,1,180,0|0,0:0|0:0,0:0:0:0:
28,256,62121,1,8,0:0:0:0:
88,88,62335,1,0,0:0:0:0:
208,128,62550,5,0,0:0:0:0:
112,192,62764,1,0,0:0:0:0:
208,128,62978,1,8,0:0:0:0:
208,224,63192,1,0,0:0:0:0:
304,192,63407,1,0,0:0:0:0:
144,304,63621,1,0,0:0:0:0:
272,304,63835,1,10,0:0:0:0:
112,192,64050,1,2,0:0:0:0:
56,96,64264,6,0,B|84:48|84:48|144:20|204:52,1,180,0|8,0:0|0:0,0:0:0:0:
392,164,64907,1,0,0:0:0:0:
292,132,65121,1,0,0:0:0:0:
368,240,65335,1,0,0:0:0:0:
280,48,65550,1,10,0:0:0:0:
367,239,65764,6,0,P|390:278|432:300,1,90,2|0,0:0|0:0,0:0:0:0:
464,200,66192,1,0,0:0:0:0:
288,256,66407,1,8,0:0:0:0:
176,256,66621,2,0,L|112:256,2,45,0|0|0,0:0|0:0|0:0,0:0:0:0:
320,352,67050,1,2,0:0:0:0:
288,256,67264,1,10,0:0:0:0:
144,352,67478,1,2,0:0:0:0:
233,192,67692,6,0,B|212:112|264:104|232:16,1,180,0|8,0:0|0:0,0:0:0:0:
136,64,68335,2,0,P|121:105|130:149,1,90,0|0,0:0|0:0,0:0:0:0:
233,192,68764,1,0,0:0:0:0:
329,143,68978,2,0,P|344:102|335:58,1,90,10|2,0:0|0:0,0:0:0:0:
233,88,69407,5,4,0:0:0:0:
233,114,69514,1,0,0:0:0:0:
233,140,69621,1,0,0:0:0:0:
233,166,69728,1,0,0:0:0:0:
233,192,69835,1,8,0:0:0:0:
196,296,70050,1,0,0:0:0:0:
196,296,70264,2,0,P|149:343|84:352,2,135,4|0|0,0:0|0:0|0:0,0:0:0:0:
100,240,71121,6,0,P|144:176|144:104,1,135.000005149842,4|0,0:0|0:0,0:0:0:0:
96,56,71764,1,0,0:0:0:0:
236,80,71978,2,0,P|272:88|316:76,1,67.5000025749208,0|0,0:0|0:0,0:0:0:0:
376,48,72407,1,0,0:0:0:0:
308,160,72621,1,0,0:0:0:0:
256,192,72835,12,0,74121,0:0:0:0:
308,316,74550,6,0,L|328:208,1,90,4|0,0:0|0:0,0:0:0:0:
456,252,74978,1,8,0:0:0:0:
216,160,75192,1,2,0:0:0:0:
184,268,75407,1,0,0:0:0:0:
304,120,75621,1,2,0:0:0:0:
404,164,75835,1,8,0:0:0:0:
352,56,76050,1,0,0:0:0:0:
328,40,76157,1,0,0:0:0:0:
304,24,76264,6,0,B|240:24|208:80|208:80|144:96,1,180,0|8,0:0|0:0,0:0:0:0:
144,208,76907,1,2,0:0:0:0:
44,156,77121,1,4,0:0:0:0:
132,316,77335,1,2,0:0:0:0:
204,112,77550,1,8,0:0:0:0:
272,256,77764,1,0,0:0:0:0:
296,240,77871,1,0,0:0:0:0:
320,224,77978,6,0,P|340:180|340:136,2,90,0|0|8,0:0|0:0|0:0,0:0:0:0:
168,296,78621,2,0,P|104:232|104:136,1,180,0|0,0:0|0:0,0:0:0:0:
240,28,79264,2,0,P|272:64|272:108,1,90,8|0,0:0|0:0,0:0:0:0:
221,314,79692,6,0,P|260:292|288:256,1,90,2|0,0:0|0:0,0:0:0:0:
364,92,80121,2,0,P|404:112|428:156,1,90,8|2,0:0|0:0,0:0:0:0:
352,272,80550,1,4,0:0:0:0:
336,292,80657,1,0,0:0:0:0:
320,312,80764,1,0,0:0:0:0:
304,332,80871,1,0,0:0:0:0:
288,352,80978,1,8,0:0:0:0:
164,296,81192,1,0,0:0:0:0:
164,160,81407,6,0,L|221:90,1,90,4|0,0:0|0:0,0:0:0:0:
128,36,81835,1,8,0:0:0:0:
296,152,82050,2,0,L|238:221,1,90,2|0,0:0|0:0,0:0:0:0:
112,328,82478,2,0,L|48:264,2,90,2|8|0,0:0|0:0|0:0,0:0:0:0:
224,320,83121,6,0,B|224:256|160:224|160:224|160:160,1,180,0|8,0:0|0:0,0:0:0:0:
160,56,83764,1,2,0:0:0:0:
80,192,83978,1,4,0:0:0:0:
240,192,84192,1,2,0:0:0:0:
336,56,84407,1,8,0:0:0:0:
416,192,84621,1,0,0:0:0:0:
416,192,84728,1,0,0:0:0:0:
416,192,84835,6,0,P|352:256|364:352,1,180,0|8,0:0|0:0,0:0:0:0:
456,296,85478,1,0,0:0:0:0:
424,112,85692,2,0,P|380:118|348:147,1,90,0|0,0:0|0:0,0:0:0:0:
200,208,86121,2,0,L|136:240,1,45,8|0,0:0|0:0,0:0:0:0:
152,176,86335,2,0,L|88:176,1,45,0|0,0:0|0:0,0:0:0:0:
64,144,86550,6,0,P|32:80|64:16,2,135,4|2|2,0:0|0:0|0:0,0:0:0:0:
176,64,87407,2,0,P|224:32|304:48,2,135,4|2|2,0:0|0:0|0:0,0:0:0:0:
336,176,88264,6,0,P|400:112|400:16,1,180,4|8,0:0|0:0,0:0:0:0:
296,68,88907,1,2,0:0:0:0:
296,68,89014,1,0,0:0:0:0:
296,68,89121,1,0,0:0:0:0:
432,224,89335,1,2,0:0:0:0:
272,320,89550,1,8,0:0:0:0:
384,320,89764,1,0,0:0:0:0:
172,240,89978,6,0,P|136:236|88:208,1,90,0|0,0:0|0:0,0:0:0:0:
88,104,90407,1,8,0:0:0:0:
260,160,90621,1,2,0:0:0:0:
196,60,90835,1,4,0:0:0:0:
172,240,91050,2,0,P|160:288|120:312,1,90,2|8,0:0|0:0,0:0:0:0:
260,160,91478,1,0,0:0:0:0:
260,160,91585,1,0,0:0:0:0:
260,160,91692,6,0,L|320:84,1,90,0|0,0:0|0:0,0:0:0:0:
312,232,92121,1,8,0:0:0:0:
208,84,92335,2,0,L|116:84,2,90,0|0|0,0:0|0:0|0:0,0:0:0:0:
396,176,92978,1,8,0:0:0:0:
172,216,93192,1,0,0:0:0:0:
316,328,93407,5,2,0:0:0:0:
396,276,93621,1,0,0:0:0:0:
312,232,93835,1,8,0:0:0:0:
400,372,94050,1,2,0:0:0:0:
232,284,94264,1,4,0:0:0:0:
448,156,94692,2,0,L|404:164,1,45,8|0,0:0|0:0,0:0:0:0:
352,184,94907,2,0,L|308:168,1,45,0|0,0:0|0:0,0:0:0:0:
256,152,95121,6,0,P|160:144|100:84,1,180,4|8,0:0|0:0,0:0:0:0:
208,52,95764,1,2,0:0:0:0:
32,204,95978,2,0,P|24:164|40:112,1,90,0|0,0:0|0:0,0:0:0:0:
168,256,96407,1,8,0:0:0:0:
188,240,96514,1,0,0:0:0:0:
208,224,96621,1,0,0:0:0:0:
232,208,96728,1,0,0:0:0:0:
256,192,96835,6,0,P|328:140|436:156,1,180,0|8,0:0|0:0,0:0:0:0:
414,330,97478,2,0,P|380:301|364:260,1,90,0|4,0:0|0:0,0:0:0:0:
360,48,97907,1,2,0:0:0:0:
464,236,98121,1,8,0:0:0:0:
268,96,98335,1,2,0:0:0:0:
192,268,98550,6,0,P|172:312|132:328,1,90
228,172,98978,2,0,P|272:192|288:232,1,90,8|0,0:0|0:0,0:0:0:0:
128,192,99407,2,0,P|124:148|152:112,1,90
268,96,99835,1,8,0:0:0:0:
88,272,100050,1,0,0:0:0:0:
304,176,100264,6,0,L|352:164,3,45,4|0|0|0,0:0|0:0|0:0|0:0,0:0:0:0:
344,220,100692,2,0,L|392:220,3,45,8|0|0|0,0:0|0:0|0:0|0:0,0:0:0:0:
364,268,101121,1,4,0:0:0:0:
376,300,101228,1,0,0:0:0:0:
368,332,101335,1,0,0:0:0:0:
336,344,101442,1,0,0:0:0:0:
304,356,101550,2,0,L|248:328,1,45,4|0,0:0|0:0,0:0:0:0:
184,340,101764,2,0,L|160:300,1,45,2|2,0:0|0:0,0:0:0:0:
136,224,101978,1,4,0:0:0:0:
112,296,113978,5,4,0:0:0:0:
128,280,114085,1,0,0:0:0:0:
144,264,114192,1,0,0:0:0:0:
160,248,114300,1,0,0:0:0:0:
176,232,114407,1,8,0:0:0:0:
192,216,114514,1,0,0:0:0:0:
208,200,114621,1,2,0:0:0:0:
224,184,114728,1,0,0:0:0:0:
240,168,114835,5,4,0:0:0:0:
352,168,115050,1,0,0:0:0:0:
304,72,115264,1,4,0:0:0:0:
292,52,115371,1,0,0:0:0:0:
272,40,115478,1,0,0:0:0:0:
252,32,115585,1,0,0:0:0:0:
228,32,115692,6,0,L|132:32,1,90,4|0,0:0|0:0,0:0:0:0:
64,192,116121,2,0,L|160:192,1,90,8|0,0:0|0:0,0:0:0:0:
288,304,116550,2,0,L|192:304,1,90,0|2,0:0|0:0,0:0:0:0:
368,144,116978,2,0,L|464:144,1,90,8|2,0:0|0:0,0:0:0:0:
292,232,117407,6,0,P|256:144|292:56,1,180,0|8,0:0|0:0,0:0:0:0:
192,288,118050,1,0,0:0:0:0:
64,288,118264,1,4,0:0:0:0:
192,288,118478,1,0,0:0:0:0:
72,192,118692,2,0,P|64:148|76:104,1,90,10|2,0:0|0:0,0:0:0:0:
304,84,119121,6,0,P|233:137|144:148,1,180,0|8,0:0|0:0,0:0:0:0:
224,240,119764,2,0,P|256:208|384:176,1,180,0|0,0:0|0:0,0:0:0:0:
464,320,120407,2,0,L|464:230,1,90,10|2,0:0|0:0,0:0:0:0:
320,256,120835,5,0,0:0:0:0:
256,320,121050,1,0,0:0:0:0:
384,320,121264,1,8,0:0:0:0:
192,256,121478,1,0,0:0:0:0:
128,320,121692,1,4,0:0:0:0:
128,32,122121,1,10,0:0:0:0:
128,32,122335,1,2,0:0:0:0:
224,64,122550,6,0,B|192:128|128:128|128:128|128:192,1,180,4|8,0:0|0:0,0:0:0:0:
256,192,123192,1,0,0:0:0:0:
280,168,123300,1,0,0:0:0:0:
304,144,123407,1,0,0:0:0:0:
56,176,123621,1,0,0:0:0:0:
188,312,123835,1,10,0:0:0:0:
80,284,124050,1,2,0:0:0:0:
296,344,124264,6,0,P|360:280|360:184,1,180,0|8,0:0|0:0,0:0:0:0:
256,192,124907,1,0,0:0:0:0:
240,220,125014,1,0,0:0:0:0:
224,248,125121,1,4,0:0:0:0:
384,112,125335,1,2,0:0:0:0:
112,112,125550,1,8,0:0:0:0:
256,56,125764,1,2,0:0:0:0:
140,224,125978,6,0,P|160:312|248:332,1,180,0|8,0:0|0:0,0:0:0:0:
348,288,126621,2,0,L|444:256,2,90,0|0|2,0:0|0:0|0:0,0:0:0:0:
348,288,127157,1,0,0:0:0:0:
348,288,127264,1,8,0:0:0:0:
252,180,127478,1,2,0:0:0:0:
368,96,127692,6,0,L|416:96,3,45,4|0|0|0,0:0|0:0|0:0|0:0,0:0:0:0:
368,144,128121,2,0,L|320:144,3,45,8|0|0|0,0:0|0:0|0:0|0:0,0:0:0:0:
368,192,128550,2,0,L|368:288,1,90,4|0,0:0|0:0,0:0:0:0:
128,304,128978,1,4,0:0:0:0:
256,188,129192,1,2,0:0:0:0:
96,176,129407,6,0,P|176:96|256:96,1,180,4|8,0:0|0:0,0:0:0:0:
208,212,130050,1,0,0:0:0:0:
344,220,130264,1,0,0:0:0:0:
208,212,130478,1,2,0:0:0:0:
400,276,130692,1,8,0:0:0:0:
408,148,130907,1,2,0:0:0:0:
408,120,131014,1,0,0:0:0:0:
416,96,131121,6,0,B|340:92|296:64|296:64|240:96,1,180,0|8,0:0|0:0,0:0:0:0:
148,100,131764,1,0,0:0:0:0:
148,100,131871,1,0,0:0:0:0:
148,100,131978,1,0,0:0:0:0:
120,280,132192,1,0,0:0:0:0:
84,168,132407,2,0,P|48:128|8:120,1,90,8|0,0:0|0:0,0:0:0:0:
200,192,132835,6,0,P|256:200|288:192,1,90,0|0,0:0|0:0,0:0:0:0:
372,264,133264,1,8,0:0:0:0:
480,268,133478,2,0,P|475:223|447:189,1,90,0|0,0:0|0:0,0:0:0:0:
240,88,133907,2,0,P|280:104|336:104,1,90,0|8,0:0|0:0,0:0:0:0:
128,144,134335,1,2,0:0:0:0:
128,144,134442,1,0,0:0:0:0:
128,144,134550,6,0,P|96:184|96:240,1,90,0|0,0:0|0:0,0:0:0:0:
432,132,134978,2,0,P|420:88|376:56,1,90,8|0,0:0|0:0,0:0:0:0:
272,184,135407,2,0,P|240:220|240:280,1,90,0|0,0:0|0:0,0:0:0:0:
380,280,135835,2,0,P|428:296|480:280,1,90,10|2,0:0|0:0,0:0:0:0:
272,184,136264,6,0,P|192:168|96:184,1,180,0|8,0:0|0:0,0:0:0:0:
36,276,136907,2,0,P|64:192|48:104,1,180,0|0,0:0|0:0,0:0:0:0:
140,44,137550,1,10,0:0:0:0:
216,220,137764,1,2,0:0:0:0:
240,232,137871,1,0,0:0:0:0:
268,240,137978,6,0,B|308:172|308:172|356:204|404:188,1,180,0|8,0:0|0:0,0:0:0:0:
372,88,138621,1,0,0:0:0:0:
372,88,138728,1,0,0:0:0:0:
372,88,138835,1,0,0:0:0:0:
276,16,139050,1,2,0:0:0:0:
92,44,139264,1,8,0:0:0:0:
188,96,139478,1,2,0:0:0:0:
64,144,139692,6,0,L|16:240,1,90,0|0,0:0|0:0,0:0:0:0:
188,6,140121,2,0,L|188:96,1,90,8|0,0:0|0:0,0:0:0:0:
336,352,140550,2,0,L|336:262,1,90,0|0,0:0|0:0,0:0:0:0:
423,127,140978,2,0,L|464:208,1,90,10|2,0:0|0:0,0:0:0:0:
236,192,141407,5,2,0:0:0:0:
148,128,141621,1,0,0:0:0:0:
236,64,141835,1,8,0:0:0:0:
48,184,142050,1,2,0:0:0:0:
28,164,142157,1,0,0:0:0:0:
28,136,142264,1,0,0:0:0:0:
216,128,142478,1,2,0:0:0:0:
144,208,142692,1,8,0:0:0:0:
128,224,142800,1,0,0:0:0:0:
112,240,142907,1,0,0:0:0:0:
96,256,143014,1,0,0:0:0:0:
80,272,143121,6,0,B|80:320|80:320|128:352|208:352,1,180,4|8,0:0|0:0,0:0:0:0:
436,336,143764,1,0,0:0:0:0:
264,268,143978,1,0,0:0:0:0:
364,276,144192,2,0,P|396:236|396:196,1,90,0|8,0:0|0:0,0:0:0:0:
320,96,144621,1,0,0:0:0:0:
300,76,144728,1,0,0:0:0:0:
288,48,144835,6,0,B|224:48|224:144|224:144|160:144,1,180,0|8,0:0|0:0,0:0:0:0:
128,64,145478,1,2,0:0:0:0:
284,200,145692,1,0,0:0:0:0:
80,120,145907,1,0,0:0:0:0:
176,192,146121,2,0,P|176:256|152:296,1,90,10|0,0:0|0:0,0:0:0:0:
136,304,146442,1,0,0:0:0:0:
108,332,146550,6,0,P|76:276|84:228,1,90,0|0,0:0|0:0,0:0:0:0:
80,120,146978,1,8,0:0:0:0:
166,278,147192,2,0,P|198:302|246:318,1,90,0|0,0:0|0:0,0:0:0:0:
384,184,147621,1,0,0:0:0:0:
304,240,147835,1,8,0:0:0:0:
384,96,148050,1,2,0:0:0:0:
384,96,148157,1,0,0:0:0:0:
384,96,148264,6,0,P|320:64|208:64,1,180,0|8,0:0|0:0,0:0:0:0:
112,20,148907,1,0,0:0:0:0:
112,20,149014,1,0,0:0:0:0:
112,20,149121,1,0,0:0:0:0:
128,128,149335,1,0,0:0:0:0:
188,220,149550,1,10,0:0:0:0:
20,88,149764,1,2,0:0:0:0:
96,256,149978,6,0,B|128:320|192:320|192:320|240:368,1,180,0|8,0:0|0:0,0:0:0:0:
308,192,150621,1,0,0:0:0:0:
304,296,150835,2,0,P|345:311|377:343,1,90,0|0,0:0|0:0,0:0:0:0:
408,148,151264,2,0,P|440:116|488:100,1,90,10|2,0:0|0:0,0:0:0:0:
256,96,151692,6,0,L|144:96,2,90,0|0|8,0:0|0:0|0:0,0:0:0:0:
352,64,152335,1,0,0:0:0:0:
324,192,152550,1,0,0:0:0:0:
108,216,152764,1,2,0:0:0:0:
236,160,152978,1,8,0:0:0:0:
216,292,153192,1,2,0:0:0:0:
128,128,153407,6,0,P|192:64|288:64,1,180,0|8,0:0|0:0,0:0:0:0:
336,156,154050,2,0,P|372:132|388:84,1,90,0|0,0:0|0:0,0:0:0:0:
408,248,154478,2,0,P|440:280|504:280,2,90,2|8|2,0:0|0:0|0:0,0:0:0:0:
296,248,155121,5,4,0:0:0:0:
280,248,155228,1,0,0:0:0:0:
264,248,155335,1,0,0:0:0:0:
248,248,155442,1,0,0:0:0:0:
232,248,155550,1,8,0:0:0:0:
128,288,155764,1,0,0:0:0:0:
112,184,155978,5,4,0:0:0:0:
112,168,156085,1,0,0:0:0:0:
112,152,156192,1,0,0:0:0:0:
112,136,156300,1,0,0:0:0:0:
112,120,156407,1,8,0:0:0:0:
216,168,156621,1,0,0:0:0:0:
256,64,156835,6,0,P|208:32|128:16,2,135,4|2|2,0:0|0:0|0:0,0:0:0:0:
256,320,157692,2,0,P|304:352|384:368,2,135,2|2|2,0:0|0:0|0:0,0:0:0:0:
256,192,158550,1,4,0:0:0:0:
256,192,172264,12,4,173978,0:0:0:0:
176,232,174835,5,2,0:0:0:0:
176,252,174942,1,2,0:0:0:0:
176,272,175050,1,2,0:0:0:0:
288,288,175264,1,2,0:0:0:0:
308,288,175371,1,2,0:0:0:0:
328,288,175478,1,2,0:0:0:0:
348,288,175585,1,2,0:0:0:0:
368,288,175692,6,0,P|432:224|432:128,1,180,4|8,0:0|0:0,0:0:0:0:
368,56,176335,1,2,0:0:0:0:
288,224,176550,1,0,0:0:0:0:
304,28,176764,1,2,0:0:0:0:
224,196,176978,1,8,0:0:0:0:
116,252,177192,1,0,0:0:0:0:
96,240,177300,1,0,0:0:0:0:
80,224,177407,6,0,P|64:128|112:48,1,180,2|8,0:0|0:0,0:0:0:0:
176,128,178050,1,2,0:0:0:0:
176,128,178157,1,0,0:0:0:0:
176,128,178264,1,4,0:0:0:0:
192,16,178478,1,2,0:0:0:0:
224,208,178692,1,8,0:0:0:0:
256,96,178907,1,0,0:0:0:0:
272,280,179121,6,0,P|344:336|436:304,1,180,0|8,0:0|0:0,0:0:0:0:
456,96,179764,1,0,0:0:0:0:
364,152,179978,2,0,L|360:248,1,90,0|0,0:0|0:0,0:0:0:0:
178,49,180407,2,0,L|256:96,1,90,8|0,0:0|0:0,0:0:0:0:
120,172,180835,5,2,0:0:0:0:
136,188,180942,1,0,0:0:0:0:
152,204,181050,1,0,0:0:0:0:
152,312,181264,1,8,0:0:0:0:
236,204,181478,1,2,0:0:0:0:
252,188,181585,1,0,0:0:0:0:
268,172,181692,1,4,0:0:0:0:
236,312,181907,1,0,0:0:0:0:
192,128,182121,1,8,0:0:0:0:
172,108,182228,1,0,0:0:0:0:
152,88,182335,1,0,0:0:0:0:
132,68,182442,1,0,0:0:0:0:
112,48,182550,6,0,B|160:0|224:16|224:16|288:16,1,180,4|8,0:0|0:0,0:0:0:0:
420,196,183192,1,2,0:0:0:0:
304,108,183407,1,0,0:0:0:0:
450,111,183621,1,0,0:0:0:0:
330,194,183835,1,8,0:0:0:0:
378,56,184050,1,0,0:0:0:0:
420,196,184264,6,0,B|408:296|284:300,1,180,0|8,0:0|0:0,0:0:0:0:
164,296,184907,2,0,P|172:256|164:208,1,90,0|4,0:0|0:0,0:0:0:0:
108,48,185335,1,2,0:0:0:0:
24,212,185550,1,8,0:0:0:0:
16,112,185764,1,2,0:0:0:0:
288,120,185978,5,0,0:0:0:0:
288,120,186407,2,0,L|384:100,2,90,8|0|0,0:0|0:0|0:0,0:0:0:0:
448,84,187050,2,0,L|456:32,2,45,0|0|8,0:0|0:0|0:0,0:0:0:0:
488,188,187478,1,0,0:0:0:0:
392,308,187692,5,4,0:0:0:0:
376,292,187800,1,0,0:0:0:0:
360,276,187907,1,0,0:0:0:0:
252,156,188121,1,8,0:0:0:0:
240,320,188335,1,0,0:0:0:0:
224,320,188442,1,0,0:0:0:0:
208,320,188550,5,4,0:0:0:0:
192,320,188657,1,0,0:0:0:0:
176,320,188764,1,0,0:0:0:0:
160,320,188871,1,8,0:0:0:0:
144,320,188978,1,4,0:0:0:0:
128,320,189085,1,0,0:0:0:0:
112,320,189192,1,8,0:0:0:0:
128,192,189407,6,0,B|128:112|80:80|80:80|80:16,1,180,4|8,0:0|0:0,0:0:0:0:
184,72,190050,1,2,0:0:0:0:
184,72,190157,1,0,0:0:0:0:
184,72,190264,1,0,0:0:0:0:
308,156,190478,1,2,0:0:0:0:
396,344,190692,1,8,0:0:0:0:
512,160,190907,1,2,0:0:0:0:
416,208,191121,6,0,P|336:256|240:256,1,180,0|8,0:0|0:0,0:0:0:0:
240,160,191764,1,2,0:0:0:0:
144,240,191978,1,4,0:0:0:0:
112,144,192192,1,2,0:0:0:0:
128,336,192407,1,8,0:0:0:0:
32,240,192621,1,0,0:0:0:0:
240,288,192835,6,0,P|324:304|416:288,1,180,0|8,0:0|0:0,0:0:0:0:
112,144,193478,2,0,P|111:188|135:225,1,90,0|0,0:0|0:0,0:0:0:0:
364,172,193907,1,0,0:0:0:0:
272,24,194121,2,0,P|236:48|216:100,1,90,8|0,0:0|0:0,0:0:0:0:
176,192,194550,5,2,0:0:0:0:
176,208,194657,1,0,0:0:0:0:
176,224,194764,1,0,0:0:0:0:
28,228,194978,1,8,0:0:0:0:
28,128,195192,1,2,0:0:0:0:
28,112,195300,1,0,0:0:0:0:
28,96,195407,1,4,0:0:0:0:
176,96,195621,1,0,0:0:0:0:
44,292,195835,1,8,0:0:0:0:
76,308,195942,1,0,0:0:0:0:
112,308,196050,1,0,0:0:0:0:
144,292,196157,1,0,0:0:0:0:
176,272,196264,6,0,P|256:272|336:352,1,180,4|8,0:0|0:0,0:0:0:0:
379,91,196907,1,2,0:0:0:0:
344,232,197121,1,0,0:0:0:0:
456,139,197335,1,2,0:0:0:0:
310,149,197550,1,8,0:0:0:0:
434,226,197764,1,2,0:0:0:0:
242,125,197978,6,0,P|174:73|82:81,1,180,0|8,0:0|0:0,0:0:0:0:
63,221,198621,2,0,P|105:208|136:176,1,90,2|4,0:0|0:0,0:0:0:0:
208,304,199050,2,0,P|256:336|304:336,1,90,2|8,0:0|0:0,0:0:0:0:
384,288,199478,1,2,0:0:0:0:
304,64,199692,6,0,P|272:144|288:240,1,180,0|8,0:0|0:0,0:0:0:0:
496,224,200335,2,0,B|468:152|400:160|400:160|352:112,1,180,0|0,0:0|0:0,0:0:0:0:
412,244,200978,1,8,0:0:0:0:
384,48,201192,1,0,0:0:0:0:
272,64,201407,5,4,0:0:0:0:
256,64,201514,1,0,0:0:0:0:
240,64,201621,1,0,0:0:0:0:
136,108,201835,2,0,P|120:152|76:176,1,90,8|0,0:0|0:0,0:0:0:0:
56,200,202157,1,0,0:0:0:0:
40,236,202264,6,0,P|52:276|104:296,1,90,4|0,0:0|0:0,0:0:0:0:
216,240,202692,1,2,0:0:0:0:
248,224,202800,1,0,0:0:0:0:
284,224,202907,1,2,0:0:0:0:
316,240,203014,1,0,0:0:0:0:
332,272,203121,6,0,P|376:304|416:304,1,90,4|0,0:0|0:0,0:0:0:0:
480,100,203550,1,8,0:0:0:0:
268,116,203764,1,2,0:0:0:0:
268,116,203871,1,0,0:0:0:0:
268,116,203978,1,0,0:0:0:0:
336,200,204192,1,2,0:0:0:0:
204,32,204407,1,8,0:0:0:0:
88,208,204621,1,0,0:0:0:0:
88,208,204728,1,0,0:0:0:0:
88,208,204835,6,0,L|80:300,2,90,2|0|8,0:0|0:0|0:0,0:0:0:0:
120,48,205478,2,0,P|176:48|216:24,1,90,2|4,0:0|0:0,0:0:0:0:
311,187,205907,2,0,P|342:220|384:235,1,90,2|8,0:0|0:0,0:0:0:0:
456,80,206335,1,0,0:0:0:0:
392,308,206550,6,0,P|296:276|244:212,1,180,2|8,0:0|0:0,0:0:0:0:
208,112,207192,2,0,P|146:160|146:269,1,180,2|0,0:0|0:0,0:0:0:0:
247,219,207835,1,8,0:0:0:0:
32,256,208050,1,2,0:0:0:0:
128,160,208264,6,0,L|128:96,2,45,2|0|0,0:0|0:0|0:0,0:0:0:0:
172,264,208692,1,8,0:0:0:0:
236,64,208907,2,0,L|236:20,2,45,2|0|4,0:0|0:0|0:0,0:0:0:0:
316,188,209335,1,0,0:0:0:0:
148,328,209550,1,8,0:0:0:0:
116,344,209657,1,0,0:0:0:0:
80,344,209764,1,0,0:0:0:0:
48,328,209871,1,0,0:0:0:0:
38,294,209978,6,0,P|106:239|192:256,1,180,4|8,0:0|0:0,0:0:0:0:
248,164,210621,1,2,0:0:0:0:
364,72,210835,1,0,0:0:0:0:
212,80,211050,2,0,P|172:104|160:144,1,90,0|10,0:0|0:0,0:0:0:0:
192,256,211478,1,0,0:0:0:0:
352,304,211692,6,0,P|424:252|436:160,1,180,2|8,0:0|0:0,0:0:0:0:
216,60,212335,1,2,0:0:0:0:
328,192,212550,1,4,0:0:0:0:
128,176,212764,2,0,P|96:160|40:160,1,90,0|8,0:0|0:0,0:0:0:0:
0,304,213192,1,0,0:0:0:0:
128,176,213407,6,0,L|192:112,1,90,2|0,0:0|0:0,0:0:0:0:
384,64,213835,2,0,L|304:144,1,90,8|0,0:0|0:0,0:0:0:0:
320,224,214264,2,0,L|240:160,1,90,2|0,0:0|0:0,0:0:0:0:
192,16,214692,2,0,L|272:80,1,90,8|0,0:0|0:0,0:0:0:0:
384,112,215121,5,4,0:0:0:0:
464,288,215335,1,0,0:0:0:0:
304,288,215550,1,8,0:0:0:0:
464,176,215764,1,0,0:0:0:0:
304,176,215978,1,4,0:0:0:0:
384,352,216192,1,0,0:0:0:0:
224,288,216407,2,0,L|128:288,1,90,4|4,0:0|0:0,0:0:0:0:
80,160,216835,6,0,P|112:120|152:120,1,90,2|0,0:0|0:0,0:0:0:0:
160,200,217478,2,0,P|203:194|227:158,1,90,2|0,0:0|0:0,0:0:0:0:
280,144,218121,1,2,0:0:0:0:
368,280,218550,5,2,0:0:0:0:
416,304,218764,1,0,0:0:0:0:
456,272,218978,2,0,P|480:248|480:224,2,45,0|0|4,0:0|0:0|0:0,0:0:0:0:
336,224,219621,5,0,0:0:0:0:
288,200,219835,1,0,0:0:0:0:
240,224,220050,1,2,0:0:0:0:
192,304,220264,6,0,B|144:304|128:272|128:272|96:272,1,90,2|2,0:0|0:0,0:0:0:0:
88,224,220907,1,0,0:0:0:0:
104,88,221121,1,0,0:0:0:0:
200,160,221335,1,2,0:0:0:0:
200,40,221550,1,0,0:0:0:0:
304,96,221764,1,2,0:0:0:0:
256,192,221978,12,4,223692,0:0:0:0:
