osu file format v12

[General]
AudioFilename: 13 - COME BACK TO MY HEART (RyuRemix).mp3
AudioLeadIn: 1500
PreviewTime: 69888
Countdown: 0
SampleSet: Soft
StackLeniency: 0.5
Mode: 0
LetterboxInBreaks: 1

[Editor]
Bookmarks: 147555
DistanceSpacing: 0.9
BeatDivisor: 2
GridSize: 4

[Metadata]
Title:COME BACK TO MY HEART (Ryu* Remix)
TitleUnicode:COME BACK TO MY HEART (Ryu* Remix)
Artist:Another Infinity feat. Mayumi Morinaga
ArtistUnicode:Another Infinity feat. Mayumi Morinaga
Creator:CSY the corrupt
Version:Normal
Source:jubeat
Tags:AGEHA ms0080345 bakahuang huang99520 plus Rainbow*Rainbow Beatmania IIDX
BeatmapID:195220
BeatmapSetID:63056

[Difficulty]
HPDrainRate:5
CircleSize:3
OverallDifficulty:5
ApproachRate:5
SliderMultiplier:1.1
SliderTickRate:1

[Events]
//Background and Video events
0,0,"zraXN.jpg",0,0
//Break Periods
2,3721,4988
2,11721,20988
2,83721,92988
2,126388,135655
//Storyboard Layer 0 (Background)
//Storyboard Layer 1 (Fail)
//Storyboard Layer 2 (Pass)
//Storyboard Layer 3 (Foreground)
//Storyboard Sound Samples
//Background Colour Transformations
3,100,163,162,255

[TimingPoints]
-478,333.333333333333,4,1,0,60,1,0
855,-100,4,1,0,80,0,0
24521,-100,4,1,0,5,0,0
24688,-100,4,2,0,80,0,0
30188,-100,4,3,0,80,0,0
34855,-100,4,1,0,80,0,0
35521,-100,4,1,0,80,0,1
35605,-100,4,1,0,80,0,0
69855,-100,4,1,0,60,0,0
70188,-100,4,1,0,80,0,1
83188,-100,4,1,0,80,0,0
83521,-100,4,1,0,80,0,1
83605,-100,4,1,0,80,0,0
94355,-100,4,3,0,70,0,0
104855,-100,4,1,0,80,0,0
112521,-100,4,1,0,60,0,0
112855,-100,4,1,0,80,0,1
123521,-100,4,1,0,80,0,0
126188,-100,4,1,0,80,0,1
126271,-100,4,1,0,80,0,0
137355,-100,4,3,0,75,0,0
150188,-100,4,3,0,60,0,0
151021,-100,4,1,0,80,0,0
151521,-100,4,1,0,80,0,1
162188,-100,4,1,0,5,0,0
162521,-100,4,1,0,80,0,1
172855,-100,4,1,0,80,0,0
175521,-100,4,1,0,80,0,1
175605,-100,4,1,0,80,0,0
186855,-100,4,1,0,70,0,0
187355,-100,4,1,0,80,0,0
187855,-100,4,1,0,75,0,0
188355,-100,4,1,0,60,0,0
188855,-100,4,1,0,55,0,0
189355,-100,4,1,0,50,0,0
189855,-100,4,1,0,45,0,0
190355,-100,4,1,0,40,0,0
190855,-100,4,1,0,35,0,0
191355,-100,4,1,0,30,0,0
191855,-100,4,1,0,25,0,0
192355,-100,4,1,0,20,0,0
192855,-100,4,1,0,15,0,0
193355,-100,4,1,0,10,0,0
193855,-100,4,1,0,5,0,0

[Colours]
Combo1 : 255,128,0
Combo2 : 217,217,0
Combo3 : 170,170,255
Combo4 : 0,128,255

[HitObjects]
72,120,855,1,4,0:0:0:0:
152,61,1188,1,0,0:0:0:0:
247,87,1521,2,0,P|275:143|239:179,1,110
160,217,2188,2,0,P|134:247|162:303,1,110
256,336,2854,1,0,0:0:0:0:
348,300,3187,1,0,0:0:0:0:
348,300,3521,1,0,0:0:0:0:
432,116,6188,6,0,P|380:88|316:88,1,110
240,124,6855,2,0,P|271:174|326:206,1,110
411,215,7521,1,0,0:0:0:0:
348,292,7855,1,0,0:0:0:0:
248,280,8188,1,0,0:0:0:0:
160,328,8521,1,0,0:0:0:0:
76,276,8855,6,0,L|32:176,1,110
100,104,9521,2,0,L|144:204,1,110
200,284,10188,2,0,P|234:310|298:310,1,110
372,244,10855,2,0,P|338:218|274:218,2,110,4|4|4,0:0|0:0|0:0,0:0:0:0:
256,192,22188,12,0,24521,0:0:0:0:
208,144,24855,6,0,L|96:144,1,110
32,216,25521,1,0,0:0:0:0:
104,284,25855,1,0,0:0:0:0:
192,244,26188,2,0,B|248:230|308:253|286:312|346:334|402:320,1,220,0|2,0:0|0:0,0:0:0:0:
444,244,27188,1,0,0:0:0:0:
436,144,27521,6,0,P|412:96|344:60,1,110
336,160,28188,2,0,P|280:156|236:126,1,110
184,44,28855,2,0,P|128:32|56:48,2,110,0|0|2,0:0|0:0|0:0,0:0:0:0:
236,126,29855,1,0,0:0:0:0:
200,216,30188,6,0,L|88:260,1,110
36,332,30855,1,0,0:0:0:0:
132,352,31188,1,0,0:0:0:0:
232,348,31521,2,0,L|334:307,1,110
428,272,32188,1,2,3:2:0:0:
352,208,32521,1,0,0:0:0:0:
444,172,32855,6,0,B|412:124|412:124|320:96,2,110
428,272,33855,1,0,0:0:0:0:
344,328,34188,2,0,L|204:328,2,110
440,304,35188,1,0,0:0:0:0:
388,220,35521,6,0,L|304:92,1,110,4|0,0:0|0:0,0:0:0:0:
268,48,36188,1,0,0:0:0:0:
212,132,36521,1,0,0:0:0:0:
140,64,36855,2,0,L|52:196,1,110
156,216,37521,1,0,0:0:0:0:
100,300,37854,1,0,0:0:0:0:
184,352,38188,6,0,P|244:364|292:364,1,110
268,268,38855,2,0,P|314:252|374:243,1,110
460,196,39521,1,0,0:0:0:0:
480,100,39855,1,0,0:0:0:0:
396,48,40188,1,0,0:0:0:0:
320,112,40521,1,0,0:0:0:0:
236,164,40855,6,0,P|176:160|124:128,1,110,0|0,0:0|0:0,0:0:0:0:
44,176,41521,2,0,P|31:235|54:299,2,110
133,136,42521,1,0,0:0:0:0:
128,236,42855,2,0,L|224:324,1,110
304,340,43521,6,0,P|368:344|416:328,1,110
460,244,44188,2,0,P|396:240|348:256,1,110
252,252,44855,2,0,P|212:208|208:148,1,110,4|0,0:0|0:0,0:0:0:0:
248,72,45521,2,0,L|292:40,2,55,0|0|4,0:0|0:0|0:0,0:0:0:0:
148,84,46188,5,4,0:0:0:0:
56,52,46521,1,0,0:0:0:0:
16,144,46855,2,0,P|12:200|32:268,1,110
96,320,47521,2,0,P|128:276|152:216,1,110
128,128,48188,1,0,0:0:0:0:
204,64,48521,1,0,0:0:0:0:
304,60,48855,6,0,L|404:148,1,110
296,172,49521,2,0,L|396:260,1,110
428,332,50188,1,0,0:0:0:0:
332,356,50521,1,0,0:0:0:0:
236,332,50855,1,0,0:0:0:0:
140,356,51188,1,0,0:0:0:0:
48,320,51521,6,0,P|24:264|20:208,2,110
140,356,52521,1,0,0:0:0:0:
188,268,52855,2,0,P|200:208|196:144,1,110
104,136,53521,2,0,P|128:88|184:64,1,110
276,56,54188,5,0,0:0:0:0:
364,100,54521,2,0,L|400:220,1,110
480,256,55188,1,0,0:0:0:0:
408,324,55521,2,0,L|268:324,1,110,4|0,0:0|0:0,0:0:0:0:
200,324,56188,2,0,L|136:324,2,55,0|0|4,0:0|0:0|0:0,0:0:0:0:
256,244,56855,6,0,P|272:188|260:120,1,110,4|0,0:0|0:0,0:0:0:0:
184,84,57521,1,0,0:0:0:0:
92,120,57855,2,0,P|52:160|32:232,1,110
48,308,58521,1,0,0:0:0:0:
128,364,58855,1,0,0:0:0:0:
224,348,59188,1,0,0:0:0:0:
296,280,59521,6,0,P|320:228|320:168,1,110
268,92,60188,1,0,0:0:0:0:
268,92,60521,1,0,0:0:0:0:
336,20,60855,2,0,P|396:28|460:64,1,110
492,132,61521,2,0,P|456:176|400:204,1,110
320,244,62188,6,0,L|180:244,1,110
116,216,62855,1,0,0:0:0:0:
52,140,63188,1,0,0:0:0:0:
120,68,63521,2,0,L|236:68,1,110
316,112,64188,1,0,0:0:0:0:
232,164,64521,1,0,0:0:0:0:
312,220,64855,6,0,P|292:280|236:328,1,110
164,300,65521,2,0,P|139:241|150:168,1,110,0|0,0:0|0:0,0:0:0:0:
188,108,66188,2,0,P|233:102|293:121,1,110,0|0,0:0|0:0,0:0:0:0:
356,200,66855,1,0,0:0:0:0:
264,240,67188,1,0,0:0:0:0:
256,192,67521,12,0,69855,0:0:0:0:
188,120,70188,6,0,L|64:120,1,110,4|0,0:0|0:0,0:0:0:0:
16,196,70855,1,0,0:0:0:0:
84,268,71188,1,0,0:0:0:0:
180,252,71521,1,0,0:0:0:0:
252,320,71855,2,0,L|372:240,2,110
180,252,72855,6,0,P|200:196|252:152,1,110
332,152,73521,2,0,P|308:96|268:64,1,110
172,68,74188,1,0,0:0:0:0:
72,68,74521,1,0,0:0:0:0:
12,148,74855,2,0,P|32:200|72:252,1,110
160,232,75521,5,0,0:0:0:0:
160,232,75855,1,0,0:0:0:0:
140,328,76188,2,0,L|284:328,1,110
340,288,76855,1,0,0:0:0:0:
416,224,77188,1,0,0:0:0:0:
360,140,77521,2,0,P|308:116|264:140,1,110
212,224,78188,6,0,L|92:184,1,110
112,92,78855,2,0,L|232:52,1,110
316,56,79521,1,0,0:0:0:0:
416,56,79855,1,0,0:0:0:0:
484,128,80188,1,0,0:0:0:0:
484,228,80521,1,0,0:0:0:0:
428,312,80855,6,0,P|328:340|344:248,2,220,4|4|4,0:0|0:0|0:0,0:0:0:0:
424,212,82521,1,0,0:0:0:0:
340,160,82855,1,0,0:0:0:0:
424,104,83188,2,0,L|479:104,2,55,0|0|4,0:0|0:0|0:0,0:0:0:0:
364,144,94188,6,0,P|320:108|188:180,1,220,4|2,0:0|3:2,0:0:0:0:
172,268,95188,1,0,0:0:0:0:
244,336,95521,2,0,P|299:350|388:228,1,220,0|2,0:0|3:2,0:0:0:0:
364,144,96521,1,0,0:0:0:0:
280,92,96855,6,0,B|224:60|168:60|168:124|112:124|56:92,2,220,0|2|0,0:0|3:2|0:0,0:0:0:0:
324,180,98521,1,2,3:2:0:0:
292,276,98855,1,0,0:0:0:0:
228,200,99188,1,2,3:2:0:0:
192,292,99521,6,0,P|208:339|257:370,2,110,0|2|2,0:0|3:2|3:2,0:0:0:0:
228,200,100521,1,0,0:0:0:0:
210,102,100855,2,0,P|165:69|106:73,1,110,2|2,3:2|3:2,0:0:0:0:
39,137,101521,2,0,P|84:170|136:168,1,110,0|2,0:0|3:2,0:0:0:0:
210,102,102188,6,0,P|427:136|400:326,1,440,0|2,0:0|3:2,0:0:0:0:
256,192,104188,1,2,3:2:0:0:
256,192,104521,1,2,3:2:0:0:
300,104,104855,6,0,P|356:100|412:136,1,110,4|0,0:0|0:0,0:0:0:0:
448,212,105521,1,0,0:0:0:0:
396,296,105855,1,0,0:0:0:0:
312,348,106188,2,0,P|260:368|180:364,1,110
116,328,106855,2,0,P|144:280|196:240,1,110
280,220,107521,5,0,0:0:0:0:
224,140,107855,1,0,0:0:0:0:
304,84,108188,1,0,0:0:0:0:
228,20,108521,1,0,0:0:0:0:
132,48,108855,2,0,L|52:144,2,110
132,48,109855,1,0,0:0:0:0:
256,192,110188,12,0,112521,0:0:0:0:
236,140,112855,5,4,0:0:0:0:
324,96,113188,1,0,0:0:0:0:
344,192,113521,1,0,0:0:0:0:
260,244,113855,1,0,0:0:0:0:
160,248,114188,2,0,P|104:240|72:200,1,110
104,108,114855,1,0,0:0:0:0:
188,56,115188,1,0,0:0:0:0:
288,52,115521,6,0,L|412:88,1,110
340,168,116188,2,0,L|424:264,1,110
372,340,116855,1,0,0:0:0:0:
272,340,117188,1,0,0:0:0:0:
200,272,117521,2,0,P|188:216|216:160,1,110
292,120,118188,6,0,P|268:68|212:48,1,110
128,72,118855,1,0,0:0:0:0:
84,160,119188,1,0,0:0:0:0:
132,244,119521,2,0,L|248:244,1,110
340,244,120188,1,0,0:0:0:0:
440,244,120521,1,0,0:0:0:0:
488,156,120855,6,0,P|480:100|440:56,1,110
352,36,121521,2,0,P|360:92|393:131,1,110
488,156,122188,1,0,0:0:0:0:
440,244,122521,1,0,0:0:0:0:
340,244,122855,1,0,0:0:0:0:
340,244,123188,1,0,0:0:0:0:
256,192,123521,5,4,0:0:0:0:
256,192,124188,1,4,0:0:0:0:
256,192,124855,1,4,0:0:0:0:
256,92,125188,2,0,L|124:92,1,110,4|0,0:0|0:0,0:0:0:0:
64,148,125855,2,0,L|32:192,2,55,0|0|4,0:0|0:0|0:0,0:0:0:0:
32,156,136855,6,0,P|72:52|128:44,1,165,0|2,0:0|3:2,0:0:0:0:
204,80,137688,1,0,0:0:0:0:
215,178,138021,1,0,0:0:0:0:
141,245,138355,1,0,0:0:0:0:
189,330,138688,2,0,P|255:365|358:347,1,165,0|2,0:0|3:2,0:0:0:0:
426,304,139521,5,2,3:2:0:0:
478,220,139855,1,0,0:0:0:0:
449,123,140188,1,2,3:2:0:0:
356,88,140521,1,0,0:0:0:0:
295,168,140855,1,2,3:2:0:0:
227,95,141188,1,0,0:0:0:0:
181,182,141521,1,2,3:2:0:0:
97,128,141854,1,0,0:0:0:0:
47,213,142188,6,0,P|37:273|155:337,1,165,2|2,3:2|3:2,0:0:0:0:
200,312,143021,1,0,0:0:0:0:
296,344,143355,2,0,P|352:352|408:320,1,110
460,252,144021,2,0,L|416:184,1,55,2|0,3:2|0:0,0:0:0:0:
480,120,144521,1,0,0:0:0:0:
408,52,144855,6,0,P|308:40|189:48,1,220,0|2,0:0|3:2,0:0:0:0:
132,128,145855,1,0,0:0:0:0:
192,204,146188,2,0,P|310:212|410:200,1,220
456,288,147188,1,0,0:0:0:0:
376,344,147521,6,0,P|320:332|260:300,1,110,0|2,0:0|3:2,0:0:0:0:
172,312,148188,2,0,P|124:335|68:347,1,110,0|2,0:0|3:2,0:0:0:0:
256,192,148855,12,2,150188,3:2:0:0:
256,136,151021,6,0,L|256:192,1,55
324,264,151521,6,0,L|448:264,1,110,4|0,0:0|0:0,0:0:0:0:
496,188,152188,1,0,0:0:0:0:
428,116,152521,1,0,0:0:0:0:
332,132,152854,1,0,0:0:0:0:
260,64,153188,2,0,L|140:144,2,110
332,132,154188,6,0,P|312:188|260:232,1,110
180,232,154854,2,0,P|204:288|244:320,1,110
340,316,155521,1,0,0:0:0:0:
440,316,155854,1,0,0:0:0:0:
500,236,156188,2,0,P|480:184|440:132,1,110
352,152,156854,5,0,0:0:0:0:
352,152,157188,1,0,0:0:0:0:
372,56,157521,2,0,L|228:56,1,110
172,96,158188,1,0,0:0:0:0:
96,160,158521,1,0,0:0:0:0:
152,244,158854,2,0,P|204:268|248:244,1,110
300,160,159521,6,0,L|420:200,1,110
400,292,160188,2,0,L|280:332,1,110
196,328,160854,1,0,0:0:0:0:
96,328,161188,1,0,0:0:0:0:
28,256,161521,1,0,0:0:0:0:
28,156,161854,1,0,0:0:0:0:
100,88,162188,6,0,L|220:88,1,110,0|4,0:0|0:0,0:0:0:0:
284,156,162855,1,0,0:0:0:0:
364,100,163188,1,0,0:0:0:0:
448,152,163521,2,0,P|480:196|420:232,1,110
352,252,164188,1,0,0:0:0:0:
252,252,164521,1,0,0:0:0:0:
152,240,164855,6,0,P|96:220|52:188,1,110
108,108,165521,2,0,P|156:94|215:94,1,110
300,144,166188,1,0,0:0:0:0:
372,212,166521,1,0,0:0:0:0:
464,176,166855,2,0,P|488:124|448:72,1,110
372,48,167521,6,0,P|316:56|252:44,1,110
168,24,168188,1,0,0:0:0:0:
76,60,168521,2,0,P|36:100|12:164,2,110
168,24,169521,1,0,0:0:0:0:
152,124,169855,1,0,0:0:0:0:
220,196,170188,6,0,P|168:232|112:244,1,110
48,308,170855,2,0,P|100:344|156:356,1,110,0|0,0:0|0:0,0:0:0:0:
232,308,171521,1,0,0:0:0:0:
324,348,171855,1,0,0:0:0:0:
392,276,172188,1,0,0:0:0:0:
480,320,172521,1,0,0:0:0:0:
480,220,172855,5,4,0:0:0:0:
480,220,173521,1,4,0:0:0:0:
480,220,174188,5,4,0:0:0:0:
404,160,174521,1,0,0:0:0:0:
324,100,174855,1,0,0:0:0:0:
248,36,175188,2,0,L|180:36,2,55,0|0|4,0:0|0:0|0:0,0:0:0:0:
204,124,175855,5,0,0:0:0:0:
192,224,176188,1,0,0:0:0:0:
232,312,176521,1,0,0:0:0:0:
324,352,176855,2,0,P|376:338|447:273,1,110
465,217,177521,1,0,0:0:0:0:
418,130,177854,1,0,0:0:0:0:
352,56,178188,6,0,P|293:38|245:34,1,110
148,48,178855,1,0,0:0:0:0:
212,124,179188,2,0,P|174:154|120:183,1,110
24,196,179854,1,0,0:0:0:0:
24,296,180188,1,0,0:0:0:0:
116,336,180521,1,0,0:0:0:0:
192,272,180854,5,4,0:0:0:0:
276,220,181188,2,0,P|336:224|388:256,1,110
468,208,181854,2,0,P|481:149|458:85,2,110
379,248,182854,1,0,0:0:0:0:
314,172,183188,1,0,0:0:0:0:
222,210,183521,5,0,0:0:0:0:
138,157,183854,2,0,P|191:121|235:111,1,110
314,171,184521,2,0,P|311:216|286:274,2,110,0|4|0,0:0|0:0|0:0,0:0:0:0:
322,72,185521,2,0,L|381:80,2,55,0|0|4,0:0|0:0|0:0,0:0:0:0:
256,192,186188,12,0,193855,0:0:0:0:
