osu file format v12

[General]
AudioFilename: 13 - COME BACK TO MY HEART (RyuRemix).mp3
AudioLeadIn: 1500
PreviewTime: 69888
Countdown: 0
SampleSet: Normal
StackLeniency: 0.3
Mode: 0
LetterboxInBreaks: 1

[Editor]
Bookmarks: 147555
DistanceSpacing: 1.2
BeatDivisor: 4
GridSize: 4

[Metadata]
Title:COME BACK TO MY HEART (Ryu* Remix)
TitleUnicode:COME BACK TO MY HEART (Ryu* Remix)
Artist:Another Infinity feat. Mayumi Morinaga
ArtistUnicode:Another Infinity feat. Mayumi Morinaga
Creator:CSY the corrupt
Version:Extreme
Source:jubeat
Tags:AGEHA ms0080345 bakahuang huang99520 plus Rainbow*Rainbow Beatmania IIDX
BeatmapID:186599
BeatmapSetID:63056

[Difficulty]
HPDrainRate:8
CircleSize:4
OverallDifficulty:8
ApproachRate:9
SliderMultiplier:1.8
SliderTickRate:1

[Events]
//Background and Video events
0,0,"zraXN.jpg",0,0
//Break Periods
2,3721,5421
2,11721,21588
//Storyboard Layer 0 (Background)
//Storyboard Layer 1 (Fail)
//Storyboard Layer 2 (Pass)
//Storyboard Layer 3 (Foreground)
//Storyboard Sound Samples
//Background Colour Transformations
3,100,163,162,255

[TimingPoints]
-478,333.333333333333,4,1,0,60,1,0
855,-100,4,1,0,80,0,0
10855,-133.333333333333,4,1,0,80,0,0
11105,-133.333333333333,4,1,0,5,0,0
11188,-133.333333333333,4,1,0,80,0,0
24688,-100,4,2,0,80,0,0
30188,-100,4,3,0,80,0,0
34855,-100,4,1,0,80,0,0
35521,-100,4,1,0,80,0,1
35605,-100,4,1,0,80,0,0
70188,-100,4,1,0,80,0,1
83188,-100,4,1,0,80,0,0
83521,-100,4,1,0,80,0,1
83605,-100,4,1,0,80,0,0
94355,-100,4,3,0,70,0,0
104855,-100,4,1,0,80,0,0
112855,-100,4,1,0,80,0,1
123521,-100,4,1,0,80,0,0
126188,-100,4,1,0,80,0,1
126271,-100,4,1,0,80,0,0
137355,-133.333333333333,4,3,0,75,0,0
150188,-133.333333333333,4,3,0,60,0,0
151021,-200,4,1,0,80,0,0
151521,-100,4,1,0,80,0,1
162188,-200,4,1,0,5,0,0
162521,-100,4,1,0,80,0,1
172855,-100,4,1,0,80,0,0
175521,-100,4,1,0,80,0,1
175605,-100,4,1,0,80,0,0
186855,-100,4,1,0,70,0,0
187355,-100,4,1,0,80,0,0
187855,-100,4,1,0,75,0,0
188355,-100,4,1,0,60,0,0
188855,-100,4,1,0,55,0,0
189355,-100,4,1,0,50,0,0
189855,-100,4,1,0,45,0,0
190355,-100,4,1,0,40,0,0
190855,-100,4,1,0,35,0,0
191355,-100,4,1,0,30,0,0
191855,-100,4,1,0,25,0,0
192355,-100,4,1,0,20,0,0
192855,-100,4,1,0,15,0,0
193355,-100,4,1,0,10,0,0
193855,-100,4,1,0,5,0,0

[Colours]
Combo1 : 255,128,0
Combo2 : 217,217,0
Combo3 : 170,170,255
Combo4 : 0,128,255

[HitObjects]
104,88,688,1,0,0:0:0:0:
104,88,855,2,0,B|208:88,1,90,4|0,0:0|0:0,0:0:0:0:
248,160,1188,2,0,B|158:160,1,90
208,232,1521,1,0,0:0:0:0:
262,304,1688,1,0,0:0:0:0:
298,232,1854,1,0,0:0:0:0:
352,304,2021,1,0,0:0:0:0:
440,304,2188,6,0,B|464:264|464:208,1,90,0|0,0:0|0:0,0:0:0:0:
460,196,2438,1,0,0:0:0:0:
104,136,2688,1,0,0:0:0:0:
176,80,2854,2,0,B|240:40|264:104|312:104|368:72,1,180
432,44,3354,1,0,0:0:0:0:
432,44,3521,1,0,0:0:0:0:
128,140,6021,6,0,B|156:100|208:92,1,90
288,120,6354,1,0,0:0:0:0:
383,275,6521,2,0,B|300:308,1,90
252,228,6854,2,0,B|336:196,1,90
383,275,7188,2,0,B|300:308,1,90
288,312,7438,1,0,0:0:0:0:
276,316,7521,6,0,B|232:328|168:320,1,90
32,256,7854,2,0,B|76:244|140:252,1,90
276,316,8188,2,0,B|344:240|336:128,1,180
292,72,8688,5,0,0:0:0:0:
48,124,8854,1,0,0:0:0:0:
168,336,9021,1,0,0:0:0:0:
144,296,9104,2,0,B|123:255,1,45
48,124,9354,1,0,0:0:0:0:
292,72,9520,1,0,0:0:0:0:
279,300,9688,1,0,0:0:0:0:
281,254,9771,2,0,B|284:209,1,45
88,192,10021,5,0,0:0:0:0:
292,72,10188,2,0,B|399:133,1,90
280,148,10438,2,0,B|397:216,1,135,0|0,3:0|0:0,0:0:0:0:
143,84,10855,6,0,B|92:96|60:152,1,101.250003862381,4|0,0:0|0:0,0:0:0:0:
188,207,11188,2,0,B|192:136|143:84,1,135.000005149842,4|4,0:0|0:0,0:0:0:0:
256,192,22188,5,4,0:0:0:0:
256,192,22271,12,0,24688,0:0:0:0:
72,88,24855,5,0,0:0:0:0:
152,48,25021,1,0,0:0:0:0:
228,96,25188,2,0,B|300:104|356:56,2,135
152,48,25855,1,0,0:0:0:0:
148,136,26021,2,0,B|152:180|200:208,1,90
272,260,26355,1,0,0:0:0:0:
264,280,26438,2,0,B|232:344|148:344,1,135
56,256,26855,2,0,B|48:352,2,90,2|0|0,0:0|0:0|0:0,0:0:0:0:
104,180,27355,5,0,0:0:0:0:
172,240,27521,2,0,B|212:208|216:160,1,90
176,108,27771,2,0,B|200:60,1,45
324,60,28021,1,0,0:0:0:0:
424,136,28188,2,0,B|384:168|380:216,1,90
420,268,28438,2,0,B|396:316,1,45
240,340,28688,5,0,0:0:0:0:
156,308,28855,2,0,B|68:268,1,90
176,240,29105,2,0,B|48:180,1,135
320,92,29521,2,0,B|368:72,2,45,2|0|0,0:0|0:0|0:0,0:0:0:0:
52,184,29855,2,0,B|10:201,2,45
196,144,30188,6,0,B|228:152|228:152|280:208|280:208|324:216,1,135
350,218,30521,1,0,0:0:0:0:
402,291,30688,1,0,0:0:0:0:
484,256,30855,2,0,B|512:216|512:216|512:164,1,90
460,100,31188,2,0,B|420:72|420:72|368:72,1,90
333,70,31438,1,0,0:0:0:0:
288,72,31521,6,0,B|248:76|248:76|204:128|204:128|148:140,1,135
132,136,31855,1,0,0:0:0:0:
64,76,32021,1,0,0:0:0:0:
12,308,32188,2,0,B|4:356,2,45,2|0|0,3:2|0:0|0:0,0:0:0:0:
64,76,32521,2,0,B|72:28,2,45
64,192,32855,5,0,0:0:0:0:
148,288,33021,1,0,0:0:0:0:
232,192,33188,1,0,0:0:0:0:
316,288,33354,1,0,0:0:0:0:
400,192,33521,1,0,0:0:0:0:
316,96,33687,1,0,0:0:0:0:
232,192,33854,1,0,0:0:0:0:
148,96,34020,1,0,0:0:0:0:
64,192,34188,6,0,B|144:284,1,90
400,192,34521,2,0,B|320:100,1,90
232,192,34855,5,0,1:3:0:0:
232,192,35188,1,0,0:0:0:0:
232,192,35521,6,0,B|136:192,2,90,4|0|0,0:0|0:0|0:0,0:0:0:0:
348,192,36021,1,0,0:0:0:0:
464,192,36188,2,0,B|464:92,1,90
232,28,36521,2,0,B|232:118,1,90
112,328,36855,5,0,0:0:0:0:
112,164,37021,1,0,0:0:0:0:
278,328,37188,2,0,B|188:328,1,90
440,100,37521,2,0,B|440:208,1,90
112,328,37855,2,0,B|112:238,1,90
180,144,38188,5,0,0:0:0:0:
180,28,38355,1,0,0:0:0:0:
328,252,38521,1,0,0:0:0:0:
328,88,38688,1,0,0:0:0:0:
88,88,38855,2,0,B|20:152,1,90
108,264,39188,2,0,B|42:325,1,90
22,149,39521,5,0,0:0:0:0:
168,152,39688,1,0,0:0:0:0:
328,252,39855,1,0,0:0:0:0:
168,152,40021,1,0,0:0:0:0:
248,204,40188,1,0,0:0:0:0:
403,67,40355,1,0,0:0:0:0:
359,312,40521,1,0,0:0:0:0:
168,152,40688,1,0,0:0:0:0:
256,32,40855,6,0,B|256:124,1,90
256,352,41188,2,0,B|256:260,1,90
256,122,41521,1,0,0:0:0:0:
104,72,41688,1,0,0:0:0:0:
156,176,41855,1,0,0:0:0:0:
100,328,42021,1,0,0:0:0:0:
200,280,42188,5,0,0:0:0:0:
156,176,42355,1,0,0:0:0:0:
256,122,42521,2,0,B|352:76,1,90
480,108,42855,2,0,B|398:146,1,90
496,196,43188,2,0,B|414:234,1,90
151,261,43521,6,0,B|63:301,2,90,0|0|0,0:0|0:0|0:0,0:0:0:0:
318,184,44021,1,0,0:0:0:0:
235,223,44188,1,0,0:0:0:0:
401,145,44355,1,0,1:2:0:0:
318,184,44521,1,0,0:0:0:0:
481,108,44688,1,0,0:0:0:0:
408,56,44855,6,0,B|312:56,1,90,4|0,0:0|0:0,0:0:0:0:
136,56,45188,1,0,1:2:0:0:
228,56,45355,2,0,B|228:164,1,90
228,236,45688,1,0,0:0:0:0:
228,236,45855,1,4,0:0:0:0:
228,236,46188,5,4,0:0:0:0:
228,328,46355,2,0,B|320:328,1,90
408,328,46688,1,0,0:0:0:0:
444,244,46855,2,0,B|456:200|444:152,1,90
404,100,47105,2,0,B|336:124|308:224,1,135,0|0,0:0|0:0,0:0:0:0:
316,197,47521,1,0,0:0:0:0:
332,284,47688,5,0,0:0:0:0:
212,340,47855,1,0,0:0:0:0:
104,260,48021,1,0,0:0:0:0:
216,184,48188,2,0,B|264:172|316:180,1,90
360,136,48438,2,0,B|311:85|231:63,1,135,0|0,0:0|0:0,0:0:0:0:
245,67,48855,1,0,0:0:0:0:
128,84,49021,6,0,B|84:100|84:100|116:120|116:120|100:140|100:140|76:240,1,180
128,316,49521,2,0,B|160:284|160:284|174:238,1,90
172,172,49771,2,0,B|226:127|226:127|306:95,1,135,0|0,0:0|0:0,0:0:0:0:
412,120,50188,5,0,0:0:0:0:
364,280,50355,1,0,0:0:0:0:
296,220,50521,1,0,0:0:0:0:
212,256,50688,1,0,0:0:0:0:
280,316,50855,1,0,0:0:0:0:
144,196,51021,1,0,0:0:0:0:
84,264,51188,1,0,0:0:0:0:
204,128,51355,1,0,0:0:0:0:
204,128,51521,1,0,0:0:0:0:
354,60,51688,6,0,B|425:146,1,90
471,219,52021,1,0,0:0:0:0:
411,129,52188,2,0,B|388:169|383:226,1,90
405,279,52438,2,0,B|365:333|284:343,1,135,0|0,0:0|0:0,0:0:0:0:
289,342,52855,1,0,0:0:0:0:
177,312,53021,6,0,B|151:298|151:298|174:294|174:294|157:281|157:281|131:245|125:182,1,180
144,65,53521,1,0,0:0:0:0:
216,145,53688,1,0,0:0:0:0:
251,164,53771,2,0,B|310:182|385:171,1,135,0|0,0:0|0:0,0:0:0:0:
465,112,54188,1,0,0:0:0:0:
470,322,54355,6,0,B|414:228,1,90
288,64,54688,2,0,B|232:158,1,90
212,352,55021,2,0,B|156:258,2,90
20,264,55521,6,0,B|36:200|100:140,1,135,4|0,1:2|0:0,0:0:0:0:
204,132,55855,2,0,B|179:172|139:192,1,90
156,36,56188,5,0,0:0:0:0:
180,36,56271,1,0,0:0:0:0:
204,36,56355,2,0,B|248:56,1,45
352,220,56521,5,2,1:2:0:0:
328,220,56604,1,0,0:0:0:0:
304,220,56688,2,0,B|260:200,1,45
284,120,56855,6,0,B|356:112|440:152,1,135,4|0,0:0|0:0,0:0:0:0:
452,164,57188,1,0,0:0:0:0:
396,312,57355,1,0,0:0:0:0:
280,324,57521,2,0,B|176:336,2,90
396,312,58021,1,0,0:0:0:0:
368,136,58188,5,0,0:0:0:0:
340,248,58355,1,0,0:0:0:0:
280,104,58521,1,0,0:0:0:0:
252,216,58688,1,0,0:0:0:0:
192,68,58855,5,0,0:0:0:0:
164,180,59022,1,0,0:0:0:0:
104,36,59188,1,0,0:0:0:0:
76,148,59355,1,0,0:0:0:0:
72,172,59438,1,0,0:0:0:0:
68,196,59521,2,0,B|68:240|72:292,1,90
164,340,59855,1,0,0:0:0:0:
192,68,60021,5,0,0:0:0:0:
416,228,60188,1,0,0:0:0:0:
288,284,60355,1,0,0:0:0:0:
300,146,60521,1,0,0:0:0:0:
416,228,60688,1,0,0:0:0:0:
424,207,60771,1,0,0:0:0:0:
431,185,60855,2,0,B|446:139|452:86,2,90
356,340,61355,5,0,0:0:0:0:
201,246,61521,1,0,0:0:0:0:
243,112,61688,1,0,0:0:0:0:
111,235,61855,1,0,0:0:0:0:
133,120,62021,1,0,0:0:0:0:
213,35,62188,5,0,0:0:0:0:
235,32,62271,1,0,0:0:0:0:
257,30,62355,2,0,B|304:25|356:31,1,90
468,90,62688,1,0,0:0:0:0:
468,198,62855,1,0,0:0:0:0:
462,219,62938,1,0,0:0:0:0:
456,240,63021,1,0,0:0:0:0:
347,238,63188,1,0,0:0:0:0:
353,259,63271,1,0,0:0:0:0:
359,280,63355,1,0,0:0:0:0:
365,301,63438,1,0,0:0:0:0:
372,321,63521,6,0,B|397:350|397:350|497:373,2,135
324,117,64188,1,0,0:0:0:0:
240,82,64355,1,0,0:0:0:0:
184,304,64521,2,0,B|217:267|243:224,1,90
155,50,64855,6,0,B|90:102|53:196,1,180
256,320,65355,1,0,0:0:0:0:
256,64,65521,1,0,0:0:0:0:
164,192,65688,2,0,B|276:192,1,90
388,196,66021,1,0,0:0:0:0:
406,215,66105,2,0,B|418:251|418:251|446:295|446:295|438:319|414:323,1,135
333,284,66521,1,0,0:0:0:0:
176,272,66688,5,0,0:0:0:0:
156,280,66771,1,0,0:0:0:0:
136,288,66855,2,0,B|32:288,2,90
280,260,67355,1,0,0:0:0:0:
296,276,67438,1,0,0:0:0:0:
312,292,67521,6,0,B|348:328,1,45,4|0,0:0|0:0,0:0:0:0:
380,227,67688,2,0,B|412:196,1,45
296,104,67855,2,0,B|332:140,1,45
396,8,68022,2,0,B|360:44,1,45
232,48,68188,6,0,B|196:12,1,45
163,112,68355,2,0,B|131:143,1,45
248,236,68522,2,0,B|212:200,1,45
148,332,68689,2,0,B|184:296,1,45
32,76,68938,5,0,0:0:0:0:
32,100,69021,1,0,0:0:0:0:
120,40,69188,1,0,0:0:0:0:
120,148,69355,1,0,0:0:0:0:
120,172,69438,1,0,0:0:0:0:
208,60,69605,1,0,0:0:0:0:
208,84,69688,1,0,0:0:0:0:
208,108,69771,1,0,0:0:0:0:
208,132,69855,1,0,0:0:0:0:
208,156,69938,1,0,0:0:0:0:
208,180,70021,1,0,0:0:0:0:
208,204,70105,1,0,0:0:0:0:
208,228,70188,6,0,B|208:280|208:280|228:320|288:344,1,135,4|0,0:0|0:0,0:0:0:0:
312,348,70521,1,0,0:0:0:0:
360,272,70688,1,0,0:0:0:0:
368,116,70855,1,0,0:0:0:0:
320,192,71021,1,0,0:0:0:0:
360,272,71188,2,0,B|456:232,1,90,0|0,0:0|0:0,0:0:0:0:
476,104,71521,6,0,B|440:68|380:48,1,90
332,52,71771,2,0,B|296:68|296:68|272:52|272:52|188:56,1,135,0|0,0:0|0:0,0:0:0:0:
88,124,72188,1,0,0:0:0:0:
72,140,72271,1,0,0:0:0:0:
56,156,72355,1,0,0:0:0:0:
184,328,72521,1,0,0:0:0:0:
200,312,72604,1,0,0:0:0:0:
216,296,72688,1,0,0:0:0:0:
232,280,72771,1,0,0:0:0:0:
248,264,72855,6,0,B|280:228|304:180,1,90
256,136,73105,2,0,B|272:116|312:96,1,45
424,84,73355,1,0,0:0:0:0:
480,204,73521,2,0,B|448:240|424:288,1,90
472,332,73771,2,0,B|456:352|416:372,1,45
184,328,74021,5,0,0:0:0:0:
44,232,74188,1,0,0:0:0:0:
136,96,74355,1,0,0:0:0:0:
176,72,74438,2,0,B|220:56|220:56|324:56,1,135
432,164,74855,2,0,B|412:268,1,90
128,268,75188,2,0,B|148:164,1,90
252,128,75521,6,0,B|224:276,1,135
217,305,75855,1,0,0:0:0:0:
324,368,76021,1,0,0:0:0:0:
328,240,76188,1,0,0:0:0:0:
456,244,76355,1,0,0:0:0:0:
392,136,76521,1,0,0:0:0:0:
492,56,76688,1,0,0:0:0:0:
472,52,76771,1,0,0:0:0:0:
452,48,76855,6,0,B|408:44|360:52,1,90
276,212,77188,2,0,B|301:175|318:130,1,90
227,60,77521,2,0,B|272:60,2,45
429,212,77855,2,0,B|384:212,2,45
276,212,78188,5,0,0:0:0:0:
116,272,78355,1,0,0:0:0:0:
76,312,78438,2,0,B|40:352,1,45
36,160,78688,1,0,0:0:0:0:
92,52,78855,1,0,0:0:0:0:
204,340,79021,1,0,0:0:0:0:
244,300,79104,2,0,B|280:260,1,45
320,160,79355,5,0,0:0:0:0:
180,56,79521,2,0,B|276:20,1,90
360,64,79771,2,0,B|233:111,1,135
80,188,80188,1,0,0:0:0:0:
160,340,80355,1,0,0:0:0:0:
208,264,80521,1,0,0:0:0:0:
168,184,80688,5,0,0:0:0:0:
380,144,80855,2,0,B|420:164|420:164|456:232,1,90,2|0,1:2|0:0,0:0:0:0:
472,264,81105,2,0,B|444:320,1,45
316,256,81355,1,0,0:0:0:0:
84,316,81521,2,0,B|96:268|132:220,1,90,2|0,1:2|0:0,0:0:0:0:
168,184,81771,2,0,B|169:166|156:131,1,45
80,52,82021,5,0,0:0:0:0:
212,28,82188,2,0,B|324:56,1,90,2|0,1:2|0:0,0:0:0:0:
220,104,82438,2,0,B|368:140,1,135
440,160,82855,1,0,0:0:0:0:
440,160,83188,5,0,0:0:0:0:
440,160,83355,1,0,0:0:0:0:
408,336,83521,5,0,0:0:0:0:
424,248,83688,1,4,0:0:0:0:
304,140,83855,1,0,0:0:0:0:
268,296,84021,1,0,0:0:0:0:
160,308,84188,2,0,B|52:308,1,90
120,100,84521,2,0,B|210:100,1,90
348,100,84855,5,0,0:0:0:0:
348,100,85021,1,0,0:0:0:0:
436,312,85188,2,0,B|436:220,1,90
210,220,85521,2,0,B|300:220,1,90
212,26,85855,2,0,B|212:116,1,90
212,304,86188,5,0,0:0:0:0:
112,346,86355,1,0,0:0:0:0:
28,212,86521,1,0,0:0:0:0:
136,72,86688,2,0,B|232:12,1,90
232,168,87021,2,0,B|308:120,1,90
348,260,87355,2,0,B|444:200,1,90
456,72,87688,5,0,0:0:0:0:
344,28,87855,1,0,0:0:0:0:
232,180,88021,1,0,0:0:0:0:
232,292,88188,1,0,0:0:0:0:
305,89,88355,1,0,0:0:0:0:
102,16,88521,1,0,0:0:0:0:
29,218,88688,1,0,0:0:0:0:
116,316,88855,6,0,B|152:344|212:360,1,90,4|0,0:0|0:0,0:0:0:0:
304,336,89188,1,0,0:0:0:0:
436,248,89355,1,0,0:0:0:0:
276,128,89521,2,0,B|312:92|364:84,1,90
344,264,89855,2,0,B|367:225|355:177,1,90
252,40,90188,5,0,0:0:0:0:
160,40,90355,1,0,0:0:0:0:
44,260,90521,2,0,B|128:192,1,90
240,204,90855,2,0,B|170:260,1,90
296,260,91188,2,0,B|226:316,1,90
348,352,91521,6,0,B|396:364|448:352,1,90
504,280,91855,1,0,0:0:0:0:
488,184,92021,2,0,B|456:152|400:152,1,90
288,200,92355,2,0,B|320:232|376:232,1,90
308,120,92688,1,0,0:0:0:0:
92,116,92855,5,0,0:0:0:0:
200,116,93021,1,0,0:0:0:0:
40,264,93188,1,0,0:0:0:0:
148,264,93354,1,0,0:0:0:0:
352,336,93521,1,0,0:0:0:0:
244,336,93688,1,0,0:0:0:0:
244,336,93855,1,4,0:0:0:0:
244,336,94188,5,4,0:0:0:0:
244,244,94355,2,0,B|244:144,1,90
348,44,94688,2,0,B|408:128,1,90,0|2,0:0|3:2,0:0:0:0:
440,200,95021,1,0,0:0:0:0:
428,244,95105,2,0,B|392:316|308:348,1,135
333,336,95521,1,0,0:0:0:0:
152,336,95688,5,0,0:0:0:0:
48,192,95855,1,0,0:0:0:0:
100,264,96021,1,0,0:0:0:0:
192,112,96188,1,2,3:2:0:0:
144,188,96355,1,0,0:0:0:0:
180,216,96438,2,0,B|244:256|328:256,1,135,0|0,3:2|0:0,0:0:0:0:
307,255,96855,1,0,0:0:0:0:
296,64,97021,6,0,B|344:72|364:104|364:104|380:100|380:100|420:128|444:176,2,180,0|2|0,0:0|3:2|0:0,0:0:0:0:
240,60,97771,2,0,B|204:56|180:72|180:72|188:80|188:80|144:92|120:108,1,135
56,208,98188,1,0,0:0:0:0:
232,328,98355,1,2,3:2:0:0:
240,220,98522,1,0,0:0:0:0:
144,268,98689,1,0,0:0:0:0:
232,328,98855,5,0,0:0:0:0:
436,256,99021,1,2,3:2:0:0:
332,292,99188,2,0,B|332:184,1,90
332,202,99521,1,0,0:0:0:0:
268,56,99688,6,0,B|216:48|212:72|212:72|196:68|196:68|152:84|120:140,1,180
48,320,100188,2,0,B|68:280|112:240,1,90,2|0,3:2|0:0,0:0:0:0:
156,240,100438,2,0,B|184:312|276:360,1,135
242,340,100855,1,0,0:0:0:0:
316,228,101021,5,2,3:2:0:0:
392,340,101188,1,2,3:2:0:0:
466,228,101354,1,2,3:2:0:0:
440,96,101521,2,0,B|408:64|360:48,1,90,0|0,3:2|0:0,0:0:0:0:
320,44,101771,1,0,0:0:0:0:
72,288,102021,6,0,B|144:208,1,90
440,96,102355,2,0,B|368:176,1,90
212,192,102688,2,0,B|316:192,1,90
380,236,103021,1,0,0:0:0:0:
206,282,103188,1,0,3:2:0:0:
256,108,103355,1,2,3:2:0:0:
468,284,103521,5,2,1:2:0:0:
452,300,103605,1,0,0:0:0:0:
436,316,103688,2,0,B|384:336,1,45
294,279,103855,5,0,0:0:0:0:
310,263,103939,1,0,0:0:0:0:
326,247,104022,2,0,B|378:227,1,45
461,168,104188,5,0,0:0:0:0:
445,152,104272,1,0,0:0:0:0:
429,136,104355,2,0,B|377:116,1,45
276,130,104521,5,2,1:2:0:0:
292,146,104605,1,0,0:0:0:0:
308,162,104688,2,0,B|360:182,1,45
367,56,104855,6,0,B|294:28|218:39,1,135,4|0,0:0|0:0,0:0:0:0:
192,79,105188,2,0,B|176:122|113:135,1,90
32,184,105521,1,0,0:0:0:0:
72,292,105688,1,0,0:0:0:0:
168,224,105855,1,0,0:0:0:0:
208,332,106022,1,0,0:0:0:0:
284,244,106188,6,0,B|324:195|403:178,1,135
444,179,106521,1,0,0:0:0:0:
496,76,106688,2,0,B|456:48|392:40,1,90
328,92,107021,1,0,0:0:0:0:
236,52,107188,1,0,0:0:0:0:
148,96,107355,1,0,0:0:0:0:
56,56,107521,6,0,B|20:88|12:152,2,90
176,180,108021,1,0,0:0:0:0:
76,320,108188,1,0,0:0:0:0:
188,280,108355,2,0,B|232:272|284:296,1,90
384,340,108688,1,0,0:0:0:0:
420,312,108771,2,0,B|456:252|464:172,1,135
424,92,109188,1,0,0:0:0:0:
232,40,109355,5,0,0:0:0:0:
212,48,109438,1,0,0:0:0:0:
192,56,109521,2,0,B|104:96,2,90
296,108,110021,1,0,0:0:0:0:
311,91,110104,1,0,0:0:0:0:
328,76,110187,6,0,B|363:40,1,45,4|0,0:0|0:0,0:0:0:0:
395,141,110354,2,0,B|427:171,1,45
312,264,110521,2,0,B|348:228,1,45
412,360,110688,2,0,B|375:324,1,45
247,320,110854,6,0,B|211:356,1,45
179,255,111021,2,0,B|146:224,1,45
264,132,111188,2,0,B|227:168,1,45
164,36,111355,2,0,B|199:72,1,45
56,288,111605,5,0,0:0:0:0:
56,264,111688,1,0,0:0:0:0:
134,165,111855,1,0,0:0:0:0:
252,208,112021,1,0,0:0:0:0:
252,184,112105,1,0,0:0:0:0:
352,104,112271,1,0,0:0:0:0:
352,128,112355,1,0,0:0:0:0:
352,152,112438,1,0,0:0:0:0:
352,176,112521,1,0,0:0:0:0:
352,200,112605,1,0,0:0:0:0:
352,224,112688,1,0,0:0:0:0:
352,248,112771,1,0,0:0:0:0:
352,272,112855,6,0,B|353:320|370:339|370:339|349:350,2,90,4|0|0,0:0|0:0|0:0,0:0:0:0:
476,200,113355,1,0,0:0:0:0:
352,128,113521,1,0,0:0:0:0:
476,56,113688,1,0,0:0:0:0:
332,44,113855,1,0,0:0:0:0:
188,32,114021,2,0,B|144:60,1,45
124,104,114188,6,0,B|160:142|206:159,1,90
252,156,114438,2,0,B|276:200|284:256|260:324,1,135
140,324,114855,2,0,B|96:336,2,45
372,324,115188,2,0,B|416:336,2,45
270,286,115521,5,0,0:0:0:0:
412,204,115688,1,0,0:0:0:0:
424,148,115771,2,0,B|432:104|400:116|400:116|380:88|300:84,1,135
192,92,116188,1,0,0:0:0:0:
60,184,116355,1,0,0:0:0:0:
48,240,116438,2,0,B|40:284|72:272|72:272|92:300|172:304,1,135
256,272,116855,6,0,B|276:260|276:260|324:280|360:248,1,90
360,252,117105,1,0,0:0:0:0:
376,236,117188,1,0,0:0:0:0:
256,44,117355,1,0,0:0:0:0:
400,144,117521,2,0,B|348:144,2,45
112,240,117855,2,0,B|164:240,2,45
44,324,118188,6,0,B|64:360|104:360|104:360|164:340|196:340,1,135
212,340,118521,1,0,0:0:0:0:
316,296,118688,1,0,0:0:0:0:
400,360,118855,1,0,0:0:0:0:
392,252,119021,1,0,0:0:0:0:
476,316,119188,1,0,0:0:0:0:
488,208,119355,2,0,B|500:160,1,45
468,120,119521,6,0,B|436:84|392:72|392:72|368:100|316:76,1,135
300,96,119855,2,0,B|256:116|208:84,1,90
36,224,120188,2,0,B|48:268|108:292,1,90
292,184,120521,2,0,B|200:184,1,90
240,304,120855,6,0,B|344:320,1,90
396,312,121105,2,0,B|448:296,1,45
496,196,121355,1,0,0:0:0:0:
420,100,121521,2,0,B|316:84,1,90
264,96,121771,2,0,B|216:112,1,45
104,176,122021,1,0,0:0:0:0:
104,200,122105,1,0,0:0:0:0:
104,224,122188,6,0,B|104:320,1,90
176,360,122438,2,0,B|176:200,1,135
260,176,122855,2,0,B|304:160|360:184,2,90
176,225,123355,5,0,0:0:0:0:
328,324,123521,1,2,1:2:0:0:
456,196,123688,2,0,B|456:148,1,45
180,44,124021,1,0,0:0:0:0:
48,168,124188,1,2,1:2:0:0:
132,328,124355,2,0,B|188:328,1,45
376,120,124688,5,0,0:0:0:0:
352,120,124771,1,0,0:0:0:0:
328,120,124855,2,0,B|284:124|248:160,1,90,2|0,1:2|0:0,0:0:0:0:
204,284,125105,2,0,B|276:280|324:212,1,135
317,220,125521,1,2,1:2:0:0:
317,220,125855,5,0,0:0:0:0:
252,160,126021,1,0,0:0:0:0:
184,100,126188,6,0,B|156:80|128:80|96:100,2,90,4|0|0,0:0|0:0|0:0,0:0:0:0:
260,276,126688,1,0,0:0:0:0:
96,332,126855,2,0,B|60:304|60:248,1,90
148,20,127188,2,0,B|184:48|184:100,1,90
96,332,127521,6,0,B|140:352|188:332,2,90
40,208,128021,1,0,0:0:0:0:
164,152,128188,1,0,0:0:0:0:
208,152,128271,2,0,B|276:212|276:212|240:256,1,135
148,248,128688,1,0,0:0:0:0:
348,344,128855,5,0,0:0:0:0:
416,284,129021,1,0,0:0:0:0:
372,204,129188,1,0,0:0:0:0:
240,12,129355,2,0,B|230:59|251:111,1,90
460,160,129688,2,0,B|424:128|368:120,1,90
220,280,130021,2,0,B|265:264|300:220,1,90
248,100,130355,5,0,0:0:0:0:
156,196,130521,1,0,0:0:0:0:
60,100,130688,1,0,0:0:0:0:
24,248,130855,1,0,0:0:0:0:
148,336,131021,1,0,0:0:0:0:
300,168,131188,1,0,0:0:0:0:
452,336,131355,1,0,0:0:0:0:
300,360,131521,6,0,B|300:312|328:276,1,90,4|0,0:0|0:0,0:0:0:0:
424,208,131855,2,0,B|424:160|392:116,1,90
316,36,132188,2,0,B|224:80,1,90
152,36,132521,2,0,B|60:80,1,90
40,160,132855,5,0,0:0:0:0:
80,240,133021,1,0,0:0:0:0:
252,304,133188,1,0,0:0:0:0:
212,224,133354,1,0,0:0:0:0:
312,96,133521,1,0,0:0:0:0:
352,116,133605,2,0,B|412:152|432:240,1,135
380,320,134021,1,0,0:0:0:0:
168,360,134188,6,0,B|122:342|122:342|94:303,1,90
120,204,134521,1,0,0:0:0:0:
228,60,134688,2,0,B|328:60,1,90
344,240,135021,2,0,B|280:152,1,90
228,60,135355,1,0,0:0:0:0:
140,60,135521,6,0,B|96:80|96:136,1,90
100,328,135855,1,0,0:0:0:0:
144,252,136021,1,0,0:0:0:0:
192,328,136188,1,0,0:0:0:0:
372,328,136355,1,0,0:0:0:0:
284,328,136521,2,0,B|284:280,4,45,0|0|0|0|4,0:0|0:0|0:0|0:0|0:0,0:0:0:0:
284,204,137021,5,0,3:2:0:0:
284,20,137188,1,2,3:2:0:0:
284,112,137355,2,0,B|320:88|352:92|372:116|372:116|436:116,1,135.000005149842,0|0,3:2|0:0,0:0:0:0:
480,232,138021,2,0,B|468:272|416:268|416:272|428:288|428:288|376:296|360:280,1,135.000005149842,0|0,3:2|0:0,0:0:0:0:
248,268,138688,2,0,B|240:256|240:256|228:264|228:264|224:248|224:248|212:260|212:260|208:244|208:244|192:256|192:256|184:240|184:240|172:248|172:248|168:240,1,135.000005149842,2|2,3:2|3:2,0:0:0:0:
72,164,139188,1,2,3:2:0:0:
108,220,139355,1,0,0:0:0:0:
149,165,139521,6,0,B|165:149|165:149|173:173|173:173|181:157|181:157|189:165|189:165|205:149|205:149|229:165|229:165|205:165|317:165,1,202.500007724762
416,88,140188,2,0,B|400:104|400:104|392:80|392:80|384:96|384:96|376:88|376:88|360:104|360:104|336:88|336:88|360:88|248:88,1,202.500007724762
68,236,140855,2,0,B|84:220|84:220|92:244|92:244|100:228|100:228|108:236|108:236|124:220|124:220|148:236|148:236|124:236|236:236,1,202.500007724762,2|0,3:2|0:0,0:0:0:0:
484,336,141521,2,0,B|468:352|468:352|460:328|460:328|452:344|452:344|444:336|444:336|428:352|428:352|404:336|404:336|428:336|316:336,1,202.500007724762,0|0,3:2|0:0,0:0:0:0:
272,340,142188,1,2,3:2:0:0:
113,278,142355,6,0,B|200:312,1,67.5000025749208,0|2,0:0|3:2,0:0:0:0:
252,256,142688,2,0,B|276:228|288:176|272:116,1,135.000005149842
32,192,143355,1,0,0:0:0:0:
256,352,143688,1,0,0:0:0:0:
480,192,144021,1,2,3:2:0:0:
444,112,144188,2,0,B|416:84|372:80,2,67.5000025749208,2|0|0,3:2|0:0|0:0,0:0:0:0:
408,192,144688,1,0,0:0:0:0:
332,148,144855,6,0,B|293:111|247:127|245:179|245:179|243:231|205:245,1,202.500007724762,0|2,0:0|3:2,0:0:0:0:
120,240,145521,2,0,B|112:280|124:312|176:344|204:336,1,135.000005149842,2|0,3:2|0:0,0:0:0:0:
368,332,146188,2,0,B|400:292|400:232|360:188|324:176|312:112|368:80,1,270.000010299683
359,85,147188,1,0,0:0:0:0:
192,40,147521,5,2,3:2:0:0:
40,129,147855,1,0,3:2:0:0:
98,295,148188,1,2,3:2:0:0:
250,206,148521,1,0,3:2:0:0:
40,129,148855,6,0,P|65:104|79:76,1,67.5000025749208,2|0,3:2|0:0,0:0:0:0:
98,295,149188,2,0,P|73:269|45:255,1,67.5000025749208,0|0,3:2|0:0,0:0:0:0:
250,206,149521,2,0,P|224:230|210:258,1,67.5000025749208,2|0,3:2|0:0,0:0:0:0:
191,39,149854,2,0,P|216:65|244:79,1,67.5000025749208,0|0,3:2|0:0,0:0:0:0:
256,192,150188,12,0,151021,0:0:0:0:
256,282,151188,6,0,B|256:192,1,90,0|4,0:0|0:0,0:0:0:0:
256,84,151688,5,0,0:0:0:0:
348,24,151855,2,0,B|348:152,1,90
420,204,152188,1,0,0:0:0:0:
380,312,152355,1,0,0:0:0:0:
264,312,152521,1,0,0:0:0:0:
224,204,152688,1,0,0:0:0:0:
140,124,152855,6,0,B|96:80|56:132,1,90
32,176,153105,2,0,B|12:216|12:216|44:300,1,135
196,272,153521,2,0,B|240:248|300:276,1,90
472,128,153855,2,0,B|428:106|384:130,1,90
276,84,154188,5,0,0:0:0:0:
84,44,154355,1,0,0:0:0:0:
132,56,154438,2,0,B|152:100|112:136|112:136|148:180,1,135
236,300,154855,1,0,0:0:0:0:
428,340,155022,1,0,0:0:0:0:
380,328,155105,2,0,B|360:284|400:248|400:248|364:204,1,135
240,40,155521,6,0,B|280:68|280:68|272:136,1,90
236,140,155771,2,0,B|228:192|260:228|260:228|252:288,1,135
132,320,156188,2,0,B|80:340,2,45
400,204,156521,2,0,B|452:184,2,45
292,196,156855,5,0,0:0:0:0:
203,106,157021,1,0,0:0:0:0:
292,17,157188,1,0,0:0:0:0:
382,107,157355,1,0,0:0:0:0:
292,196,157521,2,0,B|216:272,2,90
324,76,158021,1,0,0:0:0:0:
304,68,158105,1,0,0:0:0:0:
284,60,158188,6,0,B|240:48|176:48,1,90
160,100,158438,2,0,B|152:152|96:164|96:164|84:216,1,135
156,352,158855,1,0,0:0:0:0:
272,196,159021,1,0,0:0:0:0:
296,360,159188,2,0,B|356:288,1,90
408,176,159521,5,0,0:0:0:0:
256,52,159688,1,0,0:0:0:0:
300,52,159771,2,0,B|348:52,1,45
180,200,160021,1,0,0:0:0:0:
52,196,160188,1,0,0:0:0:0:
156,352,160355,1,0,0:0:0:0:
200,352,160438,2,0,B|244:352,1,45
64,112,160688,1,0,0:0:0:0:
152,60,160855,2,0,B|200:68|232:112,1,90
260,224,161105,2,0,B|188:220|160:144,1,135
152,60,161521,5,0,0:0:0:0:
176,56,161605,1,0,0:0:0:0:
200,52,161688,2,0,B|252:44,1,45
404,76,161855,5,0,0:0:0:0:
385,91,161939,1,0,0:0:0:0:
366,106,162022,2,0,B|324:138,1,45
236,244,162188,6,0,B|320:280,1,90,0|4,0:0|0:0,0:0:0:0:
432,252,162688,5,0,0:0:0:0:
368,156,162855,1,0,0:0:0:0:
472,108,163021,1,0,0:0:0:0:
392,24,163188,1,0,0:0:0:0:
288,80,163355,1,0,0:0:0:0:
180,40,163521,6,0,B|128:12|72:56,1,90
32,180,163771,2,0,B|104:176|144:96,1,135
264,176,164188,1,0,0:0:0:0:
280,192,164271,2,0,B|316:228,1,45
176,340,164521,1,0,0:0:0:0:
244,284,164688,1,0,0:0:0:0:
380,168,164855,6,0,B|376:120|312:72,1,90
276,60,165105,2,0,B|228:60,1,45
116,128,165355,1,0,0:0:0:0:
72,256,165521,2,0,B|120:268|184:232,1,90
216,208,165771,2,0,B|240:156,1,45
276,60,166021,1,0,0:0:0:0:
336,268,166188,6,0,B|424:300,1,90
512,256,166438,2,0,B|385:209,1,135
168,128,166855,2,0,B|204:96|256:88,1,90
420,300,167188,2,0,B|384:332|332:340,1,90
208,304,167521,5,0,0:0:0:0:
160,148,167688,1,0,0:0:0:0:
288,244,167855,1,0,0:0:0:0:
240,88,168022,1,0,0:0:0:0:
360,196,168188,2,0,B|328:104,1,90
392,20,168521,2,0,B|424:112,1,90
428,128,168771,1,0,0:0:0:0:
432,152,168855,6,0,B|444:196|443:241,1,90
330,303,169105,2,0,B|406:299|444:240,1,135
292,188,169521,1,0,0:0:0:0:
256,188,169605,1,0,0:0:0:0:
220,188,169688,1,0,0:0:0:0:
60,104,169855,2,0,B|96:72|152:68,1,90
268,68,170188,6,0,B|368:68,1,90
456,169,170438,2,0,B|324:144,1,135
136,208,170855,2,0,B|216:272,1,90
7,288,171105,2,0,B|140:312,1,135
268,316,171521,5,0,0:0:0:0:
360,316,171688,1,0,0:0:0:0:
452,316,171855,1,0,0:0:0:0:
484,232,172021,1,0,0:0:0:0:
432,156,172188,5,0,0:0:0:0:
416,140,172271,1,0,0:0:0:0:
400,124,172355,2,0,B|348:68,1,45
188,168,172521,5,0,0:0:0:0:
204,152,172604,1,0,0:0:0:0:
220,136,172688,2,0,B|272:80,1,45
316,40,172855,5,2,1:2:0:0:
316,336,173521,1,2,1:2:0:0:
64,192,174188,5,2,1:2:0:0:
136,192,174521,1,2,1:2:0:0:
208,192,174855,1,0,0:0:0:0:
280,192,175188,5,0,0:0:0:0:
280,192,175355,1,0,0:0:0:0:
280,192,175521,6,0,B|376:192,2,90,4|0|0,0:0|0:0|0:0,0:0:0:0:
164,192,176021,1,0,0:0:0:0:
48,192,176188,2,0,B|48:292,1,90
280,356,176521,2,0,B|280:266,1,90
400,56,176855,5,0,0:0:0:0:
400,220,177021,1,0,0:0:0:0:
234,56,177188,2,0,B|324:56,1,90
72,284,177521,2,0,B|72:176,1,90
400,56,177855,2,0,B|400:146,1,90
332,240,178188,5,0,0:0:0:0:
332,356,178355,1,0,0:0:0:0:
184,132,178521,1,0,0:0:0:0:
184,296,178688,1,0,0:0:0:0:
424,296,178855,2,0,B|492:232,1,90
404,120,179188,2,0,B|470:59,1,90
490,235,179521,5,0,0:0:0:0:
344,232,179688,1,0,0:0:0:0:
184,132,179855,1,0,0:0:0:0:
344,232,180021,1,0,0:0:0:0:
264,180,180188,1,0,0:0:0:0:
109,317,180355,1,0,0:0:0:0:
153,72,180521,1,0,0:0:0:0:
344,232,180688,1,0,0:0:0:0:
256,352,180855,6,0,B|256:260,1,90,4|0,0:0|0:0,0:0:0:0:
256,32,181188,2,0,B|256:124,1,90
256,262,181521,1,0,0:0:0:0:
408,312,181688,1,0,0:0:0:0:
356,208,181855,1,0,0:0:0:0:
412,56,182021,1,0,0:0:0:0:
312,104,182188,5,0,0:0:0:0:
356,208,182355,1,0,0:0:0:0:
256,262,182521,2,0,B|160:308,1,90
32,276,182855,2,0,B|114:238,1,90
16,188,183188,2,0,B|98:150,1,90
361,123,183521,6,0,B|449:83,2,90,0|0|0,0:0|0:0|0:0,0:0:0:0:
194,200,184021,1,0,0:0:0:0:
277,161,184188,1,0,0:0:0:0:
111,239,184355,1,0,0:0:0:0:
194,200,184521,1,0,0:0:0:0:
31,276,184688,1,0,0:0:0:0:
104,328,184855,6,0,B|200:328,1,90,4|0,0:0|0:0,0:0:0:0:
376,328,185188,1,0,0:0:0:0:
284,328,185355,2,0,B|284:220,1,90
284,148,185688,1,0,0:0:0:0:
284,148,185855,1,4,0:0:0:0:
284,148,186188,5,4,0:0:0:0:
256,192,186271,12,0,193855,0:0:0:0:
