osu file format v12

[General]
AudioFilename: 13 - COME BACK TO MY HEART (RyuRemix).mp3
AudioLeadIn: 1500
PreviewTime: 69888
Countdown: 0
SampleSet: Normal
StackLeniency: 0.5
Mode: 0
LetterboxInBreaks: 1

[Editor]
DistanceSpacing: 1
BeatDivisor: 2
GridSize: 4

[Metadata]
Title:COME BACK TO MY HEART (Ryu* Remix)
TitleUnicode:COME BACK TO MY HEART (Ryu* Remix)
Artist:Another Infinity feat. Mayumi Morinaga
ArtistUnicode:Another Infinity feat. Mayumi Morinaga
Creator:CSY the corrupt
Version:Basic
Source:jubeat
Tags:AGEHA ms0080345 bakahuang huang99520 plus Rainbow*Rainbow Beatmania IIDX
BeatmapID:188263
BeatmapSetID:63056

[Difficulty]
HPDrainRate:3
CircleSize:3
OverallDifficulty:3
ApproachRate:4
SliderMultiplier:0.899999999999999
SliderTickRate:1

[Events]
//Background and Video events
0,0,"zraXN.jpg",0,0
//Break Periods
2,3521,4868
2,11521,20868
2,35721,44868
2,83721,92868
2,126388,135535
//Storyboard Layer 0 (Background)
//Storyboard Layer 1 (Fail)
//Storyboard Layer 2 (Pass)
//Storyboard Layer 3 (Foreground)
//Storyboard Sound Samples
//Background Colour Transformations
3,100,163,162,255

[TimingPoints]
-478,333.333333333333,4,1,0,60,1,0
855,-100,4,1,0,80,0,0
23855,-100,4,1,0,5,0,0
24855,-100,4,1,0,80,0,0
35521,-100,4,1,0,80,0,1
35605,-100,4,1,0,80,0,0
69188,-100,4,1,0,50,0,0
70188,-100,4,1,0,80,0,1
83188,-100,4,1,0,80,0,0
83521,-100,4,1,0,80,0,1
83605,-100,4,1,0,80,0,0
111855,-100,4,1,0,50,0,0
112855,-100,4,1,0,80,0,1
123521,-100,4,1,0,80,0,0
126188,-100,4,1,0,80,0,1
126271,-100,4,1,0,80,0,0
151521,-100,4,1,0,80,0,1
162188,-100,4,1,0,5,0,0
162521,-100,4,1,0,80,0,1
172855,-100,4,1,0,80,0,0
175521,-100,4,1,0,80,0,1
175605,-100,4,1,0,80,0,0
186855,-100,4,1,0,70,0,0
187355,-100,4,1,0,80,0,0
187855,-100,4,1,0,75,0,0
188355,-100,4,1,0,60,0,0
188855,-100,4,1,0,55,0,0
189355,-100,4,1,0,50,0,0
189855,-100,4,1,0,45,0,0
190355,-100,4,1,0,40,0,0
190855,-100,4,1,0,35,0,0
191355,-100,4,1,0,30,0,0
191855,-100,4,1,0,25,0,0
192355,-100,4,1,0,20,0,0
192855,-100,4,1,0,15,0,0
193355,-100,4,1,0,10,0,0
193855,-100,4,1,0,5,0,0

[Colours]
Combo1 : 255,128,0
Combo2 : 217,217,0
Combo3 : 170,170,255
Combo4 : 0,128,255

[HitObjects]
114,119,855,1,0,0:0:0:0:
84,204,1188,2,0,B|72:280|124:320|196:300,1,180,8|8,0:0|0:0,0:0:0:0:
276,266,2188,1,0,0:0:0:0:
305,181,2521,2,0,B|317:104|265:65|193:84,1,180,8|8,0:0|0:0,0:0:0:0:
259,176,6188,5,0,0:0:0:0:
176,220,6521,2,0,P|164:280|254:357,1,180,8|8,0:0|0:0,0:0:0:0:
250,266,7521,1,0,0:0:0:0:
326,313,7855,2,0,P|338:253|248:176,1,180,8|8,0:0|0:0,0:0:0:0:
176,220,8855,5,0,0:0:0:0:
136,140,9188,2,0,B|52:172,2,89.9999999999999,8|0|8,0:0|0:0|0:0,0:0:0:0:
196,72,10188,1,0,0:0:0:0:
284,72,10521,1,0,0:0:0:0:
244,152,10855,2,0,B|324:192,1,89.9999999999999,12|12,0:0|0:0,0:0:0:0:
256,192,22188,12,0,23855,0:0:0:0:
296,152,24855,5,0,0:0:0:0:
352,80,25188,1,8,0:0:0:0:
384,164,25521,2,0,B|344:248,2,89.9999999999999,0|8|0,0:0|0:0|0:0,0:0:0:0:
296,152,26521,2,0,B|228:72,1,89.9999999999999,8|0,0:0|0:0,0:0:0:0:
148,72,27188,1,8,0:0:0:0:
72,120,27521,5,0,0:0:0:0:
80,208,27855,2,0,B|88:248|120:268|160:268,2,89.9999999999999,8|0|8,0:0|0:0|0:0,0:0:0:0:
164,180,28855,2,0,B|188:108|268:68|324:84|396:172,1,270,0|8,0:0|0:0,0:0:0:0:
388,240,30188,5,0,0:0:0:0:
320,300,30521,2,0,B|268:320|244:272,2,89.9999999999999,8|0|8,0:0|0:0|0:0,0:0:0:0:
308,212,31521,2,0,B|268:156|180:156|128:208,1,180,0|0,0:0|0:0,0:0:0:0:
44,44,32855,5,0,0:0:0:0:
116,208,33522,1,0,0:0:0:0:
296,212,34188,1,0,0:0:0:0:
420,80,34855,2,0,B|392:40|324:36,2,89.9999999999999,0|0|12,0:0|0:0|0:0,0:0:0:0:
176,96,46188,6,0,B|224:48|300:48|356:120,2,180,0|0|0,0:0|0:0|0:0,0:0:0:0:
88,68,47855,1,8,0:0:0:0:
31,138,48188,1,0,0:0:0:0:
74,216,48521,1,8,0:0:0:0:
129,287,48855,6,0,B|194:357,3,89.9999999999999,0|8|0|8,0:0|0:0|0:0|0:0,0:0:0:0:
278,338,50188,1,0,0:0:0:0:
361,304,50521,2,0,L|423:225,3,89.9999999999999,8|0|8|0,0:0|0:0|0:0|0:0,0:0:0:0:
467,158,51855,5,8,0:0:0:0:
383,124,52188,2,0,B|280:75,1,89.9999999999999,0|8,0:0|0:0,0:0:0:0:
220,124,52855,1,0,0:0:0:0:
132,112,53188,2,0,B|56:60,2,89.9999999999999,8|0|8,0:0|0:0|0:0,0:0:0:0:
64,172,54188,5,0,0:0:0:0:
68,260,54521,2,0,B|156:296,1,89.9999999999999,8|0,0:0|0:0,0:0:0:0:
240,308,55188,1,8,0:0:0:0:
328,292,55521,2,0,P|403:246|409:153,1,180
232,148,56855,6,0,B|328:192,2,89.9999999999999,0|8|0,0:0|0:0|0:0,0:0:0:0:
52,140,58188,2,0,B|88:100|136:116,2,89.9999999999999,0|8|0,0:0|0:0|0:0,0:0:0:0:
36,228,59188,1,0,0:0:0:0:
104,284,59521,5,8,0:0:0:0:
280,252,60188,2,0,P|340:316|440:300,2,180,8|8|0,0:0|0:0|0:0,0:0:0:0:
288,72,62188,6,0,P|328:56|376:80,2,89.9999999999999,0|0|8,0:0|0:0|0:0,0:0:0:0:
208,236,63521,2,0,P|168:252|120:228,2,89.9999999999999,0|0|8,0:0|0:0|0:0,0:0:0:0:
168,152,64521,2,0,B|100:52,1,89.9999999999999,0|8,0:0|0:0,0:0:0:0:
371,143,65521,6,0,B|319:123|281:150,2,89.9999999999999,8|0|8,0:0|0:0|0:0,0:0:0:0:
332,224,66521,1,8,0:0:0:0:
256,268,66855,1,0,0:0:0:0:
184,216,67188,1,0,0:0:0:0:
256,192,67521,12,0,69188,0:0:0:0:
403,221,70188,5,0,0:0:0:0:
388,132,70521,2,0,B|328:64,2,89.9999999999999,8|0|8,0:0|0:0|0:0,0:0:0:0:
316,184,71521,1,0,0:0:0:0:
240,136,71855,1,8,0:0:0:0:
164,184,72188,2,0,B|76:264,2,89.9999999999999,0|8|0,0:0|0:0|0:0,0:0:0:0:
268,332,73521,5,0,0:0:0:0:
400,208,74188,2,0,P|392:117|300:120,1,180
148,168,75521,5,0,0:0:0:0:
144,260,75855,2,0,B|68:328,2,89.9999999999999,8|0|8,0:0|0:0|0:0,0:0:0:0:
228,292,76854,1,0,0:0:0:0:
316,276,77188,1,8,0:0:0:0:
376,208,77521,2,0,B|464:252,2,89.9999999999999,0|8|0,0:0|0:0|0:0,0:0:0:0:
276,56,78855,5,0,0:0:0:0:
132,164,79521,2,0,B|96:212|112:272|172:276|224:260,1,180
388,296,80855,5,2,1:2:0:0:
436,124,81521,1,2,1:2:0:0:
256,88,82188,2,0,B|216:56|156:52|108:80|88:128,2,180
330,269,94188,6,0,P|263:323|167:255,2,180
248,232,95855,1,8,0:0:0:0:
273,145,96188,2,0,P|230:129|186:125,1,89.9999999999999,0|8,0:0|0:0,0:0:0:0:
96,132,96855,6,0,B|40:60,2,89.9999999999999,0|8|0,0:0|0:0|0:0,0:0:0:0:
36,200,97855,1,8,0:0:0:0:
84,276,98188,1,0,0:0:0:0:
172,264,98521,2,0,B|248:204,3,89.9999999999999,8|0|8|0,0:0|0:0|0:0|0:0,0:0:0:0:
332,172,99855,5,8,0:0:0:0:
332,172,100188,2,0,B|416:240,1,89.9999999999999,0|8,0:0|0:0,0:0:0:0:
480,276,100855,1,0,0:0:0:0:
476,188,101188,2,0,B|476:88,2,89.9999999999999,8|0|8,0:0|0:0|0:0,0:0:0:0:
396,228,102188,5,0,0:0:0:0:
317,271,102521,2,0,B|229:319,1,89.9999999999999,8|0,0:0|0:0,0:0:0:0:
149,329,103188,1,8,0:0:0:0:
68,287,103521,2,0,P|42:217|95:119,1,180,0|8,0:0|0:0,0:0:0:0:
264,96,104855,6,0,B|276:196,2,89.9999999999999,0|8|0,0:0|0:0|0:0,0:0:0:0:
408,204,106188,2,0,B|428:264|368:272,2,89.9999999999999,0|8|0,0:0|0:0|0:0,0:0:0:0:
364,124,107188,1,0,0:0:0:0:
280,96,107521,5,8,0:0:0:0:
224,268,108188,2,0,B|164:288|156:228,2,89.9999999999999,8|0|8,0:0|0:0|0:0,0:0:0:0:
308,232,109188,1,8,0:0:0:0:
276,148,109521,1,8,0:0:0:0:
184,152,109855,1,0,0:0:0:0:
256,192,110188,12,0,111855,0:0:0:0:
452,204,112855,5,0,0:0:0:0:
392,136,113188,2,0,B|460:76,2,89.9999999999999,8|0|8,0:0|0:0|0:0,0:0:0:0:
308,100,114188,1,0,0:0:0:0:
220,92,114521,1,8,0:0:0:0:
132,116,114855,2,0,B|44:196,2,89.9999999999999,0|8|0,0:0|0:0|0:0,0:0:0:0:
300,184,116188,5,0,0:0:0:0:
184,320,116855,2,0,B|128:364|60:352|32:292,1,180
184,196,118188,5,0,0:0:0:0:
120,136,118521,2,0,B|52:76,2,89.9999999999999,8|0|8,0:0|0:0|0:0,0:0:0:0:
204,100,119521,1,0,0:0:0:0:
292,92,119854,1,8,0:0:0:0:
380,116,120188,2,0,B|468:196,2,89.9999999999999,0|8|0,0:0|0:0|0:0,0:0:0:0:
376,292,121521,5,0,0:0:0:0:
428,120,122188,2,0,B|372:76|304:88|276:148,1,180
148,272,123522,5,2,1:2:0:0:
140,92,124188,1,2,1:2:0:0:
300,176,124855,2,0,B|340:208|400:212|448:184|468:136,2,180,0|2|0,0:0|1:2|0:0,0:0:0:0:
352,88,136855,5,0,0:0:0:0:
264,84,137188,2,0,B|188:84|144:124|140:204,2,180,8|8|0,0:0|0:0|0:0,0:0:0:0:
339,133,138855,1,0,0:0:0:0:
382,211,139188,1,8,0:0:0:0:
368,300,139521,6,0,P|307:351|220:312,1,180,0|0,0:0|0:0,0:0:0:0:
180,140,140855,2,0,P|254:166|284:280,1,180
113,213,142188,6,0,B|58:167|70:93|126:55,2,180,0|8|8,0:0|0:0|0:0,0:0:0:0:
166,140,143855,1,8,0:0:0:0:
227,205,144188,2,0,B|188:295,2,89.9999999999999,0|8|0,0:0|0:0|0:0,0:0:0:0:
316,220,145188,5,0,0:0:0:0:
320,132,145521,1,8,0:0:0:0:
243,85,145855,1,8,0:0:0:0:
153,79,146188,2,0,P|78:127|94:212,1,180
178,224,147188,1,0,0:0:0:0:
260,260,147521,6,0,B|228:344,2,89.9999999999999,0|0|8,0:0|0:0|0:0,0:0:0:0:
348,240,148521,1,8,0:0:0:0:
416,184,148855,1,0,0:0:0:0:
376,104,149188,1,0,0:0:0:0:
298,58,149521,2,0,B|229:40|178:72|166:146,1,180,8|2,0:0|3:2,0:0:0:0:
464,232,151521,5,0,0:0:0:0:
384,276,151855,2,0,B|444:344,2,89.9999999999999,8|0|8,0:0|0:0|0:0,0:0:0:0:
332,204,152854,1,0,0:0:0:0:
240,204,153188,1,8,0:0:0:0:
164,252,153521,2,0,B|88:328,2,89.9999999999999,0|8|0,0:0|0:0|0:0,0:0:0:0:
280,112,154855,5,0,0:0:0:0:
104,71,155521,2,0,B|28:147,2,89.9999999999999,0|0|8,0:0|0:0|0:0,0:0:0:0:
184,113,156521,1,0,0:0:0:0:
272,92,156855,5,0,0:0:0:0:
360,108,157189,2,0,B|420:40,2,89.9999999999999,8|0|8,0:0|0:0|0:0,0:0:0:0:
404,188,158188,1,0,0:0:0:0:
364,268,158522,1,8,0:0:0:0:
300,204,158855,2,0,B|232:120,2,89.9999999999999,0|8|0,0:0|0:0|0:0,0:0:0:0:
424,332,160187,5,0,0:0:0:0:
252,276,160855,2,0,B|176:344,2,89.9999999999999,0|8|0,0:0|0:0|0:0,0:0:0:0:
251,95,162188,6,0,B|226:50|178:46,1,89.9999999999999,0|8,0:0|0:0,0:0:0:0:
91,63,162855,2,0,B|57:100|72:159,1,89.9999999999999,0|8,0:0|0:0,0:0:0:0:
108,228,163521,1,0,0:0:0:0:
172,292,163855,1,8,0:0:0:0:
260,280,164188,2,0,B|336:356,2,89.9999999999999,0|8|0,0:0|0:0|0:0,0:0:0:0:
248,192,165188,6,0,B|368:196,1,89.9999999999999,8|0,0:0|0:0,0:0:0:0:
393,265,165855,2,0,B|423:232|467:182,1,89.9999999999999,8|0,0:0|0:0,0:0:0:0:
392,132,166521,2,0,B|436:40,2,89.9999999999999,0|8|0,0:0|0:0|0:0,0:0:0:0:
320,80,167521,5,0,0:0:0:0:
232,96,167854,2,0,B|184:16,2,89.9999999999999,8|0|8,0:0|0:0|0:0,0:0:0:0:
152,140,168855,1,0,0:0:0:0:
124,224,169188,1,8,0:0:0:0:
152,308,169521,2,0,B|64:388,2,89.9999999999999,0|8|0,0:0|0:0|0:0,0:0:0:0:
244,312,170521,6,0,B|260:208,1,89.9999999999999,8|0,0:0|0:0,0:0:0:0:
172,192,171188,1,8,0:0:0:0:
244,136,171521,1,8,0:0:0:0:
332,160,171855,2,0,B|388:252,3,89.9999999999999,8|0|0|2,0:0|0:0|0:0|1:2,0:0:0:0:
460,76,173521,5,2,1:2:0:0:
280,92,174188,2,0,B|232:188,2,89.9999999999999,2|2|0,1:2|1:2|0:0,0:0:0:0:
396,229,175521,6,0,B|431:195|443:149,1,89.9999999999999,8|8,0:0|0:0,0:0:0:0:
435,62,176188,2,0,B|384:45|338:64,1,89.9999999999999
256,69,176855,1,0,0:0:0:0:
170,41,177188,1,8,0:0:0:0:
109,107,177521,2,0,B|195:167,2,89.9999999999999,8|8|0,0:0|0:0|0:0,0:0:0:0:
69,187,178521,5,0,0:0:0:0:
81,276,178855,1,8,0:0:0:0:
164,309,179188,2,0,B|308:381,2,89.9999999999999,8|0|8,0:0|0:0|0:0,0:0:0:0:
215,235,180188,2,0,B|316:200,1,89.9999999999999,0|8,0:0|0:0,0:0:0:0:
357,275,180855,5,8,0:0:0:0:
392,192,181188,2,0,B|484:220,2,89.9999999999999,8|0|0,0:0|0:0|0:0,0:0:0:0:
404,104,182188,1,0,0:0:0:0:
320,68,182521,2,0,B|267:162,2,89.9999999999999,8|8|0,0:0|0:0|0:0,0:0:0:0:
232,44,183521,5,8,0:0:0:0:
144,60,183855,1,8,0:0:0:0:
76,120,184188,2,0,B|100:232,1,89.9999999999999,0|8,0:0|0:0,0:0:0:0:
144,284,184855,1,8,0:0:0:0:
212,344,185188,1,8,0:0:0:0:
292,308,185521,2,0,B|316:196,1,89.9999999999999,0|12,0:0|0:0,0:0:0:0:
256,192,186188,12,0,193855,0:0:0:0:
