osu file format v12

[General]
AudioFilename: 13 - COME BACK TO MY HEART (RyuRemix).mp3
AudioLeadIn: 1500
PreviewTime: 69888
Countdown: 0
SampleSet: None
StackLeniency: 0.5
Mode: 0
LetterboxInBreaks: 1

[Editor]
Bookmarks: 94138,104805,136805,147555
DistanceSpacing: 2
BeatDivisor: 4
GridSize: 4

[Metadata]
Title:COME BACK TO MY HEART (Ryu* Remix)
TitleUnicode:COME BACK TO MY HEART (Ryu* Remix)
Artist:Another Infinity feat. Mayumi Morinaga
ArtistUnicode:Another Infinity feat. Mayumi Morinaga
Creator:CSY the corrupt
Version:Advanced
Source:jubeat
Tags:AGEHA ms0080345 bakahuang huang99520 plus Rainbow*Rainbow Beatmania IIDX
BeatmapID:195372
BeatmapSetID:63056

[Difficulty]
HPDrainRate:7
CircleSize:4
OverallDifficulty:7
ApproachRate:8
SliderMultiplier:1.4
SliderTickRate:1

[Events]
//Background and Video events
0,0,"zraXN.jpg",0,0
//Break Periods
2,11721,21438
2,94388,101438
//Storyboard Layer 0 (Background)
//Storyboard Layer 1 (Fail)
//Storyboard Layer 2 (Pass)
//Storyboard Layer 3 (Foreground)
//Storyboard Sound Samples
//Background Colour Transformations
3,100,163,162,255

[TimingPoints]
-478,333.333333333333,4,1,0,80,1,0
10855,-133.333333333333,4,1,0,80,0,0
11105,-133.333333333333,4,1,0,5,0,0
11188,-133.333333333333,4,1,0,80,0,0
24688,-100,4,2,0,80,0,0
30188,-100,4,3,0,80,0,0
35355,-100,4,1,0,60,0,0
35521,-100,4,1,0,80,0,1
35605,-100,4,1,0,80,0,0
67521,-200,4,1,0,80,0,0
70188,-100,4,1,0,80,0,1
83188,-100,4,1,0,80,0,0
83521,-100,4,1,0,80,0,1
83605,-100,4,1,0,80,0,0
94355,-100,4,3,0,70,0,0
104855,-100,4,1,0,80,0,0
110188,-200,4,1,0,80,0,0
112855,-100,4,1,0,80,0,1
123521,-100,4,1,0,80,0,0
126188,-100,4,1,0,80,0,1
126271,-100,4,1,0,80,0,0
137355,-100,4,3,0,75,0,0
150188,-100,4,3,0,60,0,0
151021,-100,4,1,0,80,0,0
151521,-100,4,1,0,80,0,1
162188,-200,4,1,0,5,0,0
162521,-100,4,1,0,80,0,1
172855,-100,4,1,0,80,0,0
175521,-100,4,1,0,80,0,1
175605,-100,4,1,0,80,0,0
186855,-100,4,1,0,70,0,0
187355,-100,4,1,0,80,0,0
187855,-100,4,1,0,75,0,0
188355,-100,4,1,0,60,0,0
188855,-100,4,1,0,55,0,0
189355,-100,4,1,0,50,0,0
189855,-100,4,1,0,45,0,0
190355,-100,4,1,0,40,0,0
190855,-100,4,1,0,35,0,0
191355,-100,4,1,0,30,0,0
191855,-100,4,1,0,25,0,0
192355,-100,4,1,0,20,0,0
192855,-100,4,1,0,15,0,0
193355,-100,4,1,0,10,0,0
193855,-100,4,1,0,5,0,0

[Colours]
Combo1 : 255,128,0
Combo2 : 217,217,0
Combo3 : 170,170,255
Combo4 : 0,128,255

[HitObjects]
40,96,855,2,0,B|80:104|112:100,1,70,4|0,0:0|0:0,0:0:0:0:
192,96,1188,2,0,B|232:88|264:92,1,70
344,88,1521,1,0,0:0:0:0:
408,152,1688,1,0,0:0:0:0:
428,72,1854,1,0,0:0:0:0:
492,136,2021,1,0,0:0:0:0:
492,152,2105,1,0,0:0:0:0:
492,168,2188,6,0,B|492:208|488:240,1,70
375,290,2521,2,0,B|372:320|372:360,1,70
255,233,2855,2,0,B|255:193|252:164,1,70
136,352,3188,2,0,B|136:312|139:282,1,70
152,116,3521,5,0,0:0:0:0:
152,116,3855,2,0,B|112:120|76:116,1,70
228,80,4188,2,0,B|268:76|304:80,1,70
380,84,4521,1,0,0:0:0:0:
380,84,4855,6,0,B|384:156|384:232,1,140
300,224,5355,1,0,0:0:0:0:
216,232,5521,1,0,0:0:0:0:
216,232,5605,1,0,0:0:0:0:
216,232,5688,1,0,0:0:0:0:
132,224,5855,1,0,0:0:0:0:
48,228,6021,1,0,0:0:0:0:
32,312,6188,6,0,B|80:316|144:312,1,105
156,312,6521,1,0,0:0:0:0:
240,312,6688,2,0,B|280:308|316:312,2,70
388,316,7188,1,0,0:0:0:0:
472,308,7355,1,0,0:0:0:0:
472,292,7438,1,0,0:0:0:0:
472,276,7521,6,0,B|472:224|468:184,1,70
464,120,7855,1,0,0:0:0:0:
312,48,8021,1,0,0:0:0:0:
396,44,8188,2,0,B|396:88|368:112,1,70
139,107,8521,2,0,B|116:80|116:44,1,70
200,48,8855,5,0,0:0:0:0:
256,112,9021,1,0,0:0:0:0:
312,48,9188,1,0,0:0:0:0:
200,336,9521,1,0,0:0:0:0:
256,272,9687,1,0,0:0:0:0:
256,272,9771,1,0,0:0:0:0:
256,272,9855,1,0,0:0:0:0:
312,336,10021,1,0,0:0:0:0:
208,208,10188,6,0,B|224:184|288:184|304:208,1,105
316,220,10521,1,0,0:0:0:0:
400,208,10688,1,0,0:0:0:0:
448,140,10855,6,0,B|456:96|456:52,1,78.7500030040742,4|0,0:0|0:0,0:0:0:0:
456,40,11188,2,0,B|472:96|500:144,1,105.000004005432,4|4,0:0|0:0,0:0:0:0:
256,192,22188,5,4,0:0:0:0:
256,192,22271,12,0,24855,0:0:0:0:
204,192,25188,6,0,B|236:172|256:144|256:144|276:172|308:192,2,140
180,112,26021,1,0,0:0:0:0:
144,136,26105,1,0,0:0:0:0:
124,172,26188,6,0,B|116:216|136:248|160:272|200:276,1,140
256,332,26688,1,0,0:0:0:0:
317,275,26855,2,0,B|352:272|376:248|396:216|388:172,1,140,2|0,0:0|0:0,0:0:0:0:
416,92,27355,1,0,0:0:0:0:
424,8,27521,6,0,B|328:20,1,70
272,24,27855,1,0,0:0:0:0:
237,100,28021,1,0,0:0:0:0:
188,32,28188,1,0,0:0:0:0:
153,108,28355,1,0,0:0:0:0:
153,108,28438,1,0,0:0:0:0:
153,108,28521,1,0,0:0:0:0:
104,40,28688,1,0,0:0:0:0:
20,52,28855,6,0,B|20:104|24:156,1,105
24,176,29188,1,0,0:0:0:0:
32,260,29355,1,0,0:0:0:0:
104,216,29521,2,0,B|132:272|100:336|52:336,1,140,2|0,0:0|0:0,0:0:0:0:
0,368,30021,1,0,0:0:0:0:
0,368,30188,6,0,B|84:356|152:372,1,140
224,372,30688,2,0,B|308:384|376:368,1,140,0|0,0:0|0:0,0:0:0:0:
448,360,31188,1,0,0:0:0:0:
492,288,31355,1,0,0:0:0:0:
496,272,31438,1,0,0:0:0:0:
500,256,31521,6,0,B|512:204|512:160,1,70
464,116,31855,2,0,B|464:76|456:32,1,70
376,28,32188,2,0,B|384:80|384:168,1,140,2|0,3:2|0:0,0:0:0:0:
256,192,32855,12,0,34855,1:0:0:0:
256,191,35188,5,0,0:0:0:0:
88,72,35521,6,0,B|80:112|84:152,1,70,4|0,0:0|0:0,0:0:0:0:
135,277,35855,2,0,B|140:244|136:208,1,70
124,360,36188,1,0,0:0:0:0:
124,360,36355,1,0,0:0:0:0:
200,328,36521,2,0,B|264:320|312:352|356:328,1,140
424,320,37021,1,0,0:0:0:0:
488,264,37188,1,0,0:0:0:0:
420,112,37521,1,0,0:0:0:0:
256,76,37855,1,0,0:0:0:0:
172,84,38021,1,0,0:0:0:0:
88,80,38188,6,0,P|68:112|48:148,1,70
52,308,38521,2,0,P|72:276|92:240,1,70,0|0,0:0|0:0,0:0:0:0:
332,272,38855,2,0,P|320:324|313:339,1,70
198,339,39188,2,0,P|192:324|180:272,1,70
424,247,39522,2,0,P|440:276|460:308,1,70
459,140,39855,2,0,P|444:112|424:80,1,70
256,88,40188,1,0,0:0:0:0:
92,44,40355,1,0,0:0:0:0:
172,192,40521,1,0,0:0:0:0:
8,148,40688,1,0,0:0:0:0:
92,144,40855,6,0,P|84:184|72:212,1,70,4|0,0:0|0:0,0:0:0:0:
60,380,41188,2,0,P|68:340|80:312,1,70,0|0,0:0|0:0,0:0:0:0:
160,332,41521,2,0,B|192:296|252:320|300:280,1,140
364,248,42021,1,0,0:0:0:0:
368,332,42188,2,0,P|412:316|432:300,2,70
448,224,42688,1,0,0:0:0:0:
364,248,42855,2,0,P|360:208|368:180,1,70
448,224,43188,2,0,P|488:240|504:264,1,70
492,344,43521,6,0,L|504:204,1,140
508,120,44021,1,0,0:0:0:0:
272,32,44355,1,0,0:0:0:0:
76,192,44688,1,0,0:0:0:0:
139,137,44855,1,4,0:0:0:0:
76,192,45021,2,0,P|72:240|72:272,2,70
68,340,45521,1,0,0:0:0:0:
152,340,45688,1,0,0:0:0:0:
236,344,45855,1,4,0:0:0:0:
236,344,46188,6,0,P|312:348|376:344,1,140,4|0,0:0|0:0,0:0:0:0:
424,272,46688,1,0,0:0:0:0:
456,196,46855,1,0,0:0:0:0:
484,116,47021,1,0,0:0:0:0:
480,100,47105,1,0,0:0:0:0:
476,84,47188,2,0,P|460:48|444:16,1,70
364,24,47521,6,0,P|288:20|224:24,1,140
148,56,48021,1,0,0:0:0:0:
88,112,48188,1,0,0:0:0:0:
60,192,48354,1,0,0:0:0:0:
64,208,48438,1,0,0:0:0:0:
68,224,48521,2,0,P|84:260|100:292,1,70
56,352,48855,5,0,0:0:0:0:
56,352,49021,2,0,P|120:364|172:308,1,140
256,312,49521,1,0,0:0:0:0:
256,312,49688,1,0,0:0:0:0:
256,312,49771,1,0,0:0:0:0:
256,312,49855,1,0,0:0:0:0:
341,315,50021,6,0,P|392:364|456:352,1,140
420,276,50521,2,0,P|456:264|488:276,2,70
344,316,51021,1,0,0:0:0:0:
348,232,51188,1,0,0:0:0:0:
352,148,51355,1,0,0:0:0:0:
352,148,51521,6,0,L|356:48,2,70
268,136,52021,1,0,0:0:0:0:
184,144,52188,1,0,0:0:0:0:
100,140,52355,1,0,0:0:0:0:
100,140,52438,1,0,0:0:0:0:
100,140,52521,1,0,0:0:0:0:
32,192,52688,1,0,0:0:0:0:
20,108,52855,1,0,0:0:0:0:
32,192,53021,6,0,P|28:260|28:332,1,140
112,328,53521,1,0,0:0:0:0:
196,340,53688,1,0,0:0:0:0:
196,340,53771,1,0,0:0:0:0:
196,340,53855,1,0,0:0:0:0:
280,332,54021,6,0,P|344:336|424:332,2,140
419,332,54855,1,0,0:0:0:0:
448,260,55021,1,0,0:0:0:0:
468,176,55188,1,0,0:0:0:0:
484,92,55355,2,0,P|472:56|456:12,2,70,0|4|0,0:0|0:0|0:0,0:0:0:0:
400,84,55855,2,0,L|372:4,1,70
292,20,56188,2,0,P|220:16|148:20,1,140,0|4,0:0|0:0,0:0:0:0:
44,148,56855,6,0,P|116:152|188:148,2,140,4|0|0,0:0|0:0|0:0,0:0:0:0:
52,64,57688,1,0,0:0:0:0:
52,80,57771,1,0,0:0:0:0:
52,96,57855,2,0,L|48:240,1,140
44,320,58355,2,0,P|80:324|116:320,1,70
132,240,58688,2,0,P|200:236|272:240,1,140
356,248,59188,1,0,0:0:0:0:
440,244,59355,1,0,0:0:0:0:
440,244,59438,1,0,0:0:0:0:
440,244,59521,6,0,B|435:166|478:186|478:106,2,140
416,324,60355,1,0,0:0:0:0:
356,248,60521,1,0,0:0:0:0:
332,328,60688,1,0,0:0:0:0:
332,328,60771,1,0,0:0:0:0:
332,328,60855,6,0,L|180:328,1,140
108,328,61355,1,0,0:0:0:0:
48,268,61521,2,0,P|44:220|48:188,1,70
92,36,61855,2,0,P|96:84|92:116,1,70
12,128,62188,6,0,L|160:124,1,140
236,120,62688,1,0,0:0:0:0:
280,48,62855,2,0,P|320:96|304:172,1,140
352,236,63355,1,0,0:0:0:0:
264,240,63521,6,0,P|224:192|240:116,1,140
280,48,64021,2,0,L|428:44,1,140,0|0,0:0|0:0,0:0:0:0:
504,40,64521,1,0,0:0:0:0:
496,124,64688,1,0,0:0:0:0:
484,208,64855,5,0,0:0:0:0:
484,208,65188,2,0,L|472:292,1,70
298,333,65521,2,0,L|308:264,1,70
216,324,65855,1,0,0:0:0:0:
132,320,66021,1,0,0:0:0:0:
132,320,66105,1,0,0:0:0:0:
132,320,66188,2,0,B|91:258|66:298|28:230,1,140
52,148,66688,1,0,0:0:0:0:
40,108,66771,1,0,0:0:0:0:
32,64,66855,6,0,P|72:44|104:40,1,70
180,48,67188,1,0,0:0:0:0:
256,84,67355,1,0,0:0:0:0:
256,84,67438,1,0,0:0:0:0:
256,84,67521,6,0,B|228:132|272:168|256:224,2,140,4|0|0,0:0|0:0|0:0,0:0:0:0:
256,192,68938,12,0,70021,0:0:0:0:
256,192,70188,6,0,B|228:192|228:192|204:200|204:200|180:200,1,70,4|0,0:0|0:0,0:0:0:0:
36,192,70521,2,0,B|64:192|64:192|88:184|88:184|104:184,1,70
44,124,70855,2,0,P|36:204|40:268,1,140
52,348,71355,1,0,0:0:0:0:
68,348,71438,1,0,0:0:0:0:
84,348,71521,6,0,P|156:352|224:348,1,140
256,192,72021,1,0,0:0:0:0:
288,36,72188,2,0,P|356:32|428:36,1,140
484,100,72688,1,0,0:0:0:0:
484,100,72855,6,0,P|476:144|464:180,1,70
432,288,73188,1,0,0:0:0:0:
392,168,73355,1,0,0:0:0:0:
496,240,73521,1,0,0:0:0:0:
368,240,73688,1,0,0:0:0:0:
356,260,73771,1,0,0:0:0:0:
352,284,73855,1,0,0:0:0:0:
392,356,74021,1,0,0:0:0:0:
308,352,74188,6,0,B|284:332|208:372|160:344,1,140
88,348,74688,1,0,0:0:0:0:
20,296,74855,2,0,P|16:224|24:156,1,140
88,104,75355,1,0,0:0:0:0:
156,52,75521,6,0,P|160:124|152:192,2,140,4|0|0,0:0|0:0|0:0,0:0:0:0:
76,20,76355,1,0,0:0:0:0:
76,20,76521,1,0,0:0:0:0:
60,104,76688,1,0,0:0:0:0:
76,104,76771,1,0,0:0:0:0:
92,104,76855,6,0,L|248:104,1,140
208,184,77355,1,0,0:0:0:0:
176,260,77521,2,0,L|20:260,2,140
260,248,78355,5,0,0:0:0:0:
260,248,78688,1,0,0:0:0:0:
344,264,78855,1,0,0:0:0:0:
428,252,79021,1,0,0:0:0:0:
428,252,79105,1,0,0:0:0:0:
428,252,79188,1,0,0:0:0:0:
512,260,79355,1,0,0:0:0:0:
484,180,79521,5,0,0:0:0:0:
472,96,79688,1,0,0:0:0:0:
480,84,79771,1,0,0:0:0:0:
488,72,79855,1,0,0:0:0:0:
428,16,80021,1,0,0:0:0:0:
344,20,80188,2,0,B|320:12|228:40|196:24,1,140
120,36,80688,1,0,0:0:0:0:
36,28,80855,5,4,0:0:0:0:
256,280,81521,1,4,0:0:0:0:
476,28,82188,1,4,0:0:0:0:
476,40,82521,1,4,0:0:0:0:
476,52,82855,5,4,0:0:0:0:
436,172,83021,1,0,0:0:0:0:
396,52,83188,1,0,0:0:0:0:
500,124,83355,1,0,0:0:0:0:
376,128,83521,6,0,P|364:148|364:196,1,70,4|0,0:0|0:0,0:0:0:0:
300,352,83855,2,0,P|312:332|312:284,2,70
232,304,84355,2,0,L|88:304,1,140
8,304,84855,5,0,0:0:0:0:
132,192,85021,1,0,0:0:0:0:
8,80,85188,1,0,0:0:0:0:
8,80,85521,2,0,L|152:80,2,140
232,80,86355,1,0,0:0:0:0:
316,48,86521,6,0,B|328:84|328:84|316:116,1,70
416,248,86855,2,0,B|404:212|404:212|416:180,1,70
440,328,87188,1,0,0:0:0:0:
440,328,87355,1,0,0:0:0:0:
360,304,87521,6,0,P|344:328|312:352,1,70
200,352,87855,2,0,P|168:328|152:304,1,70
116,228,88188,1,0,0:0:0:0:
136,148,88355,1,0,0:0:0:0:
52,160,88521,1,0,0:0:0:0:
72,80,88688,1,0,0:0:0:0:
156,68,88855,6,0,P|204:72|240:68,1,70,4|0,0:0|0:0,0:0:0:0:
308,68,89188,2,0,P|344:64|380:68,1,70
460,88,89521,2,0,B|448:132|476:172|464:232,1,140
444,308,90021,1,0,0:0:0:0:
444,308,90188,5,0,0:0:0:0:
368,268,90355,1,0,0:0:0:0:
372,352,90521,1,0,0:0:0:0:
256,232,90855,1,0,0:0:0:0:
140,352,91188,1,0,0:0:0:0:
24,232,91521,6,0,P|20:192|24:156,1,70
144,44,91855,2,0,P|148:84|144:120,1,70
256,232,92188,2,0,P|252:192|256:156,2,70
256,316,92688,1,0,0:0:0:0:
256,316,93021,5,0,0:0:0:0:
363,130,93188,1,0,0:0:0:0:
148,130,93355,1,0,0:0:0:0:
363,254,93521,1,0,0:0:0:0:
148,254,93688,1,4,0:0:0:0:
256,68,93855,1,0,0:0:0:0:
256,192,94188,5,4,0:0:0:0:
256,192,102188,12,2,104521,1:2:0:0:
48,68,104855,6,0,B|80:52|144:92|200:76,1,140,4|0,0:0|0:0,0:0:0:0:
268,60,105355,1,0,0:0:0:0:
348,80,105521,2,0,P|344:144|352:228,1,140
420,268,106021,1,0,0:0:0:0:
492,312,106188,6,0,P|496:248|488:164,1,140
476,88,106688,1,0,0:0:0:0:
476,88,107021,1,0,0:0:0:0:
312,56,107188,1,0,0:0:0:0:
176,156,107355,1,0,0:0:0:0:
12,132,107521,6,0,P|12:200|48:264,1,140
128,252,108021,1,0,0:0:0:0:
212,264,108188,2,0,P|268:264|304:260,2,70
128,252,108688,1,0,0:0:0:0:
128,268,108771,1,0,0:0:0:0:
132,284,108855,6,0,P|156:332|240:340,1,140,4|0,0:0|0:0,0:0:0:0:
212,264,109355,1,0,0:0:0:0:
224,180,109521,2,0,P|264:192|284:216,2,70
180,108,110021,1,0,0:0:0:0:
220,96,110105,1,0,0:0:0:0:
261,103,110188,6,0,P|320:132|360:192,2,140,4|0|0,0:0|0:0|0:0,0:0:0:0:
256,192,111605,12,0,112688,0:0:0:0:
256,192,112855,6,0,B|284:192|284:192|308:184|308:184|332:184,1,70,4|0,0:0|0:0,0:0:0:0:
476,192,113188,2,0,B|448:192|448:192|424:200|424:200|400:200,1,70
468,260,113522,2,0,P|476:180|472:116,1,140
460,36,114022,1,0,0:0:0:0:
444,36,114105,1,0,0:0:0:0:
428,36,114188,6,0,P|356:32|288:36,1,140
256,192,114688,1,0,0:0:0:0:
224,348,114855,2,0,P|156:352|84:348,1,140
28,284,115355,1,0,0:0:0:0:
28,284,115522,6,0,P|36:240|48:204,1,70
80,96,115855,1,0,0:0:0:0:
120,216,116022,1,0,0:0:0:0:
16,144,116188,1,0,0:0:0:0:
144,144,116355,1,0,0:0:0:0:
156,124,116438,1,0,0:0:0:0:
160,100,116522,1,0,0:0:0:0:
120,28,116688,1,0,0:0:0:0:
204,32,116855,6,0,B|228:52|304:12|352:40,1,140
424,36,117355,1,0,0:0:0:0:
492,88,117522,2,0,P|496:160|488:228,1,140
424,280,118022,1,0,0:0:0:0:
356,332,118188,6,0,P|352:260|360:192,2,140,4|0|0,0:0|0:0|0:0,0:0:0:0:
436,364,119022,1,0,0:0:0:0:
436,364,119188,1,0,0:0:0:0:
452,280,119355,1,0,0:0:0:0:
436,280,119438,1,0,0:0:0:0:
420,280,119522,6,0,L|264:280,1,140
304,200,120022,1,0,0:0:0:0:
336,124,120188,2,0,L|492:124,2,140
252,136,121022,5,0,0:0:0:0:
252,136,121355,1,0,0:0:0:0:
168,120,121522,1,0,0:0:0:0:
84,132,121688,1,0,0:0:0:0:
84,132,121772,1,0,0:0:0:0:
84,132,121855,1,0,0:0:0:0:
0,124,122022,1,0,0:0:0:0:
28,204,122188,5,0,0:0:0:0:
40,288,122355,1,0,0:0:0:0:
32,300,122438,1,0,0:0:0:0:
24,312,122522,1,0,0:0:0:0:
84,368,122688,1,0,0:0:0:0:
168,364,122855,2,0,B|192:372|284:344|316:360,1,140
392,348,123355,1,0,0:0:0:0:
476,356,123522,5,0,1:2:0:0:
256,104,124188,1,2,1:2:0:0:
36,356,124855,1,2,1:2:0:0:
36,344,125188,1,0,0:0:0:0:
36,332,125522,5,2,1:2:0:0:
76,212,125688,1,0,0:0:0:0:
116,332,125855,1,0,0:0:0:0:
12,260,126022,1,0,0:0:0:0:
136,256,126188,6,0,P|148:236|148:188,1,70,4|0,0:0|0:0,0:0:0:0:
212,32,126522,2,0,P|200:52|200:100,2,70
280,80,127022,2,0,L|424:80,1,140
504,80,127522,5,0,0:0:0:0:
380,192,127688,1,0,0:0:0:0:
504,304,127855,1,0,0:0:0:0:
504,304,128188,2,0,L|360:304,2,140
280,304,129022,1,0,0:0:0:0:
196,336,129188,6,0,B|184:300|184:300|196:268,1,70
96,136,129522,2,0,B|108:172|108:172|96:204,1,70
72,56,129855,1,0,0:0:0:0:
72,56,130022,1,0,0:0:0:0:
152,80,130188,6,0,P|168:56|200:32,1,70
312,32,130522,2,0,P|344:56|360:80,1,70
396,156,130855,1,0,0:0:0:0:
376,236,131022,1,0,0:0:0:0:
460,224,131188,1,0,0:0:0:0:
440,304,131355,1,0,0:0:0:0:
356,316,131522,6,0,P|308:312|272:316,1,70,4|0,0:0|0:0,0:0:0:0:
204,316,131855,2,0,P|168:320|132:316,1,70
52,296,132188,2,0,B|64:252|36:212|48:152,1,140
68,76,132688,1,0,0:0:0:0:
68,76,132855,5,0,0:0:0:0:
144,116,133022,1,0,0:0:0:0:
140,32,133188,1,0,0:0:0:0:
256,152,133522,1,0,0:0:0:0:
372,32,133855,1,0,0:0:0:0:
488,152,134188,6,0,P|492:192|488:228,1,70
368,340,134522,2,0,P|364:300|368:264,1,70
256,152,134855,2,0,P|260:192|256:228,2,70
256,68,135355,1,0,0:0:0:0:
256,68,135688,5,0,0:0:0:0:
149,254,135855,1,0,0:0:0:0:
364,254,136022,1,0,0:0:0:0:
149,130,136188,1,0,0:0:0:0:
364,130,136355,1,0,0:0:0:0:
256,316,136522,1,0,0:0:0:0:
256,192,136855,5,4,0:0:0:0:
116,192,137021,6,0,L|44:192,2,70,0|2|0,0:0|3:2|0:0,0:0:0:0:
396,192,137688,1,0,0:0:0:0:
256,192,138021,1,0,0:0:0:0:
328,316,138355,1,0,0:0:0:0:
324,40,138688,2,0,B|256:56|256:56|188:40,1,140
187,39,139188,1,2,3:2:0:0:
188,344,139521,6,0,B|256:328|256:328|324:344,2,140
108,364,140521,1,0,0:0:0:0:
28,344,140855,2,0,P|24:280|28:200,1,140
28,164,141355,1,2,3:2:0:0:
28,124,141521,2,0,P|100:112|104:52,2,140,2|2|2,3:2|3:2|3:2,0:0:0:0:
105,55,142355,6,0,L|188:44,2,70
256,40,143021,1,0,0:0:0:0:
340,32,143355,2,0,P|368:80|384:168,2,140
340,32,144188,1,2,3:2:0:0:
172,352,144688,5,0,0:0:0:0:
172,352,144855,2,0,P|144:304|128:216,1,140
240,256,145355,1,0,0:0:0:0:
172,352,145521,1,2,3:2:0:0:
44,192,145855,1,0,0:0:0:0:
172,32,146188,6,0,P|144:80|128:168,1,140
240,128,146688,1,0,0:0:0:0:
172,32,146854,1,0,0:0:0:0:
52,192,147188,1,0,0:0:0:0:
340,352,147521,6,0,P|368:304|384:216,1,140
256,192,148021,1,0,0:0:0:0:
144,276,148188,2,0,P|209:328|261:347,1,140,2|0,3:2|0:0,0:0:0:0:
256,192,148688,6,0,P|232:164|188:144,2,70
60,264,149188,2,0,P|79:194|129:136,1,140,0|2,0:0|3:2,0:0:0:0:
256,192,149605,12,0,151188,0:0:0:0:
100,192,151521,6,0,P|96:228|100:264,1,70,4|0,0:0|0:0,0:0:0:0:
136,96,151855,2,0,P|140:56|136:24,1,70
208,176,152188,2,0,L|352:172,1,140
404,112,152688,1,0,0:0:0:0:
424,148,152771,1,0,0:0:0:0:
424,192,152855,6,0,P|408:228|376:248,1,70
316,92,153188,2,0,P|332:56|364:36,1,70
424,192,153521,2,0,P|392:240|312:240,1,140
256,184,154021,1,0,0:0:0:0:
172,184,154188,6,0,L|92:184,2,70
20,184,154688,1,0,0:0:0:0:
52,268,154855,1,0,0:0:0:0:
52,116,155021,1,0,0:0:0:0:
48,108,155105,1,0,0:0:0:0:
44,100,155188,1,0,0:0:0:0:
136,268,155355,1,0,0:0:0:0:
136,116,155521,6,0,B|200:88|200:88|216:16,1,140
256,144,156021,1,0,0:0:0:0:
376,116,156188,2,0,B|312:88|312:88|296:16,1,140
256,160,156688,1,0,0:0:0:0:
340,328,156855,6,0,P|352:256|336:192,1,140,4|0,0:0|0:0,0:0:0:0:
256,172,157355,1,0,0:0:0:0:
176,192,157521,2,0,P|160:256|172:328,1,140
80,288,158021,1,0,0:0:0:0:
76,272,158105,1,0,0:0:0:0:
72,256,158188,6,0,L|56:176,1,70
56,20,158521,2,0,L|72:100,1,70
8,128,158855,2,0,L|148:76,1,140
220,52,159355,1,0,0:0:0:0:
220,52,159521,5,0,0:0:0:0:
220,52,159688,1,0,0:0:0:0:
432,192,160021,1,0,0:0:0:0:
352,168,160188,1,0,0:0:0:0:
304,236,160355,1,0,0:0:0:0:
304,236,160438,1,0,0:0:0:0:
304,236,160521,1,0,0:0:0:0:
356,304,160688,1,0,0:0:0:0:
436,276,160855,6,0,L|456:360,1,70
256,352,161188,2,0,L|236:268,1,70,0|0,0:0|0:0,0:0:0:0:
224,200,161521,2,0,P|156:216|80:224,1,140
4,240,162021,1,0,0:0:0:0:
36,160,162188,6,0,P|44:128|44:108,1,52.5
44,92,162521,6,0,L|128:112,1,70,4|0,0:0|0:0,0:0:0:0:
196,128,162855,2,0,L|248:268,1,140
224,340,163355,1,0,0:0:0:0:
264,340,163438,1,0,0:0:0:0:
304,324,163521,6,0,P|376:312|448:304,1,140
460,220,164021,1,0,0:0:0:0:
380,244,164188,2,0,P|368:312|392:376,1,140
392,376,164688,1,0,0:0:0:0:
460,220,164855,6,0,L|488:148,2,70
400,164,165355,1,0,0:0:0:0:
256,80,165521,1,0,0:0:0:0:
112,164,165688,1,0,0:0:0:0:
112,164,165771,1,0,0:0:0:0:
112,164,165855,1,0,0:0:0:0:
256,248,166021,1,0,0:0:0:0:
256,80,166188,6,0,L|96:64,1,140
256,164,166688,1,0,0:0:0:0:
256,248,166855,2,0,L|416:264,1,140
480,272,167355,1,0,0:0:0:0:
395,261,167521,6,0,P|428:192|428:128,1,140,4|0,0:0|0:0,0:0:0:0:
256,164,168021,1,0,0:0:0:0:
116,68,168188,2,0,P|83:137|83:201,1,140
96,284,168688,1,0,0:0:0:0:
152,216,168855,6,0,L|0:204,1,140
184,284,169355,1,0,0:0:0:0:
220,352,169521,2,0,L|372:364,1,140
444,372,170021,1,0,0:0:0:0:
416,292,170188,5,0,0:0:0:0:
416,208,170355,1,0,0:0:0:0:
420,192,170438,1,0,0:0:0:0:
424,176,170521,1,0,0:0:0:0:
452,96,170688,1,0,0:0:0:0:
368,108,170855,5,0,0:0:0:0:
284,112,171021,2,0,L|256:68,2,35
332,184,171355,1,0,0:0:0:0:
248,188,171521,6,0,L|88:192,1,140
56,124,172021,1,0,0:0:0:0:
56,124,172188,2,0,P|28:180|52:252,1,140
256,332,172855,5,4,0:0:0:0:
396,192,173521,1,4,0:0:0:0:
256,52,174188,1,4,0:0:0:0:
256,64,174521,1,0,0:0:0:0:
256,76,174855,5,4,0:0:0:0:
300,148,175021,1,0,0:0:0:0:
204,192,175188,1,0,0:0:0:0:
360,248,175355,1,0,0:0:0:0:
144,316,175521,6,0,B|107:296|79:268,1,70,4|0,0:0|0:0,0:0:0:0:
174,129,175855,2,0,B|196:163|204:192,1,70
72,120,176188,1,0,0:0:0:0:
72,120,176355,1,0,0:0:0:0:
204,48,176521,2,0,B|268:56|316:24|360:48,1,140
424,64,177021,1,0,0:0:0:0:
488,120,177188,1,0,0:0:0:0:
420,272,177521,1,0,0:0:0:0:
256,308,177855,1,0,0:0:0:0:
172,300,178021,1,0,0:0:0:0:
88,304,178188,6,0,P|68:272|48:236,1,70
52,76,178521,2,0,P|72:108|92:144,1,70,0|0,0:0|0:0,0:0:0:0:
332,112,178855,2,0,P|320:60|313:45,1,70
198,45,179188,2,0,P|192:60|180:112,1,70
424,137,179522,2,0,P|440:108|460:76,1,70
459,244,179855,2,0,P|444:272|424:304,1,70
256,296,180188,1,0,0:0:0:0:
92,340,180355,1,0,0:0:0:0:
172,192,180521,1,0,0:0:0:0:
8,236,180688,1,0,0:0:0:0:
92,240,180855,6,0,P|84:200|72:172,1,70,4|0,0:0|0:0,0:0:0:0:
60,4,181188,2,0,P|68:44|80:72,1,70,0|0,0:0|0:0,0:0:0:0:
160,52,181521,2,0,B|192:88|252:64|300:104,1,140
364,136,182021,1,0,0:0:0:0:
368,52,182188,2,0,P|412:68|432:84,2,70
448,160,182688,1,0,0:0:0:0:
364,136,182855,2,0,P|360:176|368:204,1,70
448,160,183188,2,0,P|488:144|504:120,1,70
492,40,183521,6,0,L|504:180,1,140
508,264,184021,1,0,0:0:0:0:
272,352,184355,1,0,0:0:0:0:
76,192,184688,1,0,0:0:0:0:
76,192,185021,2,0,P|72:144|72:112,2,70
68,44,185521,1,0,0:0:0:0:
152,44,185688,1,0,0:0:0:0:
236,40,185855,1,4,0:0:0:0:
256,320,186188,5,4,0:0:0:0:
256,192,186271,12,0,193855,0:0:0:0:
