osu file format v7

[General]
AudioFilename: sm4027556.mp3
AudioLeadIn: 0
PreviewTime: 82340
Countdown: 0
SampleSet: Normal
StackLeniency: 0.7
Mode: 0
LetterboxInBreaks: 1

[Editor]
DistanceSpacing: 1
BeatDivisor: 4
GridSize: 8

[Metadata]
Title:Strawberry Song
Artist:Annyy
Creator:Strawberry-kun
Version:Normal
Source:TaNaBaTa
Tags:touhou remila scarlet setsuna light Embodiment of Scarlet Devil Septette for the Dead Princess

[Difficulty]
HPDrainRate:3
CircleSize:3
OverallDifficulty:3
SliderMultiplier:1.4
SliderTickRate:1

[Events]
//Background and Video events
0,0,"moe 80929 kichiroku remilia_scarlet touhou.jpg"
//Break Periods
2,26070,30077
//Storyboard Layer 0 (Background)
//Storyboard Layer 1 (Fail)
//Storyboard Layer 2 (Pass)
//Storyboard Layer 3 (Foreground)
//Storyboard Sound Samples
//Background Colour Transformations
3,100,163,162,255

[TimingPoints]
13870,352.941176470588,4,1,0,60,1,0
94340,-100,4,1,0,80,0,1
119664,-100,4,1,0,0,0,1
119752,-100,4,1,0,0,0,0

[Colours]
Combo1 : 251,32,37
Combo2 : 249,132,208

[HitObjects]
256,88,13870,5,8
256,88,14222,1,8
400,88,14575,2,2,B|400:184|328:184|328:288,1,210,2|0
328,280,15458,1,0
184,280,15811,5,2
112,160,16164,1,0
40,280,16517,2,2,B|16:192|40:56,1,210,2|0
256,192,17222,12,4,20222
56,192,20752,6,2,B|120:136|184:192,1,140,2|0
120,320,21458,2,2,B|264:320,1,140,2|0
320,192,22164,1,0
376,320,22517,1,0
432,192,22870,6,2,B|488:136|448:48,1,140,2|0
392,24,23399,1,0
248,24,23752,2,0,B|104:24,1,140
216,112,24458,2,0,B|72:112,1,140
184,200,25164,2,0,B|40:200,1,140
152,288,25870,5,12
56,56,31517,6,0,B|256:56|56:232,1,280,4|0
200,224,32575,1,0
200,360,32928,2,0,B|344:360|256:136,1,280
400,136,33987,1,0
448,272,34340,5,0
376,272,34517,2,0,B|272:272|256:336,2,140,0|2|0
256,208,35575,2,0,B|360:208|376:144,2,140,2|0|2
112,208,36634,6,0,B|64:200|32:232,2,70
184,200,37164,2,0,B|240:192|336:136|392:144,2,210
168,336,38575,1,0
304,304,38928,1,8
176,248,39281,1,0
312,216,39634,1,8
184,160,39987,6,0,B|48:160|48:24,2,210,2|0|0
328,160,41399,1,0
256,280,41752,2,0,B|256:208,2,70
440,328,42811,6,0,B|440:40,1,280,4|0
328,128,43869,1,0
328,272,44222,2,0,B|328:360|80:360,1,280,8|0
88,216,45281,1,0
224,216,45634,6,0,B|240:144,1,70,8|0
360,216,46164,2,2,B|392:64,1,140,2|0
256,32,46869,2,0,B|40:32,2,210
328,32,48105,1,0
464,48,48458,5,4
464,192,48811,1,0
464,336,49164,2,0,B|320:336,1,140
320,192,49869,5,4
176,192,50222,1,0
176,336,50575,2,0,B|32:336,1,140
40,192,51281,5,4
40,48,51634,1,0
184,48,51987,2,0,B|328:48,1,140
328,192,52693,5,0
472,192,53046,1,0
400,312,53399,2,0,B|328:344|256:312,2,140,0|0|2
400,312,54458,1,0
328,192,54811,5,0
328,48,55164,1,0
208,120,55517,2,0,B|176:192|208:264,2,140,0|0|2
208,120,56575,1,0
64,120,56928,5,0
64,264,57281,1,0
184,192,57634,1,0
256,232,57811,1,0
256,152,57987,1,2
392,192,58340,2,0,B|424:120|352:64,2,140,0|2|0
112,192,59752,6,0,B|112:320|248:320,1,210
248,184,60634,1,0
384,176,60987,2,0,B|384:48|248:48,2,210
256,344,62575,6,0,B|40:344,1,210
48,200,63458,1,0
192,200,63811,2,0,B|408:200,2,210
192,128,65046,1,0
48,128,65399,6,0,B|48:360|344:360,1,420
232,264,66811,2,0,B|113:236|131:72,1,210
272,96,67693,1,0
344,96,67869,1,0
488,96,68222,6,0,B|472:208|344:240,2,210,2|0|0
488,24,69458,1,0
352,24,69811,2,0,B|208:24,2,140
352,96,70693,1,0
208,96,71046,6,0,B|176:192|232:232,1,140
288,192,71575,2,0,B|432:192,2,140
288,336,72634,1,0
144,336,72987,2,0,B|72:336,1,70,0|0
144,64,73869,6,0,B|288:64,1,140
336,112,74399,2,0,B|336:256,2,140
336,112,75458,1,0
224,192,75811,5,0
224,192,75987,1,0
80,192,76340,2,0,B|120:336|304:320,1,280
440,320,77399,1,0
440,176,77752,1,0
320,248,78105,6,0,B|192:336|56:248,1,280
144,136,79164,1,0
288,136,79517,6,0,B|360:136,1,70,8|0
240,64,80046,2,2,B|96:64,2,140,2|2|0
384,64,81105,1,0
456,64,81281,1,0
456,200,81634,2,0,B|456:344,1,140
312,336,82340,5,4
168,336,82693,1,0
200,48,83752,5,4
344,48,84105,1,0
48,192,85164,6,0,B|128:72,1,140
200,192,85869,1,0
240,136,86046,2,0,B|288:64,1,70
360,192,86575,1,0
56,56,87987,5,4
56,56,88340,1,0
448,320,89399,5,4
448,320,89752,1,0
464,192,90811,6,0,B|384:72,1,140
312,192,91516,1,0
272,136,91693,2,0,B|224:64,1,70
152,192,92222,6,4,B|80:80|80:320|0:192,2,210,4|0|4
256,48,94340,6,2,B|472:48,1,210,4|0
496,112,95046,1,0
496,256,95399,2,0,B|496:344|408:344,2,140
424,256,96281,2,0,B|352:256,1,70
216,256,96811,6,0,B|72:256,2,140
256,120,97870,1,0
392,152,98222,1,0
352,288,98575,1,0
352,288,98752,1,0
352,288,98928,1,0
216,256,99281,1,0
56,336,99987,6,0,B|16:272|56:200,1,140
176,272,100693,2,0,B|256:312|312:272,2,140
152,208,101575,1,0
128,144,101752,1,0
256,208,102105,1,0
304,80,102458,1,0
256,192,102811,12,4,104752
48,192,105634,6,0,B|48:64|184:64,2,210,4|0|0
192,192,107046,1,0
264,192,107222,1,0
336,192,107399,1,0
264,312,107752,1,0
464,120,108458,6,0,B|408:0|216:48,1,280
80,80,109517,1,0
80,80,109693,1,0
136,120,109869,2,0,B|208:120,1,70
264,160,110222,2,0,B|336:160,1,70
392,200,110575,1,0
464,320,110928,5,0
328,320,111281,2,0,B|184:320,1,140
304,240,111987,2,0,B|160:240,1,140
32,184,112693,2,0,B|112:160,1,70
168,176,113046,2,0,B|248:152,1,70
304,168,113399,2,0,B|384:144,1,70
440,160,113752,1,0
440,304,114105,6,0,B|416:360|192:360|240:224|48:224,1,420
56,80,115517,2,0,B|88:40|120:80,1,70
168,120,115869,2,0,B|200:160|232:120,1,70
280,80,116222,2,0,B|312:40|344:80,1,70
392,120,116575,1,0
480,232,116928,6,0,B|480:328|392:328,1,140
296,232,117634,2,0,B|152:232,1,140
72,120,118340,2,0,B|104:56,1,70
168,40,118693,1,0
240,40,118869,1,0
304,56,119046,1,0
204,155,119399,1,0
204,155,119752,5,0
