osu file format v9

[General]
AudioFilename: sm4027556.mp3
AudioLeadIn: 0
PreviewTime: 82340
Countdown: 0
SampleSet: Normal
StackLeniency: 0.7
Mode: 0
LetterboxInBreaks: 1

[Editor]
Bookmarks: 193517
DistanceSpacing: 1.2
BeatDivisor: 4
GridSize: 8

[Metadata]
Title:Strawberry Song
Artist:Annyy
Creator:Strawberry-kun
Version:Lunatic
Source:TaNaBaTa
Tags:touhou remila scarlet setsuna light Embodiment of Scarlet Devil Septette for the Dead Princess

[Difficulty]
HPDrainRate:7
CircleSize:4
OverallDifficulty:8
ApproachRate:8
SliderMultiplier:1.8
SliderTickRate:1

[Events]
//Background and Video events
0,0,"Konachan.com - 35735 remilia_scarlet touhou.jpg"
//Break Periods
2,26069,30766
//Storyboard Layer 0 (Background)
//Storyboard Layer 1 (Fail)
//Storyboard Layer 2 (Pass)
//Storyboard Layer 3 (Foreground)
//Storyboard Sound Samples
//Background Colour Transformations
3,100,240,15,15

[TimingPoints]
13869,352.941176470588,4,1,0,60,1,0
92221,-50,4,1,0,60,0,0
93280,-100,4,1,0,60,0,0
93368,-100,4,2,0,70,0,0
94340,-100,4,1,0,80,0,1
119740,-100,4,2,0,5,0,0
119765,-100,4,1,0,60,0,0
167046,-100,4,1,0,80,0,1
192458,-100,4,1,0,60,0,0

[Colours]
Combo1 : 250,32,32
Combo2 : 151,0,4

[HitObjects]
48,112,13869,5,8
120,56,14045,1,0
120,144,14221,5,8
192,88,14397,1,0
264,144,14574,6,2,B|288:88|392:88|416:144,1,180,2|0
344,200,15104,2,0,B|368:256|472:256|496:200,2,180,8|8|8
264,240,15986,1,0
264,240,16163,1,8
264,240,16339,1,0
264,328,16516,2,2,B|152:328|152:216,1,180,2|0
152,217,17045,1,8
64,216,17221,6,2,B|112:136|64:40|-16:40|-16:120|64:120|128:40,1,270,2|0
152,56,17839,1,0
200,48,17927,1,0
288,48,18104,2,2,B|384:48,1,90,2|0
376,136,18457,2,2,B|280:136,1,90,2|0
264,224,18810,1,2
264,224,18898,1,0
264,224,18986,1,0
328,288,19163,1,2
328,288,19251,1,0
328,288,19339,1,0
392,224,19516,1,2
392,224,19604,1,0
392,224,19692,1,0
392,224,19780,1,0
392,224,19869,1,0
328,56,20221,5,2
328,144,20398,2,0,B|288:176|240:176,1,90,0|0
248,88,20751,1,8
160,88,20927,2,0,B|136:128|136:176,2,90
72,80,21457,2,0,B|48:168|48:264,1,180,8|8
48,257,21986,1,0
120,312,22163,1,2
176,240,22339,1,0
104,184,22516,1,0
176,240,22692,1,8
264,240,22869,6,2,B|312:216|376:240|424:360|272:360|320:240|384:216|432:240,1,270,2|0
464,216,23486,1,0
480,176,23574,1,0
464,88,23751,2,2,B|416:112|400:152,1,90,2|0
360,72,24104,2,2,B|336:120|296:136,1,90,2|0
216,96,24457,1,2
216,184,24633,1,0
136,96,24810,1,2
136,216,24986,1,0
56,96,25163,1,2
56,248,25339,1,0
16,176,25516,1,0
496,176,25869,5,4
48,160,31516,6,0,B|48:48|160:48,1,180,4|0
136,136,32045,1,0
136,136,32221,2,0,B|232:144,1,90
176,216,32574,2,0,B|272:224,1,90
352,224,32927,6,0,B|480:224|344:128|472:128,2,180
304,304,33810,1,0
304,304,33986,1,0
256,224,34163,1,0
256,136,34339,2,0,B|72:136,1,180,8|0
128,64,34869,2,2,B|312:64,1,180,2|0
400,64,35398,1,0
352,136,35574,2,2,B|352:320,1,180,2|0
424,264,36104,1,0
496,312,36280,2,2,B|496:128,1,180,2|0
424,192,36810,1,0
320,336,37163,6,0,B|240:256|240:400|160:336,1,180,4|0
192,256,37692,1,0
280,232,37868,2,0,B|248:160|160:160|120:200,2,180
360,272,38751,1,0
400,192,38927,1,0
320,152,39104,1,0
280,232,39280,1,0
280,232,39457,1,0
280,232,39633,1,0
280,232,39810,1,0
320,152,39986,6,0,B|320:40|208:40,1,180,4|0
232,128,40516,2,0,B|120:152|216:216|112:248,2,180,2|0|2
424,128,41574,1,2
328,128,41751,1,0
424,224,41927,1,0
328,224,42104,1,0
256,176,42280,1,0
256,176,42457,1,0
256,360,42810,6,0,B|168:312|80:360,1,180,4|0
40,280,43339,1,0
72,200,43516,1,0
40,280,43692,1,0
72,200,43868,1,0
40,280,44045,1,0
128,264,44221,2,0,B|312:264,1,180,4|0
308,264,44751,1,0
308,264,44927,1,0
368,200,45104,1,0
400,280,45280,1,0
336,120,45633,6,2,B|480:120,2,135,2|0|0
304,48,46339,1,0
248,120,46516,2,0,B|232:168|232:216,1,90,2|0
160,256,46868,2,2,B|160:160|192:64,1,180,2|0
187,78,47398,1,0
187,78,47574,1,0
88,80,47751,2,0,B|88:264,1,180
232,376,48457,5,4
504,376,48810,1,0
240,304,49163,5,2
376,280,49339,1,0
248,232,49516,1,0
512,152,49868,5,4
240,152,50221,1,0
504,80,50574,5,2
368,56,50751,1,0
496,8,50927,1,0
280,376,51280,5,4
8,376,51633,1,0
272,304,51986,5,2
136,280,52162,1,0
264,232,52339,1,0
0,152,52691,5,4
272,152,53044,1,0
8,80,53397,5,2
144,56,53574,1,0
16,8,53750,1,0
296,16,54104,5,4
432,40,54280,1,0
344,144,54457,1,0
296,16,54633,1,0
256,144,54810,6,2,B|160:144,1,90,2|0
256,248,55163,2,2,B|160:248,1,90,2|0
216,376,55516,5,4
80,352,55692,1,0
168,248,55869,1,0
216,376,56045,1,0
256,248,56222,6,2,B|352:248,1,90,2|0
256,144,56575,2,2,B|352:144,1,90,2|0
256,40,56927,5,2
184,128,57104,1,0
256,40,57280,1,2
112,216,57457,1,0
256,40,57633,1,2
40,136,57810,1,0
256,40,57986,5,2
328,128,58163,1,0
256,40,58339,1,2
400,216,58516,1,0
256,40,58692,1,2
472,128,58869,1,0
256,216,59045,5,4
256,224,59133,1,0
256,232,59221,1,0
256,240,59310,1,0
256,248,59398,1,0
256,256,59486,1,0
256,264,59574,1,0
256,272,59663,1,0
256,280,59751,1,4
440,280,60104,6,2,B|536:248|464:112,1,180,2|0
360,272,60810,1,0
360,272,60986,1,0
408,200,61163,2,0,B|400:104,1,90
312,200,61516,2,0,B|304:104,1,90
360,272,61868,1,0
360,272,62045,1,0
376,360,62221,6,0,B|192:360,1,180,0|2
232,200,62927,2,0,B|48:200,2,180,2|0|0
256,112,63810,1,0
328,272,64163,1,0
256,328,64339,1,0
184,272,64516,1,0
256,328,64692,1,0
256,240,64868,1,0
256,328,65045,1,0
256,152,65221,1,0
168,152,65398,6,0,B|56:152|56:40,1,180
168,232,65927,1,0
80,256,66104,1,0
32,336,66280,1,0
80,256,66457,1,0
240,336,66810,6,0,B|352:336|352:224,1,180,4|0
440,208,67339,1,0
424,120,67516,1,0
336,136,67692,1,0
351,225,67868,1,0
192,136,68221,6,0,B|112:224|112:64|40:136,1,180,2|0
72,216,68751,2,2,B|120:264|192:256|232:208,2,180,2|2|0
232,128,69810,1,0
312,168,69986,1,0
231,208,70163,1,2
408,168,70516,5,0
360,248,70692,1,0
408,168,70868,1,0
456,248,71045,2,0,B|496:216|496:112|456:80,2,180,0|2|2
408,328,71927,1,0
360,248,72104,1,0
312,328,72280,2,0,B|128:328,1,180
132,328,72810,1,0
48,288,72986,2,0,B|16:200,1,90
104,232,73339,2,0,B|72:144,1,90
160,176,73692,1,0
232,232,73868,6,0,B|232:376,2,135,2|0|0
304,176,74574,1,0
376,232,74751,1,0
304,176,74927,2,0,B|304:-8,1,180
376,48,75457,1,0
376,48,75633,1,0
448,96,75810,1,0
448,96,75986,1,0
376,152,76163,1,0
376,152,76339,1,0
448,200,76516,1,0
448,200,76692,6,0,B|448:320|344:320,1,180,4|0
360,232,77221,1,0
360,232,77398,1,0
360,232,77574,1,0
360,232,77751,1,0
360,232,77927,1,0
272,256,78104,6,0,B|216:216|144:288|104:224,1,180
40,160,78633,1,0
104,96,78810,1,0
168,160,78986,1,0
232,96,79163,1,0
288,160,79339,1,0
352,96,79516,6,2,B|496:96,2,135,2|0|0
288,32,80221,1,0
264,120,80398,2,0,B|224:160|272:208,1,90,2|0
176,112,80751,2,2,B|160:176|176:232|240:280,1,180,2|0
230,272,81280,1,0
230,272,81457,1,0
184,352,81633,2,0,B|80:192,1,180
48,24,82339,5,4
56,24,82427,1,0
64,24,82516,1,0
72,24,82604,1,0
80,24,82692,1,0
88,24,82780,1,0
96,24,82868,1,0
184,24,83045,1,0
272,48,83221,1,0
160,112,83398,1,0
248,136,83574,1,0
464,360,83751,5,4
456,360,83839,1,0
448,360,83928,1,0
440,360,84016,1,0
432,360,84104,1,0
424,360,84192,1,0
416,360,84280,1,0
328,360,84457,1,0
240,336,84633,1,0
352,272,84810,1,0
264,248,84986,1,0
48,336,85163,6,0,B|48:152,1,180
136,176,85692,1,0
136,88,85868,2,0,B|200:104|240:168|200:240|168:256,2,180
192,16,86751,2,0,B|376:16,1,180
432,88,87280,1,0
432,88,87457,1,0
432,88,87633,1,0
496,160,87810,1,0
432,232,87986,6,0,B|424:288|360:344|304:352,1,180,4|0
216,352,88516,1,0
128,352,88692,1,0
216,352,88868,1,0
128,352,89045,1,0
80,152,89398,6,0,B|88:96|152:40|208:32,1,180,4|0
296,32,89927,1,0
341,32,90016,1,0
385,32,90104,1,0
296,32,90280,1,0
384,32,90457,1,0
472,192,90810,6,0,B|464:240|424:272,1,90
344,288,91163,1,0
368,200,91339,2,0,B|280:168|184:168,1,180
112,208,91868,1,0
32,48,92221,6,4,L|48:48|48:40|64:40|64:32|80:48|80:40|96:56|96:48|112:64|112:56|128:72|128:64|144:64|144:56|160:56|160:48|176:48|176:40|192:40|192:32|208:32|208:24|224:40|224:32|240:48|240:40|256:56|256:48|272:64|272:56|288:72|288:64|304:64|304:56|320:56|320:48|336:48|336:40|352:40|352:32|376:16,2,540
32,136,93457,1,2
40,184,93545,1,0
56,224,93634,1,0
80,264,93722,1,0
112,288,93810,1,2
152,312,93898,1,0
192,328,93986,1,0
232,336,94074,1,0
280,344,94163,1,0
368,344,94339,6,0,B|368:176|496:240|496:16,1,360,4|0
312,16,95398,1,0
392,64,95574,1,0
312,112,95751,1,0
312,112,95839,1,0
312,112,95927,1,0
392,160,96104,1,0
312,208,96280,2,0,B|312:304,2,90
312,208,96810,1,0
232,160,96986,1,0
232,248,97163,6,0,B|0:384|0:192|32:120,1,360
208,88,98221,1,0
296,56,98398,1,0
328,88,98486,1,0
360,120,98574,1,0
448,88,98751,1,0
448,88,98927,1,0
448,88,99104,1,0
448,176,99280,2,0,B|424:208|480:232|448:264,2,90
448,176,99810,1,0
360,192,99986,6,0,B|304:240|192:248,1,180
120,192,100516,1,0
200,160,100692,2,0,B|304:144|368:88,1,180
363,91,101221,1,0
464,48,101398,5,0
464,48,101574,1,0
464,48,101751,1,0
464,136,101927,1,0
464,136,102104,1,0
464,136,102280,1,0
464,224,102457,1,0
256,96,102810,5,0
256,288,102986,1,2
328,96,103163,1,0
184,288,103339,1,0
400,96,103516,1,2
112,288,103692,1,0
472,96,103868,1,0
40,288,104045,2,0,B|40:104,1,180,2|0
40,108,104574,1,0
40,108,104751,1,0
256,96,104927,5,0
256,96,105104,1,0
256,96,105280,1,0
256,192,105457,1,0
168,304,105633,6,0,B|256:344|344:304,1,180
168,80,106339,2,0,B|256:40|344:80,1,180
160,192,107045,6,0,B|80:240,1,90
352,192,107398,2,0,B|432:240,1,90
80,144,107751,2,0,B|0:192,1,90,0|0
432,144,108104,2,0,B|512:192,1,90
256,192,108457,5,0
256,192,108810,1,0
256,192,109163,1,0
256,88,109339,1,0
256,144,109427,1,0
256,192,109516,1,0
256,296,109692,1,0
320,216,109868,5,0
192,216,110045,1,0
328,144,110221,1,0
184,144,110398,1,0
256,88,110574,2,0,B|256:0,2,90
256,192,111280,5,4
464,112,111633,6,0,B|512:192|464:288,1,180
256,192,112163,1,0
48,272,112339,2,0,B|0:192|48:96,1,180
312,144,112868,5,0
360,120,112957,1,0
408,96,113045,1,0
269,264,113221,1,0
266,318,113310,1,0
263,371,113398,1,0
186,167,113574,1,0
141,137,113663,1,0
96,108,113751,1,0
256,192,114104,5,4
472,192,114457,6,0,B|304:128,1,180
256,192,114986,1,0
40,192,115163,2,0,B|208:128,1,180
344,192,115868,5,0
344,192,115957,1,0
344,192,116045,1,0
212,268,116221,1,0
212,268,116310,1,0
212,268,116398,1,0
212,115,116574,1,0
212,115,116663,1,0
212,115,116751,1,0
256,192,116927,5,4
300,115,117280,5,0
299,268,117457,1,0
168,191,117633,1,0
256,40,117986,1,0
124,268,118163,1,0
387,268,118339,1,0
464,192,118516,5,0
432,144,118604,1,0
400,96,118692,1,0
48,192,118868,1,0
80,144,118956,1,0
112,96,119044,1,0
208,320,119221,1,0
264,328,119310,1,0
320,320,119398,1,0
256,192,119574,2,0,B|256:104,1,90
