osu file format v9

[General]
AudioFilename: TaNaBaTa - - 05 - .mp3
AudioLeadIn: 1000
PreviewTime: 31590
Countdown: 0
SampleSet: Normal
StackLeniency: 0.7
Mode: 0
LetterboxInBreaks: 0

[Editor]
DistanceSpacing: 0.8
BeatDivisor: 4
GridSize: 4

[Metadata]
Title:Pick Me Up In The Dance Hall
Artist:Annyy
Creator:lovhin456
Version:Normal
Source:Touhou
Tags:Rumia Embodiment of Scarlet Devil Setsuna Light TaNaBaTa Momentaneous chamelepeace710 Dragvon

[Difficulty]
HPDrainRate:5
CircleSize:4
OverallDifficulty:5
ApproachRate:5
SliderMultiplier:1.3
SliderTickRate:2

[Events]
//Background and Video events
0,0,"BG.jpg"
//Break Periods
2,107893,113552
//Storyboard Layer 0 (Background)
//Storyboard Layer 1 (Fail)
//Storyboard Layer 2 (Pass)
//Storyboard Layer 3 (Foreground)
//Storyboard Sound Samples
//Background Colour Transformations
3,100,0,0,0

[TimingPoints]
1811,441.176470588235,4,1,0,50,1,0
28460,-100,4,2,0,100,0,0
29783,-100,4,1,0,80,0,0
45666,-100,4,2,0,100,0,0
49195,-100,4,1,0,80,0,0
52724,-100,4,2,0,100,0,0
56254,-100,4,1,0,80,0,0
59783,-100,4,2,0,100,0,0
74163,-100,4,1,0,100,0,1
93575,-100,4,1,0,100,0,0
121548,-100,4,1,0,90,0,0
135928,-100,4,1,0,90,0,1
155119,-100,4,2,0,0,0,0

[Colours]
Combo1 : 130,179,187
Combo2 : 132,148,179
Combo3 : 222,54,54
Combo4 : 248,233,129

[HitObjects]
256,192,1811,1,4
256,192,2693,1,0
464,192,3575,1,0
320,40,4458,1,0
272,40,4678,1,0
224,40,4899,1,2
120,40,5340,5,4
24,224,6222,1,0
232,224,7105,1,0
232,272,7325,1,0
232,320,7546,1,8
280,320,7766,2,4,B|344:360|408:312,1,130
456,312,8428,1,2
456,208,8869,5,4
336,40,9752,1,0
128,40,10634,1,0
152,88,10855,1,0
104,88,11075,1,8
56,88,11296,2,4,B|-24:184|64:272,1,195,4|2
144,208,12399,5,4
296,64,13281,1,0
448,208,14163,1,0
344,208,14605,2,2,B|248:208|248:304,2,130,2|2|2
344,104,15928,6,0,B|200:104,2,130,0|8|0
448,104,17252,2,0,B|448:240,3,130,8|0|8|0
344,232,19016,1,4
344,128,19458,6,0,B|200:128,2,130,0|8|0
344,232,20781,2,0,B|480:232,3,130,8|0|8|0
408,312,22546,1,4
344,232,22987,5,4
280,312,23428,1,8
216,232,23869,2,0,B|216:264|144:316|64:268|64:228,1,195
60,180,24752,1,2
36,132,24972,1,0
88,132,25193,1,8
192,132,25634,2,0,B|192:100|240:80|288:100|288:136,1,130,0|8
344,220,26516,5,2
256,280,26958,1,8
344,336,27399,2,0,B|448:336|448:224|512:224,1,195,0|0
488,64,28722,5,2
488,112,28943,1,0
440,112,29163,1,0
392,112,29384,2,0,L|320:112,1,65,0|4
256,192,31149,5,0
256,192,31369,1,4
256,88,31811,1,0
304,88,32031,2,0,B|448:88,1,130,0|0
432,144,32693,2,0,B|352:144|352:240,3,130,0|8|0|8
456,224,34458,1,0
352,224,34899,1,8
352,328,35340,5,0
248,328,35781,1,8
248,224,36222,1,0
160,280,36663,2,0,B|72:280|72:184,3,130,8|0|8|0
72,96,38428,1,4
176,96,38869,6,0,B|288:-32|408:112,3,260,0|0|0|0
400,200,41958,1,8
328,280,42399,5,0
232,240,42840,1,8
160,312,43281,1,0
232,240,43722,1,8
328,280,44163,2,4,B|408:280|408:192,3,130,4|4|4|4
408,96,45928,5,0
328,32,46369,1,8
240,88,46810,1,0
240,192,47252,2,0,B|104:192,1,130,8|0
56,192,47913,5,0
56,248,48134,2,0,B|96:288|16:336|64:368,1,130,8|0
152,312,49016,1,4
232,248,49458,5,2
312,176,49899,1,8
384,248,50340,1,2
312,176,50781,1,8
384,104,51222,2,4,B|384:32|288:32,3,130
264,128,52987,5,0
160,104,53428,1,8
64,136,53869,1,0
160,104,54310,1,8
160,156,54531,1,0
160,264,54972,5,0
212,264,55193,1,8
264,264,55413,1,0
264,320,55634,2,0,B|184:320,2,65,0|0|4
368,320,56516,5,0
368,216,56958,2,2,B|456:216|456:120,2,130,2|0|2
264,216,58281,2,0,B|176:216|176:132|92:132,2,195
368,216,60046,5,0
448,152,60487,1,8
368,88,60928,2,0,B|408:48|360:8,2,86.6666666666667,4|4|0
248,88,62031,1,0
248,36,62252,1,4
44,68,63134,5,8
48,172,63575,2,0,B|132:172|132:256,1,130,0|8
236,252,64458,2,0,B|236:308|180:308,2,86.6666666666667,4|0|0
236,132,65560,2,0,B|292:180,1,65,0|4
388,176,66222,2,0,B|452:176|452:248|388:248,1,130,0|4
288,256,67105,6,0,B|288:336|192:336,1,130,0|8
152,248,67987,2,0,B|88:248|88:312,2,86.6666666666667,0|0|0
152,128,69090,2,0,B|72:128|72:40,1,130,0|4
228,56,70193,5,8
248,104,70413,1,0
264,152,70634,2,0,B|376:152|376:248|504:248,1,260,0|0
416,312,71958,1,8
376,344,72178,1,0
336,312,72399,2,0,B|256:216,2,97.5,0|0|0
296,344,73281,1,0
416,176,74163,5,4
360,176,74384,1,0
308,176,74605,2,0,B|308:232|216:288|116:232|116:176,1,260,8|8
120,72,75928,1,0
216,116,76369,1,8
312,76,76810,1,0
408,116,77252,1,8
256,192,77693,12,0,79458
256,192,80781,5,8
256,192,81222,2,0,B|256:136|356:100|460:140|460:192,1,260,4|0
396,272,82546,5,8
356,304,82766,2,0,B|316:344|236:344,1,130
184,340,83428,1,8
140,312,83649,1,0
108,272,83869,1,0
180,196,84310,6,0,B|132:196|132:116|52:116,3,130,8|0|8|0
176,76,86075,1,8
272,40,86516,1,0
368,80,86958,1,8
464,40,87399,1,0
368,80,87840,6,8,B|368:160|280:160,1,130,8|0
280,264,88722,1,8
224,264,88943,1,0
224,216,89163,1,0
224,112,89605,5,8
136,168,90046,1,0
56,232,90487,2,0,B|0:232,2,32.5,8|0|0
256,192,90928,12,4,93134
256,188,93575,5,4
164,136,94016,1,8
204,40,94458,1,0
308,40,94899,1,8
344,140,95340,5,0
448,140,95781,1,8
396,232,96222,1,2
396,232,96443,1,2
396,232,96663,1,2
396,336,97105,5,0
304,288,97546,1,8
308,184,97987,1,0
216,236,98428,1,8
160,148,98869,6,0,B|80:148|80:228,1,130,0|8
148,308,99752,1,2
184,272,99972,1,2
220,308,100193,1,2
228,204,100634,6,0,B|332:204|332:84|468:84,1,260,0|0
244,88,102399,1,4
256,192,102840,12,0,105487
256,192,105928,5,8
152,192,106369,1,2
360,192,107252,1,4
360,192,107693,1,4
112,96,114752,5,4
112,96,115193,1,8
32,160,115634,1,0
104,232,116075,1,8
24,304,116516,1,0
56,344,116737,1,0
88,304,116958,1,8
192,304,117399,1,0
296,304,117840,1,8
248,216,118281,6,0,B|304:216|304:152|360:152,3,130,0|8|0|8
224,64,120266,1,0
280,64,120487,1,8
336,64,120708,1,0
384,64,120928,2,0,B|384:152|296:152,1,130,0|8
232,224,121811,6,0,B|152:224|152:128,1,130,4|8
104,48,122693,2,0,B|144:8|184:48,2,86.6666666666667,0|0|0
104,168,123796,2,0,B|24:256|112:344,1,195,0|0
192,280,124899,5,8
224,240,125119,1,0
256,280,125340,1,0
360,280,125781,2,0,B|360:120|184:120,2,260,8|8|8
464,288,127987,2,0,B|464:360|368:360,1,130,0|8
280,360,128869,5,0
240,328,129090,1,0
208,288,129311,1,8
144,208,129752,2,0,B|232:208|232:104,3,130,4|8|0|8
432,88,131958,5,8
456,136,132178,1,0
432,184,132399,2,0,B|320:184|320:272|176:272,1,260,0|4
104,216,133722,1,4
192,160,134163,5,0
352,160,134825,1,2
296,160,135046,1,4
192,160,135487,1,8
120,88,135928,6,0,B|32:216|200:216|96:336,1,260,4|0
208,328,137252,1,8
296,280,137693,1,0
208,216,138134,1,8
128,152,138575,2,0,B|40:152|40:48,2,130,0|8|0
208,216,139899,5,8
288,152,140340,1,0
208,88,140781,1,8
128,152,141222,1,4
48,216,141663,1,4
128,280,142105,1,4
208,216,142546,5,8
256,216,142766,1,0
304,216,142987,2,0,B|392:216|392:136|480:136,1,195,0|0
480,88,143869,1,0
376,88,144311,2,0,B|296:88|296:0,3,130,8|0|8|0
216,72,146075,5,8
136,136,146516,1,0
216,208,146958,1,8
296,136,147399,1,0
368,208,147840,5,8
296,280,148281,1,0
216,208,148722,1,8
168,224,148943,1,0
120,200,149163,1,0
120,96,149605,5,8
168,72,149825,1,0
216,96,150046,2,0,B|296:96|296:0,2,130,0|8|0
168,184,151369,1,8
168,288,151810,1,0
256,232,152252,1,2
256,128,152693,1,4
256,192,152913,12,0,155119
