osu file format v9

[General]
AudioFilename: TaNaBaTa - - 05 - .mp3
AudioLeadIn: 1000
PreviewTime: 31590
Countdown: 0
SampleSet: Normal
StackLeniency: 0.7
Mode: 0
LetterboxInBreaks: 0

[Editor]
DistanceSpacing: 1
BeatDivisor: 4
GridSize: 4

[Metadata]
Title:Pick Me Up In The Dance Hall
Artist:Annyy
Creator:lovhin456
Version:Mix710
Source:Touhou
Tags:Rumia Embodiment of Scarlet Devil Setsuna Light TaNaBaTa Momentaneous chamelepeace710 Dragvon

[Difficulty]
HPDrainRate:7
CircleSize:4
OverallDifficulty:7
ApproachRate:8
SliderMultiplier:2.29999990463257
SliderTickRate:2

[Events]
//Background and Video events
0,0,"BG.jpg"
//Break Periods
2,93775,99002
//Storyboard Layer 0 (Background)
//Storyboard Layer 1 (Fail)
//Storyboard Layer 2 (Pass)
//Storyboard Layer 3 (Foreground)
//Storyboard Sound Samples
//Background Colour Transformations
3,100,0,0,0

[TimingPoints]
1811,441.176470588235,4,1,0,90,1,0
31590,-100,4,1,0,90,0,0
74163,-100,4,1,0,90,0,1
81002,-100,4,1,0,90,0,0
81222,-100,4,1,0,90,0,1
93575,-100,4,1,0,90,0,0
135928,-100,4,1,0,90,0,1
142766,-100,4,1,0,90,0,0
142987,-100,4,1,0,90,0,1
155119,-100,4,2,0,0,0,0

[Colours]
Combo1 : 130,179,187
Combo2 : 132,148,179
Combo3 : 222,54,54
Combo4 : 248,233,129

[HitObjects]
64,96,1810,6,0,B|96:32|176:48,1,114.999995231628
158,45,2141,1,0
158,45,2252,1,8
256,96,2472,1,0
353,45,2693,2,0,B|416:32|448:96,1,114.999995231628,0|0
416,192,3134,2,0,B|353:205|321:141,1,114.999995231628,8|0
64,288,3575,6,0,B|96:352|160:336,1,114.999995231628,0|0
157,336,3906,1,0
157,336,4016,1,8
256,304,4237,1,0
256,208,4458,1,0
144,128,4678,5,8
368,128,4899,1,8
256,48,5119,5,2
352,16,5340,2,0,B|400:48|464:48,1,114.999995231628,2|0
460,47,5671,1,0
460,47,5781,1,8
432,144,6002,1,0
464,240,6222,1,0
384,304,6443,1,0
288,304,6663,1,8
192,336,6884,1,0
96,304,7105,6,0,B|48:256|64:192,1,114.999995231628
62,199,7435,1,0
62,199,7546,1,8
80,96,7766,1,0
160,32,7987,2,0,B|224:16|256:80,1,114.999995231628,0|8
256,176,8428,1,8
208,272,8649,5,2
256,304,8759,1,2
304,272,8869,1,2
352,176,9090,1,0
400,144,9200,1,0
448,176,9311,1,8
464,288,9531,1,0
368,336,9752,2,0,B|320:368|256:368,1,114.999995231628
160,320,10193,2,0,B|96:304|96:224,1,114.999995231628,8|0
160,80,10634,6,0,B|96:112|96:192,1,114.999995231628
97,170,10965,1,0
97,170,11075,1,8
176,240,11296,1,0
256,304,11516,1,0
336,240,11737,1,8
256,176,11958,1,8
256,80,12178,6,2,B|288:16|368:32,1,114.999995231628
368,128,12619,1,0
400,160,12730,1,0
448,144,12840,1,8
448,240,13061,1,0
384,320,13281,1,0
288,304,13502,2,0,B|224:288|160:336,2,114.999995231628,0|8|0
240,208,14163,6,0,B|192:160|128:176,1,114.999995231628
135,174,14494,1,0
135,174,14605,1,8
192,96,14825,2,0,B|240:48|304:80,1,114.999995231628
320,288,15266,2,0,B|272:336|208:304,1,114.999995231628,8|8
192,96,15708,1,2
96,80,15928,5,4
48,176,16149,2,0,B|112:192,2,57.4999976158142,2|0|8
80,272,16590,1,2
160,336,16811,2,0,B|224:300|256:272,1,114.999995231628,0|2
352,336,17252,2,0,B|284:300|256:272,1,114.999995231628,8|2
256,176,17693,5,0
208,80,17913,1,2
256,48,18024,1,0
304,80,18134,1,8
400,128,18355,2,0,B|448:176|512:176,2,114.999995231628,2|0|2
496,112,19016,2,0,B|448:176|352:208|352:304,1,229.999990463257,8|0
256,336,19678,5,2
256,336,19788,1,0
256,336,19899,1,8
224,240,20119,2,0,B|176:208|112:224,1,114.999995231628,2|0
192,288,20561,2,0,B|224:240|256:176,1,114.999995231628,2|8
256,80,21002,1,2
352,128,21222,5,0
320,288,21443,1,2
160,256,21663,1,8
192,96,21884,1,2
384,112,22105,5,0
336,320,22325,1,2
128,272,22546,1,8
176,64,22766,1,2
128,144,22987,6,0,B|80:192|0:192,1,114.999995231628,0|2
25,190,23318,1,0
25,190,23428,1,8
48,288,23649,1,2
144,336,23869,6,0,B|192:288|256:288,1,114.999995231628,0|2
368,48,24311,2,0,B|320:96|256:96,1,114.999995231628,8|2
256,192,24752,5,0
352,224,24972,1,2
416,144,25193,1,8
320,112,25413,1,2
256,32,25634,1,0
192,112,25855,1,2
96,144,26075,1,8
160,224,26296,1,2
208,320,26516,5,0
304,320,26737,1,2
256,224,26958,1,8
256,128,27178,1,2
256,32,27399,1,0
160,80,27619,5,6
352,80,27840,1,6
256,256,28061,1,6
256,192,28281,12,0,31369
96,80,31811,6,0,B|96:208,1,114.999995231628
192,144,32252,2,0,B|320:144,2,114.999995231628,8|0|0
192,144,32803,1,0
192,240,33024,1,0
192,240,33134,2,0,B|192:320|272:320,1,114.999995231628,8|0
368,320,33575,2,0,B|432:320|432:240,1,114.999995231628
464,144,34016,2,0,B|432:80|368:96,1,114.999995231628,8|0
272,48,34458,1,0
272,48,34568,1,0
272,48,34678,2,0,B|208:96|160:48,1,114.999995231628,0|8
64,80,35119,1,2
112,320,35340,5,2
208,288,35561,2,0,B|224:224|160:192,2,114.999995231628,0|8|0
304,288,36222,1,2
304,288,36333,2,0,B|288:224|352:192,2,114.999995231628,0|8|0
304,288,36884,1,2
400,304,37105,6,0,B|448:272|512:288,1,114.999995231628,2|0
464,192,37546,2,0,B|400:144|464:96,1,114.999995231628,8|0
368,64,37987,2,0,B|320:32|256:48,1,114.999995231628,2|0
257,47,38318,1,8
176,112,38538,2,2,B|128:144,3,57.4999976158142,2|10|10|2
64,224,39090,5,0
32,320,39310,1,8
128,336,39531,1,0
160,240,39752,1,0
256,208,39972,1,2
256,256,40083,1,2
256,304,40193,1,10
352,272,40413,1,0
448,256,40634,1,0
448,160,40855,5,0
480,64,41075,1,8
384,48,41296,1,0
352,144,41516,1,0
256,176,41737,1,2
256,128,41847,1,2
256,80,41958,1,10
160,112,42178,1,2
64,144,42399,6,0,B|32:192|80:256,1,114.999995231628
160,304,42840,2,0,B|208:336|272:288,1,114.999995231628,8|0
320,208,43281,2,0,B|352:160|304:96,1,114.999995231628
224,32,43722,2,0,B|176:0|112:48,1,114.999995231628,8|0
48,144,44163,2,0,B|48:192|64:272|224:288|228:160|176:160|176:160|120:168|128:272|256:304|384:272|392:160|336:160|336:160|280:164|288:288|448:272|464:192|464:144,1,919.999961853028
256,336,46369,5,8
208,224,46590,1,0
256,192,46700,1,0
304,224,46810,1,0
368,144,47031,2,0,B|320:96|256:96,1,114.999995231628,0|8
160,128,47472,1,0
80,320,47913,5,0
112,224,48134,1,8
208,176,48355,1,0
304,176,48575,1,0
400,224,48796,1,0
432,320,49016,1,8
256,64,49458,6,0,B|208:96|144:96,1,114.999995231628
64,160,49899,2,0,B|80:224|32:272,1,114.999995231628,8|0
112,336,50340,1,0
160,304,50450,1,0
208,272,50560,1,0
256,288,50671,1,0
304,256,50781,1,8
256,160,51002,1,0
256,64,51222,6,0,B|304:96|368:96,1,114.999995231628
448,160,51663,2,0,B|432:224|480:272,1,114.999995231628,8|0
400,336,52105,1,0
352,304,52215,1,0
304,272,52325,1,0
256,288,52435,1,0
208,256,52546,1,8
112,288,52766,1,0
80,192,52987,6,0,B|112:144|96:64,1,114.999995231628
208,80,53428,2,0,B|256:112|320:112,1,114.999995231628,8|0
416,80,53869,1,0
444,192,54090,1,0
416,80,54310,1,8
336,164,54531,1,0
112,272,54972,6,0,B|80:224|0:240,1,114.999995231628,0|8
64,144,55413,2,0,B|112:96|176:96,1,114.999995231628
192,192,55855,2,0,B|224:240|304:240,1,114.999995231628,0|8
272,144,56296,1,0
224,304,56516,6,0,B|192:352|128:368,1,114.999995231628
131,367,56847,1,0
131,367,56958,1,8
48,320,57178,1,0
64,224,57399,2,0,B|64:160|112:112,1,114.999995231628
192,64,57840,2,0,B|256:32|320:64,1,114.999995231628,8|0
256,144,58281,5,0
272,192,58391,1,0
288,240,58502,1,0
304,288,58612,1,0
320,336,58722,1,8
400,288,58943,1,0
432,192,59163,2,0,B|432:128|496:96,2,114.999995231628,0|0|8
256,64,60046,6,0,B|192:144|48:160,1,229.999990463257,0|8
112,80,60708,1,0
48,160,60928,1,2
120,296,61222,1,2
232,192,61516,1,2
432,80,62031,5,0
432,80,62252,2,0,B|496:160|496:256|448:352|304:368|224:320|192:272,1,459.999980926514
216,297,63355,1,0
256,208,63575,2,0,B|172:180|192:64|320:64|324:156,2,229.999990463257,0|8|2
120,276,64752,1,2
128,124,65046,2,0,B|160:44|224:12|288:8|364:32,1,258.749989271164,2|0
448,100,65781,2,0,B|512:180|512:276|464:372|320:388|232:344|212:300,1,459.999980926514
256,208,66884,1,0
160,160,67105,5,0
208,128,67215,1,0
256,96,67325,1,0
304,128,67435,1,0
352,160,67546,1,0
384,256,67766,2,0,B|416:320|480:336,1,114.999995231628,0|2
316,360,68281,1,2
180,292,68575,2,0,B|188:136|4:148,1,258.749989271164,2|0
48,268,69310,2,0,B|128:172|256:108|384:172|464:268,1,459.999980926514
368,304,70413,1,0
320,208,70634,6,0,B|240:160|192:128|192:52|320:52|320:128|272:160|192:208,1,344.999985694885
256,288,71516,1,0
192,368,71737,1,0
320,368,71958,1,0
256,288,72178,1,0
208,192,72399,2,0,B|208:140|256:128|304:140|304:192,2,153.333326975505
128,288,73281,1,0
64,176,73502,1,0
64,176,73612,1,0
64,176,73722,1,0
64,176,73833,1,0
64,176,73943,1,0
64,176,74053,1,0
64,176,74163,1,0
128,96,74384,5,0
224,80,74605,1,8
272,64,74715,1,0
320,80,74825,1,0
416,112,75046,2,0,B|464:160|448:224,1,114.999995231628
96,272,75487,2,0,B|48:224|64:160,1,114.999995231628,8|0
160,144,75928,5,0
192,256,76149,1,0
288,304,76369,1,8
400,320,76590,1,0
400,320,76700,1,0
400,320,76810,1,0
496,256,77031,1,0
432,160,77252,1,8
464,48,77472,1,0
352,32,77693,6,0,B|368:160|176:304|0:192,1,459.999980926514
112,144,78796,1,0
224,112,79016,1,2
272,224,79237,1,2
160,256,79458,2,0,B|240:352|368:304,1,229.999990463257
448,224,80119,1,0
464,112,80340,2,0,B|432:48|368:32,1,114.999995231628
48,272,80781,2,2,B|80:336|144:352,1,114.999995231628
160,240,81222,5,0
256,160,81443,1,0
352,240,81663,1,8
352,240,81774,1,0
352,240,81884,1,0
256,320,82105,2,0,B|256:224|256:224|160:208|192:80,1,229.999990463257,0|8
80,192,82766,1,0
48,80,82987,5,0
160,48,83208,1,0
192,160,83428,1,8
304,128,83649,2,0,B|272:16,1,114.999995231628
384,48,84090,1,0
384,48,84200,1,0
384,48,84310,1,8
448,144,84531,1,0
400,256,84752,6,0,B|320:352|144:256|128:176|176:80|336:64|384:144|352:272|256:352|96:352,1,689.999971389771
48,272,86296,1,0
112,176,86516,2,2,B|176:96|112:0|16:48,2,229.999990463257
144,288,87619,1,0
256,256,87840,1,8
368,288,88061,1,8
352,176,88281,6,0,B|308:120|256:104|196:120|160:176,1,229.999990463257,0|8
64,208,88943,1,0
112,112,89163,2,0,B|160:48|224:48,1,114.999995231628
400,112,89605,2,0,B|352:48|288:48,1,114.999995231628,8|0
256,160,90046,5,0
256,272,90266,1,0
256,160,90487,1,8
256,272,90708,1,0
256,192,90928,12,0,93575
256,16,99752,5,0
256,368,100193,1,0
192,176,100634,6,0,B|160:128|80:128,1,114.999995231628
92,128,100965,1,0
92,128,101075,1,2
48,240,101296,1,0
144,304,101516,2,0,B|192:352|256:336,1,114.999995231628
368,80,101958,2,0,B|320:32|256:48,1,114.999995231628,2|0
288,160,102399,6,0,B|336:208|400:192,1,114.999995231628
392,193,102730,1,0
392,193,102840,1,2
368,80,103061,1,0
256,48,103281,1,0
112,192,103502,1,2
400,192,103722,1,2
256,336,103943,1,0
256,192,104163,12,0,105487
48,80,105928,5,0
48,304,106369,1,0
368,192,107031,1,0
256,192,107252,1,0
208,320,107693,6,0,B|256:384|304:320,1,114.999995231628
448,240,108134,2,0,B|512:192|448:144,1,114.999995231628,8|0
304,64,108575,2,0,B|256:0|208:64,1,114.999995231628
64,144,109016,2,0,B|0:192|64:240,1,114.999995231628,8|0
176,192,109458,5,0
208,240,109568,1,0
256,272,109678,1,0
336,192,109899,5,8
304,144,110009,1,0
256,112,110119,1,0
256,335,110340,5,0
352,288,110561,1,0
399,192,110781,1,8
352,96,111002,1,0
256,48,111222,5,0
160,96,111443,1,0
112,192,111663,1,8
176,288,111884,1,0
256,192,112105,5,0
208,160,112215,1,0
256,128,112325,1,0
304,160,112436,1,0
304,224,112546,1,8
256,336,112766,1,0
144,336,112987,5,0
36,296,113208,1,0
120,216,113428,1,8
40,132,113649,1,0
140,76,113869,1,0
160,132,113980,1,0
216,144,114090,1,0
272,128,114200,1,0
292,72,114311,1,8
340,44,114421,1,0
388,72,114531,1,0
408,128,114641,1,0
464,156,114752,1,0
412,260,114972,5,0
380,308,115083,1,0
328,328,115193,1,8
228,268,115413,1,0
184,228,115524,1,0
128,244,115634,1,0
108,296,115744,1,0
152,336,115855,1,0
208,328,115965,1,0
172,284,116075,1,8
128,176,116296,5,0
192,80,116516,1,0
240,64,116627,1,0
288,48,116737,1,0
336,32,116847,1,0
352,80,116958,1,8
368,128,117068,1,0
384,176,117178,1,0
336,192,117288,5,0
288,208,117399,1,0
240,224,117509,1,0
256,272,117619,1,0
272,320,117730,1,0
288,368,117840,1,8
336,352,117950,1,0
384,336,118061,1,0
432,320,118171,1,0
416,272,118281,1,4
464,176,118502,5,0
384,96,118722,2,0,B|352:48|288:32,1,114.999995231628,8|0
256,144,119163,2,0,B|192:224|64:160|96:64,1,229.999990463257,0|8
208,96,119825,2,0,B|112:128|64:256|144:352|224:368,1,344.999985694885,0|8
304,320,120708,1,0
352,304,120818,1,0
400,288,120928,1,0
384,176,121149,1,0
400,64,121369,1,8
352,80,121480,1,0
304,96,121590,1,0
256,192,121811,5,0
160,256,122031,1,0
64,192,122252,1,8
160,128,122472,1,0
256,64,122693,5,0
336,196,122987,1,0
184,192,123281,1,0
208,304,123575,6,0,B|160:336|96:336,1,114.999995231628
256,240,124016,2,0,B|256:112,1,114.999995231628,8|0
304,304,124458,2,0,B|352:336|416:336,1,114.999995231628
412,335,124788,1,0
412,335,124899,1,8
448,224,125119,1,0
400,112,125340,6,0,B|352:32|256:0|160:32|112:112,1,344.999985694885
256,128,126222,1,0
180,260,126516,1,0
332,264,126811,1,0
112,160,127325,5,0
112,160,127546,2,0,B|112:212|112:212|112:256|128:304|384:304|400:256|400:208|400:208|400:160,1,459.999980926514
304,96,128649,1,0
256,80,128759,1,0
208,96,128869,1,0
208,208,129090,1,0
256,240,129200,1,0
304,208,129311,1,0
400,160,129531,5,0
384,272,129752,1,0
256,356,130046,1,0
128,272,130340,1,0
256,176,130855,5,0
336,96,131075,2,0,B|336:0|176:0|176:96,2,229.999990463257
256,176,132178,1,0
144,192,132399,6,0,B|24:256|48:376|256:376,1,344.999985694885
368,192,133281,2,0,B|488:128|464:8|256:8,1,344.999985694885
256,112,134163,2,2,B|256:272,2,153.333326975505
128,192,134991,1,2
80,80,135266,1,0
80,80,135377,1,0
80,80,135487,1,0
80,80,135597,1,0
80,80,135708,1,0
80,80,135818,1,0
80,80,135928,1,0
192,48,136149,5,0
304,96,136369,2,0,B|352:128,2,57.4999976158142,8|0|0
192,128,136811,2,0,B|240:240|384:240,1,229.999990463257,0|8
448,336,137472,1,0
336,320,137693,2,0,B|288:352,1,57.4999976158142
224,352,137913,1,0
116,316,138134,2,0,B|68:284,1,57.4999976158142,8|0
76,228,138355,1,0
176,240,138575,6,0,B|304:272|432:160|368:32,1,344.999985694885
304,128,139458,5,0
192,112,139678,1,0
144,144,139788,1,8
240,224,140009,1,0
272,272,140119,1,8
384,320,140340,1,0
432,288,140450,1,0
464,240,140561,1,8
480,192,140671,1,8
464,144,140781,1,0
432,96,140891,1,0
384,64,141002,1,8
272,64,141222,6,0,B|144:64,1,114.999995231628,0|8
176,112,141553,2,0,B|48:112,1,114.999995231628
16,144,141884,1,8
64,240,142105,1,0
80,288,142215,1,0
128,320,142325,1,8
176,336,142436,1,0
224,320,142546,1,0
256,272,142656,1,0
288,320,142766,1,8
336,336,142877,1,0
384,320,142987,1,0
336,208,143208,6,0,B|368:144|448:144,1,114.999995231628,0|8
426,145,143538,1,0
426,145,143649,1,0
336,80,143869,2,0,B|288:128|192:16|256:8|320:16|224:128|176:80,1,229.999990463257,0|8
256,176,144531,1,0
192,272,144752,6,0,B|128:384,1,114.999995231628,0|0
320,272,145193,2,0,B|384:384,1,114.999995231628,8|0
384,192,145634,6,0,B|384:128|304:128|304:192,1,114.999995231628,0|0
128,192,146075,2,0,B|128:256|208:256|208:192,1,114.999995231628,8|0
256,192,146516,12,0,149163
192,192,149605,5,0
320,192,149825,1,0
256,96,150046,5,0
368,96,150266,2,0,B|432:80|464:32,2,114.999995231628,0|8|0
448,176,150928,1,0
336,224,151149,1,0
384,256,151259,1,0
352,304,151369,1,8
304,336,151480,1,0
256,352,151590,1,0
208,336,151700,1,0
160,304,151810,1,0
128,256,151921,1,0
176,224,152031,1,0
256,144,152252,5,8
256,80,152362,1,0
256,16,152472,1,0
256,192,152693,12,0,155119
