osu file format v7

[General]
AudioFilename: annie_get_your_gun_(bernadette_peters)_-_anything_you_can_do,_i_can_do_better.mp3
AudioLeadIn: 0
PreviewTime: -1
Countdown: 1
SampleSet: Soft
StackLeniency: 0.7
Mode: 0
LetterboxInBreaks: 1

[Editor]
DistanceSpacing: 1.39999997615814
BeatDivisor: 3
GridSize: 8

[Metadata]
Title:Anything You Can Do I Can Do Better
Artist:Annie Get Your Gun
Creator:loser101
Version:Timing
Source:
Tags:

[Difficulty]
HPDrainRate:3
CircleSize:5
OverallDifficulty:3
SliderMultiplier:1.6
SliderTickRate:3

[Events]
//Background and Video events
//Break Periods
2,6242,13352
2,20004,24965
2,117068,117876
2,119516,121393
2,125337,133036
//Storyboard Layer 0 (Background)
//Storyboard Layer 1 (Fail)
//Storyboard Layer 2 (Pass)
//Storyboard Layer 3 (Foreground)
//Storyboard Sound Samples
//Background Colour Transformations
3,100,0,64,128

[TimingPoints]
4329.63458987791,469.707462686568,4,2,0,100,1,0
4799,497.420512820513,4,2,0,100,1,0
6664,500,4,2,0,100,1,0
7775,500,4,2,0,100,1,0
8711,500,4,2,0,100,1,0
10711,524.899999999999,4,2,0,100,1,0
12548,544.1,4,2,0,100,1,0
14792,366.748166259169,4,2,0,100,1,0
26527,364.520048602673,4,2,0,100,1,0
35275,377.358490566038,4,2,0,100,1,0
38293,369.0036900369,4,2,0,100,1,0
44197,357.355568790947,4,2,0,100,1,0
54620,368.098159509202,4,2,0,100,1,0
71920,368.663594470046,4,2,0,100,1,0
83717,370.141887723627,4,2,0,100,1,0
94080,346.340337104595,4,2,0,100,1,0
113475,363.640337104595,4,2,0,100,1,0
117133,363.856882959369,4,2,0,100,1,0
134598,364.409353173398,4,2,0,100,1,0
146391,368.776889981561,4,2,0,100,1,0
154688,550.964187327824,4,2,0,100,1,0
170941,579.464187327825,4,2,0,100,1,0
178763,579.710144927536,4,2,0,100,1,0
181951,579.710144927536,4,2,0,100,1,0
183255,579.710144927536,4,2,0,100,1,0
184994,610.997963340122,4,2,0,100,1,0
187743,376.175548589342,4,2,0,100,1,0

[Colours]
Combo1 : 0,0,64
Combo2 : 5,240,5
Combo3 : 5,5,240
Combo4 : 240,5,5
Combo5 : 0,64,128

[HitObjects]
208,264,4799,5,0
304,224,5047,1,0
208,168,5296,1,0
304,112,5545,1,0
208,64,5793,1,0
304,8,6042,1,0
104,336,14792,6,0,B|40:304|48:224,1,106.666666666667
48,176,15158,1,0
152,64,15403,2,0,B|320:64,1,160
384,64,15892,1,0
320,200,16136,2,0,B|280:256|224:256|176:184,1,160
256,160,16625,1,0
176,368,16992,1,0
328,368,17236,1,0
408,336,17725,6,0,B|472:304|464:224,1,106.666666666667
464,176,18091,1,0
360,64,18336,2,0,B|192:64,1,160
128,64,18825,1,0
192,280,19192,2,0,B|232:336|288:336|336:264,1,160
256,152,19804,1,0
256,248,26405,5,0
248,96,26648,1,0
176,104,26770,1,0
112,240,27013,1,0
184,216,27134,1,0
328,168,27377,1,0
256,224,29929,5,0
216,48,30415,1,0
128,96,30779,1,0
112,184,31144,1,0
144,184,31265,1,0
192,176,31508,1,0
224,168,31630,1,0
216,288,33695,5,0
192,184,34303,1,0
88,248,35275,5,0
144,240,35400,1,0
184,232,35526,1,0
184,232,35652,1,0
192,168,36029,1,0
88,176,36784,5,0
128,160,37036,1,0
128,160,37161,1,0
192,168,37413,1,0
280,200,37790,1,0
104,272,38168,5,0
144,256,38785,1,0
192,224,39400,1,0
192,224,39523,1,0
152,160,39769,1,0
152,160,40138,1,0
96,144,40507,1,0
152,160,40753,1,0
224,160,41122,1,0
200,240,41860,5,0
104,224,42721,1,0
128,184,42967,1,0
160,176,43090,1,0
208,208,43336,1,0
176,288,43705,5,0
120,272,44074,1,0
104,240,44435,1,0
104,240,44673,1,0
152,200,44911,1,0
152,200,45269,1,0
208,192,45507,1,0
248,192,45983,1,0
288,192,46460,1,0
288,192,46817,1,0
296,144,47174,1,0
264,128,47532,1,0
240,104,48008,5,0
240,104,48485,1,0
232,64,48842,1,0
232,64,49080,1,0
232,64,49438,1,0
232,64,49557,1,0
232,64,50033,1,0
232,64,50391,1,0
288,56,50867,5,0
336,24,52058,1,0
288,24,52416,1,0
288,24,52654,1,0
248,24,53011,1,0
208,24,53369,1,0
256,144,53964,1,14
184,168,57073,5,0
288,168,58055,1,0
208,256,58669,1,0
272,232,59405,1,0
128,128,60386,1,0
192,120,60754,1,0
232,160,61123,1,0
232,160,61245,1,0
240,208,61491,1,0
176,224,61859,5,0
128,192,62227,1,0
128,192,62472,1,0
256,160,62963,1,0
288,208,63208,1,0
232,248,63454,1,0
208,224,63822,1,0
112,184,64558,5,0
168,160,64804,1,0
208,168,64926,1,0
208,224,65049,1,0
400,240,66276,5,0
336,256,66521,1,0
280,240,67012,1,0
256,216,67748,1,0
184,240,68362,1,0
144,256,68853,1,0
248,72,70448,5,0
192,176,71061,1,0
192,176,71184,1,0
272,176,71675,5,0
240,240,72165,1,0
208,240,72534,1,0
152,160,73148,5,0
152,160,73640,1,0
152,160,73763,1,0
256,168,74131,1,0
256,168,74254,1,0
320,160,74746,5,0
240,144,75115,1,0
184,176,75483,1,0
184,176,75729,1,0
152,128,76221,5,0
152,128,76589,1,0
216,144,76958,1,0
216,144,77081,1,0
168,240,77572,5,0
128,200,78064,1,0
104,168,78433,1,0
104,128,78801,1,0
160,104,79293,1,0
160,104,79416,1,0
224,112,79784,1,0
280,112,80153,1,0
280,112,80645,1,0
280,112,80767,1,0
240,192,81505,5,0
168,176,81873,1,0
136,128,82365,1,0
192,128,82734,1,0
256,128,83102,1,0
240,224,83594,5,0
160,224,84087,1,0
120,192,84704,1,0
120,192,84950,1,0
168,168,85197,1,0
144,128,85567,1,0
200,96,85937,1,0
144,80,86184,1,0
232,48,86554,1,0
152,248,87295,5,0
232,216,87665,1,0
120,184,88035,1,0
240,160,88528,1,0
112,136,88775,1,0
240,160,89269,5,0
248,248,89515,1,0
160,184,89886,1,0
160,264,90256,1,0
88,240,90749,5,0
160,232,90996,1,0
136,64,91366,6,0,B|240:8|352:64,1,213.333333333333
408,128,92106,1,0
88,112,94310,5,0
144,96,94888,1,0
240,200,96735,2,0,B|48:160|168:-16|408:48|288:280|152:248,15,480
120,160,114323,1,0
232,168,115050,1,0
272,168,115171,1,0
216,240,115535,1,0
144,208,115899,1,0
160,160,116262,1,0
288,152,116868,5,14
80,160,119316,5,14
128,192,122833,5,0
208,208,123318,1,0
240,208,123439,1,0
312,200,123924,1,0
312,200,124167,1,0
176,136,124773,5,0
248,128,125137,1,0
112,88,134476,5,0
208,88,134840,1,0
288,88,135083,1,0
328,88,135326,1,0
328,88,135569,1,0
128,208,135934,5,0
200,208,136420,1,0
240,208,136662,1,0
288,208,136784,1,0
128,280,137391,5,0
136,224,137877,1,0
136,128,138242,1,0
136,128,138363,1,0
368,280,139213,5,0
352,184,139578,1,0
344,72,139821,1,0
152,288,140428,5,0
144,184,140792,1,0
152,128,141157,1,0
224,144,141521,1,0
280,200,141886,1,0
144,224,142493,1,0
240,272,143222,5,0
240,232,143829,1,0
144,224,144315,1,0
224,176,144801,1,0
264,168,145044,1,0
296,240,145287,1,0
208,144,145530,1,0
176,240,146391,5,0
240,240,147005,1,0
128,288,147866,5,0
128,224,148234,1,0
168,224,148603,1,0
168,224,148849,1,0
32,192,151676,6,0,B|456:200|160:8|328:256,2,373.333333333333
120,160,154381,2,0,B|272:72|272:72|288:48|256:40|248:64|280:112|304:128|408:176,1,373.333333333333
80,120,157626,1,0
208,136,158544,1,0
264,144,158912,1,0
296,192,159279,1,0
328,144,159646,1,0
344,208,159830,1,0
384,176,160197,1,0
448,32,161666,5,0
120,40,162217,1,0
328,88,162585,1,0
248,112,163136,1,0
240,152,163319,1,0
200,136,163687,1,0
192,192,163870,1,0
152,160,164238,1,0
160,224,164421,1,0
112,240,164972,1,0
80,184,165339,1,0
80,256,165523,1,0
88,80,166441,5,0
224,128,168094,5,0
176,176,168829,1,0
160,128,169196,1,0
160,208,169380,1,0
160,128,169564,1,0
112,144,170114,1,0
88,248,170298,1,0
72,160,170665,1,0
88,248,170849,1,0
40,176,171134,1,0
128,8,171906,5,0
192,48,172293,1,0
272,72,172679,1,0
176,104,172872,1,0
272,128,173065,1,0
152,152,173258,1,0
272,176,173452,1,0
192,128,174224,5,0
272,128,174610,1,0
200,224,174997,5,0
112,152,175383,1,0
216,120,175963,1,0
440,144,176156,1,0
368,216,176735,5,0
216,200,177121,1,0
184,152,177894,1,0
208,96,178763,5,0
208,96,179342,1,0
280,96,179922,1,0
192,208,181081,1,0
264,208,181854,1,0
320,208,182337,1,0
384,200,182917,1,0
112,96,184414,5,0
296,88,186215,1,0
104,184,187641,5,0
144,144,187993,1,0
184,152,188369,1,0
184,200,188495,1,0
240,184,189122,1,0
248,144,189498,1,0
288,144,190000,1,0
352,224,190501,1,0
328,272,190627,1,0
216,256,190877,1,0
256,192,193009,12,0,193511
