osu file format v7

[General]
AudioFilename: annie_get_your_gun_(bernadette_peters)_-_anything_you_can_do,_i_can_do_better.mp3
AudioLeadIn: 0
PreviewTime: -1
Countdown: 1
SampleSet: Soft
StackLeniency: 0.7
Mode: 0
LetterboxInBreaks: 1

[Editor]
DistanceSpacing: 0
BeatDivisor: 6
GridSize: 32

[Metadata]
Title:Anything You Can Do I Can Do Better
Artist:Annie Get Your Gun
Creator:loser101
Version:Bazooka
Source:
Tags:

[Difficulty]
HPDrainRate:6
CircleSize:5
OverallDifficulty:6
SliderMultiplier:0.999999999999998
SliderTickRate:4

[Events]
//Background and Video events
0,0,"images.jpg"
//Break Periods
2,54200,61257
2,117083,126333
//Storyboard Layer 0 (Background)
//Storyboard Layer 1 (Fail)
//Storyboard Layer 2 (Pass)
//Storyboard Layer 3 (Foreground)
//Storyboard Sound Samples
//Background Colour Transformations
3,100,0,64,128

[TimingPoints]
0,461.538461538462,4,2,0,100,1,0
96807,461.538461538462,4,1,0,100,1,0

[Colours]
Combo1 : 0,0,64
Combo2 : 5,240,5
Combo3 : 5,5,240
Combo4 : 240,5,5
Combo5 : 0,64,128

[HitObjects]
96,256,14653,1,0
160,256,15346,1,0
96,160,16153,5,0
96,160,16615,1,0
192,192,16961,1,0
128,288,17653,5,0
192,288,18115,1,0
224,288,18346,1,0
288,256,18807,1,0
224,192,19269,1,0
224,224,19500,1,0
160,224,19615,1,0
128,288,20192,5,0
224,288,20538,1,0
288,256,21346,1,0
160,224,22153,5,0
160,288,22846,1,0
256,288,23538,5,0
192,192,23884,1,0
160,192,24230,1,0
128,256,24461,1,0
128,256,24692,1,0
192,256,25038,1,0
256,256,25846,1,0
320,224,25961,1,0
160,160,26423,5,0
160,192,26884,1,0
160,192,27230,1,0
192,224,27807,1,0
224,224,28269,1,0
224,224,28730,1,0
256,256,29307,5,0
192,256,29769,1,0
160,224,30115,1,0
256,192,30692,1,0
320,256,31153,1,0
256,256,31615,1,0
256,256,31730,1,0
96,256,32307,5,0
128,320,32653,1,0
192,320,33000,1,0
224,320,33461,1,0
256,256,33807,1,0
288,224,34269,1,0
160,224,35192,5,0
192,224,35423,1,0
192,224,35538,1,0
224,224,35769,1,0
224,224,35884,1,0
256,128,36807,5,0
256,128,37038,1,0
192,160,37384,1,0
224,256,37846,1,0
160,128,38653,5,0
192,160,39000,1,0
224,160,39461,1,0
320,160,39807,1,0
288,192,40153,1,0
256,192,40730,5,0
192,128,41076,1,0
192,224,41884,1,0
288,192,42692,1,0
224,96,43500,1,0
96,224,43846,5,0
224,192,44307,1,0
320,160,44653,1,0
224,96,45346,5,0
160,160,45692,1,0
224,192,46153,1,0
288,192,46500,1,0
320,160,46961,1,0
224,128,47769,5,0
192,192,48230,1,0
256,192,49153,1,0
320,160,49615,1,0
320,160,49730,1,0
384,160,50076,1,0
192,128,50423,1,0
160,160,50884,1,0
256,160,52153,5,0
288,192,52730,1,0
256,224,53076,1,0
192,224,53423,1,0
64,160,54000,1,0
128,256,62307,5,0
128,256,62538,1,0
224,256,63115,1,0
224,192,63692,1,0
128,192,64500,5,0
256,288,65192,1,0
192,224,65538,1,0
192,224,65884,1,0
224,192,66346,1,0
160,192,66692,1,0
160,256,67038,1,0
192,256,67384,1,0
256,224,67846,1,0
192,160,68192,5,0
160,160,68653,1,0
160,192,68769,1,0
192,192,69115,1,0
192,192,69346,1,0
256,192,69807,5,0
224,160,70038,1,0
128,192,70153,1,0
160,224,70269,1,0
320,224,70846,1,0
320,224,71192,1,0
320,224,71423,1,0
256,128,71769,5,0
224,160,72230,1,0
192,192,72576,1,0
192,192,73269,5,0
192,192,73615,1,0
192,192,74076,1,0
192,192,74307,1,0
288,256,75115,5,0
288,256,75576,1,0
288,256,75692,1,0
160,256,76153,5,0
160,256,76615,1,0
160,256,76730,1,0
160,256,77076,1,0
160,256,77192,1,0
256,288,77653,5,0
320,288,78115,1,0
320,288,78461,1,0
320,224,78807,1,0
256,192,79153,1,0
256,192,79384,1,0
256,224,79730,1,0
96,256,80538,1,0
160,256,81000,1,0
256,0,84923,6,0,B|96:96|0:192|0:192|0:384|0:384|0:224|0:224|416:224|416:224|416:384|416:384|416:128|416:128|416:96|224:32,1,1700
96,288,94384,5,0
160,256,94846,1,0
256,192,96922,12,0,112268
64,224,115037,5,0
64,256,115153,1,0
128,256,115614,1,0
224,256,115960,1,0
288,224,116307,1,0
288,160,116883,5,0
96,288,127383,5,0
160,288,128076,1,0
96,192,128537,5,0
160,192,129114,1,0
128,256,129807,5,0
192,256,130153,1,0
192,256,130383,1,0
96,192,130845,1,0
160,192,130960,1,0
192,224,131076,1,0
224,256,131537,5,0
192,256,131768,5,0
256,224,131999,1,0
256,192,132114,5,0
224,160,132345,5,0
96,160,132576,5,0
128,128,132807,5,0
192,192,133383,5,0
224,192,133614,5,0
192,288,134537,5,0
224,256,135114,1,0
256,256,135345,1,0
192,224,135807,5,0
160,224,136383,1,0
128,288,136614,1,0
128,256,136845,1,0
256,192,137422,5,0
256,256,138114,1,0
128,224,139153,5,0
160,224,139614,1,0
160,224,139730,1,0
320,224,140307,5,0
256,256,140653,1,0
224,256,140999,1,0
192,256,141460,1,0
160,256,141807,1,0
160,288,142037,1,0
160,288,142499,1,0
192,192,143307,5,0
192,192,143537,1,0
192,192,143768,1,0
224,288,144807,5,0
192,288,145037,1,0
192,256,145153,1,0
192,256,145499,1,0
96,288,146422,5,0
160,288,146768,1,0
192,288,147114,1,0
256,256,147460,1,0
256,256,147576,1,0
192,224,148037,5,0
160,224,148383,1,0
128,256,148730,1,0
256,288,149307,5,0
288,288,149653,1,0
320,256,149999,1,0
320,224,150345,1,0
224,224,150807,1,0
224,224,151153,1,0
192,224,151383,1,0
192,224,151499,1,0
