osu file format v14

[General]
AudioFilename: GangstaED.mp3
AudioLeadIn: 0
PreviewTime: -1
Countdown: 1
SampleSet: Normal
StackLeniency: 0.7
Mode: 0
LetterboxInBreaks: 1
WidescreenStoryboard: 0

[Editor]
DistanceSpacing: 1
BeatDivisor: 4
GridSize: 4
TimelineZoom: 1

[Metadata]
Title:Yoru No Kuni
TitleUnicode:Yoru No Kuni
Artist:Annabel
ArtistUnicode:Annabel
Creator:SoGa
Version::D
Source:GANGSTA.
Tags:
BeatmapID:739105
BeatmapSetID:334035

[Difficulty]
HPDrainRate:5
CircleSize:4
OverallDifficulty:5
ApproachRate:8
SliderMultiplier:1.6
SliderTickRate:1

[Events]
//Background and Video events
Video,83,"VideoED.flv"
//Break Periods
//Storyboard Layer 0 (Background)
//Storyboard Layer 1 (Fail)
//Storyboard Layer 2 (Pass)
//Storyboard Layer 3 (Foreground)
//Storyboard Sound Samples

[TimingPoints]
1821,666.666666666667,4,1,0,100,1,0

[HitObjects]
288,180,1821,6,0,L|281:100,1,80
216,288,2487,1,0,0:0:0:0:
348,236,2821,1,0,0:0:0:0:
212,208,2987,1,0,0:0:0:0:
348,236,3154,2,0,P|355:274|349:314,1,80
144,256,3821,1,0,0:0:0:0:
144,256,3987,2,0,P|132:217|135:178,1,80
204,56,4487,6,0,B|172:52|116:72,1,80
276,180,5154,2,0,B|308:184|364:164,1,80
188,156,5654,1,0,0:0:0:0:
188,156,5821,2,0,P|188:196|204:236,1,80
88,320,6487,1,0,0:0:0:0:
216,344,6654,2,0,P|240:340|300:344,1,80
376,168,7154,6,0,B|356:188|356:188|332:224|368:280,1,120
484,180,7821,2,0,L|528:172,2,26.6666666666667
400,256,8154,2,0,L|426:253,2,26.6666666666667
264,232,8487,2,0,B|276:212|276:200|276:200|276:144,1,80
220,68,8987,1,0,0:0:0:0:
176,240,9154,2,0,P|198:294|250:320,1,120
200,156,9821,6,0,P|141:161|100:204,1,120
36,352,10487,2,0,L|36:308,1,40
52,84,10987,1,0,0:0:0:0:
132,184,11154,2,0,L|128:228,1,40
68,64,11654,5,0,0:0:0:0:
156,208,11821,2,0,L|152:252,1,40
228,340,12154,1,0,0:0:0:0:
329,254,12321,1,0,0:0:0:0:
416,268,12487,6,0,B|364:288|316:264|316:264|344:244,1,120
492,232,13154,2,0,P|500:270|489:308,1,80
424,192,13654,1,0,0:0:0:0:
424,192,13821,2,0,P|412:154|421:115,1,80
208,52,14487,1,0,0:0:0:0:
116,192,14821,2,0,P|136:190|156:196,1,40
88,328,15154,6,0,P|76:272|96:212,1,120
160,112,15821,2,0,L|164:200,1,80
252,80,16321,1,0,0:0:0:0:
252,80,16488,2,0,L|248:172,1,80
304,332,17154,1,0,0:0:0:0:
396,180,17487,2,0,L|356:184,1,40
424,312,17820,6,0,P|444:248|424:196,1,120
368,108,18487,1,0,0:0:0:0:
180,172,18821,1,0,0:0:0:0:
216,256,18987,1,0,0:0:0:0:
276,188,19154,2,0,P|288:128|268:72,1,120
180,48,19821,2,0,P|100:64|60:51,1,120
252,116,20487,6,0,P|271:114|291:117,1,40
156,156,20821,2,0,P|132:176|124:200,1,40
64,260,21154,2,0,P|80:188|56:136,1,120
0,312,21821,2,0,P|12:328|32:336,1,40
144,252,22154,2,0,P|164:240|184:240,1,40
296,323,22487,2,0,P|239:341|182:324,1,120
240,216,23154,6,0,L|263:139,1,80
368,232,23821,2,0,L|391:309,1,80
440,144,24487,1,0,0:0:0:0:
472,296,24821,2,0,P|477:315|471:334,1,40
390,308,25154,2,0,P|348:316|264:304,1,120
192,352,25821,6,0,P|176:348|108:356,1,80
28,284,26321,1,0,0:0:0:0:
24,248,26487,2,0,L|120:268,1,80
200,216,26987,1,0,0:0:0:0:
200,216,27154,2,0,P|216:176|216:128,1,80
180,12,27821,1,0,0:0:0:0:
92,144,28154,1,0,0:0:0:0:
264,272,28487,6,0,P|289:217|296:158,1,120
388,92,29154,2,0,P|388:132|404:172,1,80
464,224,29654,1,0,0:0:0:0:
464,224,29821,2,0,B|428:212|428:212|328:216,1,120
284,276,30487,2,0,P|287:236|279:197,1,80
236,124,30987,1,0,0:0:0:0:
236,124,31154,6,0,B|204:120|204:120|164:140|118:122,1,120
160,48,31821,2,0,P|196:96|184:176,1,120
88,244,32487,2,0,L|84:292,1,40
208,320,32821,1,0,0:0:0:0:
84,283,32987,1,0,0:0:0:0:
208,320,33154,2,0,L|308:340,1,80
340,220,33654,1,0,0:0:0:0:
392,312,33821,6,0,P|432:276|440:200,1,120
