osu file format v10

[General]
AudioFilename: OP.mp3
AudioLeadIn: 0
PreviewTime: 55153
Countdown: 0
SampleSet: Soft
StackLeniency: 0.7
Mode: 0
LetterboxInBreaks: 0

[Editor]
DistanceSpacing: 0.5
BeatDivisor: 4
GridSize: 4

[Metadata]
Title:Signal Graph (TV Size)
TitleUnicode:Signal Graph (TV Size)
Artist:Annabel
ArtistUnicode:Annabel
Creator:Silver Crow
Version:Saya
Source:Koi to Senkyo to Chocolate
Tags:love election sprite opening l1106188 ISHIDAMITSUNARI Saya-Honmei boss bossandy
BeatmapID:170350
BeatmapSetID:54345

[Difficulty]
HPDrainRate:6
CircleSize:4
OverallDifficulty:7
ApproachRate:8
SliderMultiplier:1.8
SliderTickRate:1

[Events]
//Background and Video events
0,0,"BackGround.jpg"
//Break Periods
//Storyboard Layer 0 (Background)
//Storyboard Layer 1 (Fail)
//Storyboard Layer 2 (Pass)
//Storyboard Layer 3 (Foreground)
//Storyboard Sound Samples
//Background Colour Transformations
3,100,0,0,0

[TimingPoints]
1082,359.281437125748,4,2,1,10,1,0
6830,-100,4,2,1,55,0,0
14375,-200,4,2,1,55,0,0
15093,-100,4,2,1,20,0,0
15453,-100,4,2,0,30,0,0
15812,-100,4,2,1,30,0,0
27129,-100,4,2,1,40,0,0
54255,-100,4,2,1,45,0,0
54614,-100,4,2,1,50,0,0
55513,-100,4,2,1,60,0,1
84435,-100,4,2,1,60,0,0
84794,-100,4,2,0,50,0,1
86590,-100,4,2,0,70,0,0

[Colours]
Combo1 : 128,64,0
Combo2 : 255,0,128
Combo3 : 192,192,192

[HitObjects]
256,192,5034,12,0,6471,0:0:0
160,228,6830,5,2,0:0:0
128,140,7010,1,0,0:0:0
128,140,7099,1,0,0:0:0
128,140,7189,2,0,B|88:164|72:212,1,90,10|0,0:0|0:0,0:0:0
96,292,7549,1,2,0:0:0
184,316,7728,1,0,0:0:0
184,316,7818,1,0,0:0:0
184,316,7908,2,0,B|276:316,1,90,10|0,0:0|0:0,0:0:0
348,152,8267,5,2,0:0:0
420,208,8447,1,0,0:0:0
420,208,8537,1,0,0:0:0
420,208,8626,1,10,0:0:0
432,120,8806,1,0,0:0:0
360,64,8986,2,0,B|260:64,1,90,2|0,0:0|0:0,0:0:0
114,124,9345,2,0,B|204:124,1,90,10|0,0:0|0:0,0:0:0
256,296,9704,5,2,0:0:0
300,216,9884,1,0,0:0:0
300,216,9974,1,0,0:0:0
300,216,10064,2,0,B|340:240|352:288,2,90,10|0|2,0:0|0:0|0:0,0:0:0
212,216,10602,2,0,B|116:216,2,90,0|10|0,0:0|0:0|0:0,0:0:0
256,344,11141,5,2,0:0:0
44,196,11501,1,10,0:0:0
256,40,11860,1,2,0:0:0
468,196,12219,1,10,0:0:0
408,128,12399,1,0,0:0:0
364,208,12579,6,0,B|288:128|364:48,1,180,2|0,0:0|0:0,0:0:0
408,128,13117,2,0,B|483:207|407:287,1,180,2|0,0:0|0:0,0:0:0
320,284,13656,1,0,0:0:0
320,284,13746,1,0,0:0:0
320,284,13836,1,2,0:0:0
256,40,14375,6,0,B|256:224,1,180
256,220,15453,1,8,0:0:0
111,327,15812,6,0,B|72:240|112:152,1,180,2|2,0:0|0:0,0:0:0
192,112,16351,2,0,B|160:72|118:61,1,90,0|2,0:0|0:0,0:0:0
276,148,16710,2,0,B|456:148,2,180
204,200,17608,1,2,0:0:0
220,288,17788,1,0,0:0:0
292,236,17968,1,2,0:0:0
304,256,18058,1,0,0:0:0
320,272,18147,1,0,0:0:0
336,288,18237,1,0,0:0:0
356,300,18327,6,0,B|432:320|488:284|504:228,1,180,2|2,0:0|0:0,0:0:0
468,148,18866,2,0,B|436:112|384:104,2,90,0|2|0,0:0|0:0|0:0,0:0:0
416,224,19405,1,2,0:0:0
416,224,19495,1,0,0:0:0
416,224,19584,1,0,0:0:0
308,80,19764,5,2,0:0:0
240,140,19944,2,0,B|196:124|181:76,1,90,0|2,0:0|0:0,0:0:0
324,172,20303,2,0,B|332:218|295:257,1,90,0|2,0:0|0:0,0:0:0
308,80,20662,2,0,B|343:49|392:61,1,90,0|2,0:0|0:0,0:0:0
212,228,21022,5,0,0:0:0
212,228,21111,1,0,0:0:0
212,227,21201,2,0,B|116:220|77:324,1,180,2|2,0:0|0:0,0:0:0
252,308,21740,1,0,0:0:0
252,308,21920,2,0,B|292:332|338:308,1,90,2|0,0:0|0:0,0:0:0
376,228,22279,1,2,0:0:0
376,228,22369,1,0,0:0:0
376,228,22459,1,0,0:0:0
408,144,22638,5,2,0:0:0
468,212,22818,1,0,0:0:0
496,128,22998,1,2,0:0:0
440,60,23177,1,0,0:0:0
408,144,23357,2,0,B|312:144,1,90,2|0,0:0|0:0,0:0:0
256,76,23716,1,2,0:0:0
184,240,24076,6,0,B|148:272|140:324,1,90,2|0,0:0|0:0,0:0:0
232,320,24435,1,2,0:0:0
272,240,24614,2,0,B|268:192|228:160,1,90,0|2,0:0|0:0,0:0:0
140,160,24974,1,0,0:0:0
52,160,25153,2,0,B|4:160,2,45,2|0|0,0:0|0:0|0:0,0:0:0
96,80,25513,5,2,0:0:0
96,80,25692,1,0,0:0:0
196,140,25872,1,2,0:0:0
196,140,26052,1,0,0:0:0
256,40,26231,1,2,0:0:0
256,40,26411,1,0,0:0:0
352,104,26590,1,2,0:0:0
352,104,26770,1,2,0:0:0
352,104,26950,6,0,B|404:104|440:144,2,90,6|0|2,0:0|0:0|0:0,0:0:0
303,266,27489,2,0,B|312:224|356:196,1,90,0|2,0:0|0:0,0:0:0
440,224,27848,1,0,0:0:0
256,344,28028,2,0,B|220:316|212:267,1,90,10|0,0:0|0:0,0:0:0
256,188,28387,5,2,0:0:0
200,120,28567,1,0,0:0:0
120,160,28746,1,2,0:0:0
120,160,28836,1,0,0:0:0
120,160,28926,2,0,B|88:196|88:244,1,90,0|2,0:0|0:0,0:0:0
256,48,29285,1,0,0:0:0
392,224,29465,2,0,B|424:188|424:140,1,90,10|0,0:0|0:0,0:0:0
340,296,29824,6,0,B|256:348|168:296,1,180,2|2,0:0|0:0,0:0:0
136,212,30363,2,0,B|92:232|80:284,2,90,0|2|0,0:0|0:0|0:0,0:0:0
316,200,30902,1,10,0:0:0
316,200,31081,2,0,B|304:152|260:124,1,90,0|2,0:0|0:0,0:0:0
125,59,31441,2,0,B|137:107|176:132,1,90,0|2,0:0|0:0,0:0:0
220,52,31800,1,0,0:0:0
336,44,31980,1,2,0:0:0
400,140,32159,1,0,0:0:0
400,140,32249,1,0,0:0:0
400,140,32339,1,10,0:0:0
160,328,32698,6,0,B|112:312|92:256,2,90,2|0|2,0:0|0:0|0:0,0:0:0
180,240,33237,1,0,0:0:0
179,239,33417,2,0,B|264:192|352:240,1,180,2|10,0:0|0:0,0:0:0
420,180,33956,2,0,B|464:200|482:241,1,90,0|2,0:0|0:0,0:0:0
336,144,34315,2,0,B|292:124|272:80,1,90,0|2,0:0|0:0,0:0:0
360,56,34674,1,0,0:0:0
360,56,34764,1,0,0:0:0
360,56,34854,2,0,B|464:56,1,90,2|0,0:0|0:0,0:0:0
208,144,35213,2,0,B|120:144,1,90,10|0,0:0|0:0,0:0:0
64,216,35573,5,6,0:0:0
116,320,35752,1,0,0:0:0
116,320,35842,1,0,0:0:0
116,320,35932,1,2,0:0:0
196,236,36111,1,0,0:0:0
264,332,36291,1,2,0:0:0
324,232,36471,1,0,0:0:0
324,232,36561,1,0,0:0:0
324,232,36650,2,0,B|372:240|404:288,2,90,10|0|2,0:0|0:0|0:0,0:0:0
256,136,37189,5,0,0:0:0
256,136,37369,2,0,B|152:136,1,90,2|0,0:0|0:0,0:0:0
18,236,37728,2,0,B|108:236,1,90,2|0,0:0|0:0,0:0:0
184,324,38087,1,10,0:0:0
200,308,38177,1,0,0:0:0
220,300,38267,1,2,0:0:0
240,308,38357,1,0,0:0:0
256,324,38447,6,0,B|316:324|380:280|392:208,1,180,6|2,0:0|0:0,0:0:0
246,143,38986,2,0,B|288:160|300:212,1,90,4|2,0:0|0:0,0:0:0
212,224,39345,1,0,0:0:0
160,152,39525,1,10,0:0:0
196,68,39704,2,0,B|296:68,1,90,0|2,0:0|0:0,0:0:0
320,300,40064,5,0,0:0:0
372,228,40244,1,2,0:0:0
336,144,40423,2,0,B|236:144,1,90,0|2,0:0|0:0,0:0:0
122,224,40782,1,0,0:0:0
122,224,40872,1,0,0:0:0
122,224,40962,2,0,B|212:224,1,90,10|0,0:0|0:0,0:0:0
252,356,41321,6,0,B|300:348|320:300,2,90,6|0|2,0:0|0:0|0:0,0:0:0
372,228,41860,2,0,B|416:248|428:296,1,90,4|2,0:0|0:0,0:0:0
312,164,42219,1,0,0:0:0
256,92,42399,1,10,0:0:0
312,20,42579,2,0,B|364:20,2,45,0|0|2,0:0|0:0|0:0,0:0:0
204,164,42938,5,0,0:0:0
152,236,43117,1,2,0:0:0
100,164,43297,1,0,0:0:0
44,236,43477,1,2,0:0:0
96,308,43656,1,2,0:0:0
112,320,43746,1,0,0:0:0
132,332,43836,1,10,0:0:0
156,336,43926,1,0,0:0:0
180,336,44016,1,2,0:0:0
200,332,44105,1,0,0:0:0
220,320,44195,6,0,B|288:256|400:268,1,180,6|2,0:0|0:0,0:0:0
458,119,44734,2,0,B|440:160|392:176,1,90,4|2,0:0|0:0,0:0:0
344,48,45093,1,0,0:0:0
280,168,45273,1,10,0:0:0
196,64,45453,1,0,0:0:0
196,64,45543,1,0,0:0:0
196,64,45632,1,2,0:0:0
80,136,45812,5,0,0:0:0
168,240,45992,1,2,0:0:0
280,168,46171,1,0,0:0:0
280,168,46261,1,0,0:0:0
280,168,46351,1,2,0:0:0
352,284,46531,1,0,0:0:0
240,356,46710,1,10,0:0:0
168,240,46890,1,0,0:0:0
168,240,46980,1,0,0:0:0
168,240,47070,6,0,B|124:228|78:239,2,90,2|0|2,0:0|0:0|0:0,0:0:0
240,356,47608,1,0,0:0:0
240,356,47788,2,0,B|304:316|320:240|304:184,1,180,2|8,0:0|0:0,0:0:0
184,78,48327,2,0,B|196:124|228:156,1,90,0|2,0:0|0:0,0:0:0
304,108,48686,5,0,0:0:0
324,104,48776,1,0,0:0:0
348,100,48866,2,0,B|440:124|452:244,1,180,2|2,0:0|0:0,0:0:0
296,260,49405,2,0,B|320:212|364:204,1,90,0|8,0:0|0:0,0:0:0
384,292,49764,1,0,0:0:0
312,348,49944,6,0,B|128:348,1,180,2|10,0:0|0:0,0:0:0
200,36,50662,2,0,B|384:36,1,180,2|10,0:0|0:0,0:0:0
196,192,51381,6,0,B|100:192,2,90,2|0|10,0:0|0:0|0:0,0:0:0
256,260,51920,1,0,0:0:0
316,192,52099,2,0,B|408:192,2,90,2|0|10,0:0|0:0|0:0,0:0:0
256,260,52638,1,0,0:0:0
188,320,52818,6,0,B|140:308|112:256,1,90,6|0,0:0|0:0,0:0:0
58,122,53177,2,0,B|106:134|128:176,1,90,2|0,0:0|0:0,0:0:0
200,228,53537,2,0,B|212:180|264:152,1,90,6|0,0:0|0:0,0:0:0
397,98,53896,2,0,B|385:146|343:167,1,90,10|0,0:0|0:0,0:0:0
308,84,54255,5,6,0:0:0
192,64,54435,1,0,0:0:0
104,140,54614,2,0,B|72:176|80:228,1,90,6|0,0:0|0:0,0:0:0
200,228,54974,1,2,0:0:0
204,252,55064,1,0,0:0:0
212,272,55153,1,2,0:0:0
224,292,55243,1,0,0:0:0
236,308,55333,1,2,0:0:0
252,324,55423,1,0,0:0:0
272,336,55513,6,0,B|308:368|364:372,1,90,4|0,0:0|0:0,0:0:0
288,204,55872,1,0,0:0:0
228,136,56052,1,8,0:0:0
228,136,56141,1,0,0:0:0
228,136,56231,2,0,B|180:128|140:160,1,90,0|0,0:0|0:0,0:0:0
44,316,56590,1,0,0:0:0
128,280,56770,1,8,0:0:0
128,280,56860,1,0,0:0:0
128,280,56950,2,0,B|180:268|200:228,1,90
292,76,57309,5,0,0:0:0
376,156,57489,1,8,0:0:0
376,156,57579,1,0,0:0:0
376,156,57668,2,0,B|416:180|432:236,1,90
344,308,58028,1,0,0:0:0
260,228,58207,1,8,0:0:0
160,288,58387,6,0,B|124:256|116:208,1,90
28,55,58746,1,0,0:0:0
28,55,58926,2,0,B|64:87|72:132,1,90,8|0,0:0|0:0,0:0:0
164,136,59285,1,0,0:0:0
236,84,59465,1,0,0:0:0
300,148,59644,1,8,0:0:0
324,60,59824,2,0,B|328:32|360:24,2,45
388,124,60183,2,0,B|428:148|436:200,2,90,0|8|0,0:0|0:0|0:0,0:0:0
228,200,60722,5,0,0:0:0
148,240,60902,1,0,0:0:0
224,292,61081,1,8,0:0:0
304,248,61261,2,0,B|404:248,2,90
144,332,61800,1,8,0:0:0
144,332,61980,2,0,B|48:304|72:184,1,180
120,112,62519,1,8,0:0:0
120,112,62698,6,0,B|144:64|188:56,2,90
164,192,63237,1,10,0:0:0
232,132,63417,2,0,B|272:160|288:212,1,90
276,338,63776,2,0,B|236:310|224:268,1,90,0|10,0:0|0:0,0:0:0
288,44,64135,1,0,0:0:0
288,44,64315,6,0,B|380:72|440:180,1,180,0|10,0:0|0:0,0:0:0
323,278,64854,2,0,B|320:232|344:192,1,90
452,240,65213,2,0,B|455:286|431:326,1,90,0|10,0:0|0:0,0:0:0
256,340,65573,5,8,0:0:0
256,340,65752,1,0,0:0:0
148,296,65932,1,8,0:0:0
148,296,66111,1,0,0:0:0
100,188,66291,1,8,0:0:0
100,188,66471,1,0,0:0:0
228,60,66650,5,0,0:0:0
296,116,66830,1,0,0:0:0
380,84,67010,2,0,B|412:68|440:96|472:84,1,90,4|0,0:0|0:0,0:0:0
284,324,67369,1,0,0:0:0
216,268,67549,1,8,0:0:0
132,300,67729,2,0,B|100:316|72:288|40:300,1,90
228,60,68087,5,0,0:0:0
172,132,68267,1,8,0:0:0
140,48,68447,2,0,B|92:64|84:120,1,90,0|2,0:0|0:0,0:0:0
300,320,68806,1,0,0:0:0
356,248,68986,1,8,0:0:0
388,332,69166,2,0,B|436:316|444:260,1,90
268,232,69525,6,0,B|220:248|213:297,1,90,0|8,0:0|0:0,0:0:0
356,248,69884,2,0,B|360:196|324:160,1,90,0|2,0:0|0:0,0:0:0
240,144,70243,2,0,B|150:144,1,90,0|8,0:0|0:0,0:0:0
28,200,70602,1,0,0:0:0
28,200,70692,1,0,0:0:0
28,200,70782,2,0,B|8:144|44:64|104:56,1,180,4|8,0:0|0:0,0:0:0
192,56,71321,2,0,B|280:56,1,90,0|2,0:0|0:0,0:0:0
340,124,71680,5,0,0:0:0
408,180,71860,1,8,0:0:0
420,268,72040,1,0,0:0:0
144,196,72399,1,0,0:0:0
256,192,72758,12,2,74375,0:0:0
404,152,74734,5,8,0:0:0
388,240,74914,1,0,0:0:0
404,152,75093,1,2,0:0:0
456,276,75273,1,0,0:0:0
404,152,75453,1,8,0:0:0
284,88,75632,1,0,0:0:0
284,88,75722,1,0,0:0:0
284,88,75812,6,0,B|220:92|188:168|116:164,1,180,4|8,0:0|0:0,0:0:0
48,212,76351,2,0,B|32:272|72:340|136:344,1,180,4|0,0:0|0:0,0:0:0
188,276,76890,1,8,0:0:0
292,324,77070,5,0,0:0:0
388,260,77249,1,2,0:0:0
388,260,77339,1,0,0:0:0
388,260,77429,1,0,0:0:0
284,208,77608,1,8,0:0:0
180,156,77788,1,0,0:0:0
280,92,77968,1,2,0:0:0
280,92,78058,1,0,0:0:0
280,92,78147,1,0,0:0:0
384,144,78327,5,10,0:0:0
384,144,78417,1,0,0:0:0
384,144,78507,1,2,0:0:0
384,144,78596,1,0,0:0:0
384,144,78686,2,0,B|472:188|484:300,1,180,6|8,0:0|0:0,0:0:0
388,352,79225,1,0,0:0:0
320,256,79405,1,2,0:0:0
220,316,79584,1,2,0:0:0
200,304,79674,1,0,0:0:0
184,288,79764,1,10,0:0:0
176,268,79854,1,0,0:0:0
176,244,79944,6,0,B|172:196|200:160,1,90,4|0,0:0|0:0,0:0:0
328,28,80303,2,4,B|364:60|368:116,1,90
216,72,80662,1,0,0:0:0
216,72,80842,2,0,B|176:44|120:48,2,90
268,244,81381,1,0,0:0:0
268,244,81561,6,0,B|336:248|388:172|360:100,1,180,4|8,0:0|0:0,0:0:0
380,32,82099,2,0,B|428:36|456:92,2,90,4|0|0,0:0|0:0|0:0,0:0:0
296,68,82638,1,8,0:0:0
296,68,82818,2,0,B|206:68,1,90,4|0,0:0|0:0,0:0:0
92,140,83177,1,0,0:0:0
152,204,83357,1,8,0:0:0
152,204,83537,2,0,B|242:204,1,90,4|0,0:0|0:0,0:0:0
356,276,83896,1,0,0:0:0
296,340,84076,1,8,0:0:0
296,340,84256,2,0,B|208:340,1,90,2|4,0:0|0:0,0:0:0
92,140,84794,5,2,0:0:0
156,76,84974,1,0,0:0:0
156,76,85153,2,0,B|196:56|244:64,1,90,2|0,0:0|0:0,0:0:0
324,108,85513,1,2,0:0:0
344,120,85602,1,0,0:0:0
360,136,85692,1,0,0:0:0
372,156,85782,1,0,0:0:0
380,176,85872,1,2,0:0:0
384,200,85962,1,0,0:0:0
388,224,86052,1,0,0:0:0
388,248,86141,1,0,0:0:0
388,272,86231,2,0,B|388:320,4,45,2|0|0|0|2,0:0|0:0|0:0|0:0|0:0,0:0:0
