osu file format v9

[General]
AudioFilename: OP.mp3
AudioLeadIn: 0
PreviewTime: 55153
Countdown: 0
SampleSet: Soft
StackLeniency: 0.7
Mode: 0
LetterboxInBreaks: 0

[Editor]
DistanceSpacing: 0.8
BeatDivisor: 2
GridSize: 4

[Metadata]
Title:Signal Graph (TV Size)
Artist:Annabel
Creator:Silver Crow
Version:Easy
Source:Koi to Senkyo to Chocolate
Tags:love election sprite opening l1106188 ISHIDAMITSUNARI Saya-Honmei boss bossandy

[Difficulty]
HPDrainRate:3
CircleSize:3
OverallDifficulty:2
ApproachRate:2
SliderMultiplier:0.8
SliderTickRate:1

[Events]
//Background and Video events
0,0,"BackGround.jpg"
Video,0,"video.avi"
//Break Periods
2,24276,25749
//Storyboard Layer 0 (Background)
//Storyboard Layer 1 (Fail)
//Storyboard Layer 2 (Pass)
//Storyboard Layer 3 (Foreground)
//Storyboard Sound Samples
//Background Colour Transformations
3,100,0,0,0

[TimingPoints]
1082,359.281437125748,4,2,1,60,1,0
27309,-100,4,2,1,40,0,0
55513,-100,4,2,1,70,0,1
84435,-100,4,2,1,60,0,0

[Colours]
Combo1 : 128,64,0
Combo2 : 255,0,128
Combo3 : 192,192,192

[HitObjects]
256,196,6830,2,0,B|184:240|96:200,1,160,8|0
184,104,8267,2,0,B|264:64|348:116,1,160,8|0
396,80,9345,1,0
460,72,9704,2,0,B|476:160|416:224,1,160,8|0
324,308,11141,5,8
196,308,11860,1,0
96,228,12579,2,0,B|96:68,2,160,8|0|8
152,260,14375,1,0
412,192,15812,5,0
372,68,16531,1,0
256,124,17249,2,0,B|180:160|96:116,1,160,0|8
36,228,18686,5,0
104,336,19405,1,0
164,224,20123,2,0,B|236:284|324:220,1,160,0|8
404,140,21561,5,0
380,16,22279,1,0
256,40,22998,2,0,B|216:28|200:60|172:40|132:76|88:12,1,160,0|8
40,44,24076,1,0
84,196,27309,5,0
168,292,28028,1,8
292,316,28746,2,0,B|380:316,2,80,0|0|8
336,196,30183,5,0
464,192,30902,2,0,B|464:108|384:64,1,160,8|0
260,60,32339,1,8
212,104,32698,6,0,B|168:128|148:232|112:228,1,160
52,232,33776,1,8
148,316,34495,1,0
184,192,35213,1,8
276,360,36291,6,0,B|360:360,2,80,0|8|0
412,360,37728,2,0,B|448:340|460:296,2,80,0|8|4
412,232,39165,5,8
484,124,39884,1,0
408,20,40602,1,8
324,116,41321,2,0,B|280:88|196:144|160:100,1,160,0|8
72,192,42758,5,0
136,304,43477,2,0,B|212:260|200:160,2,160,8|0|8
256,352,45632,5,0
384,340,46351,1,8
468,244,47070,2,0,B|468:80,2,160,0|8|0
256,192,49225,12,0,51740
256,76,52459,6,0,B|172:72|132:168,1,160,8|0
64,268,53896,2,0,B|12:176|60:112,2,160,8|0|8
84,292,55513,5,4
192,292,56052,2,0,B|352:292,1,160,0|8
432,192,57489,2,0,B|264:192,1,160,0|8
144,196,58926,1,0
144,68,59644,2,0,B|56:60|24:160,1,160,8|0
32,284,61081,5,8
140,356,61800,2,0,B|192:280|144:200,1,160,0|8
272,180,63237,2,0,B|212:108|268:24,1,160,0|8
372,100,64674,1,0
460,192,65393,1,8
372,284,66111,1,0
256,340,66830,6,0,B|256:176,1,160,8|0
180,72,68267,2,0,B|256:48|340:76,2,160,8|0|8
136,192,70423,1,0
136,320,71141,1,8
252,268,71860,2,0,B|284:236|380:292|412:260,1,160,0|8
256,192,72938,12,0,74375
256,192,75093,5,0
128,192,75812,1,8
188,76,76531,2,0,B|348:76,2,160,0|8|0
128,192,78686,5,8
196,300,79405,2,0,B|256:332|316:300,1,120,0|4
256,152,80842,1,0
256,192,81561,12,4,84435
256,192,84614,12,0,86590
