osu file format v9

[General]
AudioFilename: Annabel - STEP AHEAD (Short Ver.).mp3
AudioLeadIn: 1500
PreviewTime: 54843
Countdown: 0
SampleSet: Normal
StackLeniency: 0.5
Mode: 0
LetterboxInBreaks: 1

[Editor]
Bookmarks: 522,14236,27950,41664,55379,69093,82807,96522
DistanceSpacing: 1
BeatDivisor: 4
GridSize: 4

[Metadata]
Title:STEP AHEAD (Short Ver.)
Artist:Annabel
Creator:ykcarrot
Version:Normal
Source:Koi to Senkyo to Chocolate Portable
Tags:Love Election PSP koichoco cRyo[iceeicee]

[Difficulty]
HPDrainRate:4
CircleSize:3
OverallDifficulty:4
ApproachRate:4
SliderMultiplier:1.2
SliderTickRate:2

[Events]
//Background and Video events
0,0,"koichoco psp BG.jpg"
Video,430,"koichoco psp video.avi"
//Break Periods
2,84722,89202
//Storyboard Layer 0 (Background)
//Storyboard Layer 1 (Fail)
//Storyboard Layer 2 (Pass)
//Storyboard Layer 3 (Foreground)
//Storyboard Sound Samples
//Background Colour Transformations
3,100,0,90,181

[TimingPoints]
522,428.571914893617,4,2,1,45,1,0
522,-125,4,2,1,45,0,0
1807,-125,4,2,2,45,0,0
1914,-125,4,2,1,45,0,0
2772,-125,4,2,1,5,0,0
2986,-125,4,2,1,45,0,0
3843,-125,4,2,2,40,0,0
4057,-125,4,2,1,45,0,0
5236,-125,4,2,2,45,0,0
5343,-125,4,2,1,45,0,0
6200,-125,4,2,1,5,0,0
6414,-125,4,2,1,45,0,0
7272,-125,4,2,2,40,0,0
7486,-125,4,2,1,45,0,0
8664,-125,4,2,2,45,0,0
8772,-125,4,2,1,45,0,0
9200,-125,4,2,1,5,0,0
9414,-125,4,2,1,45,0,0
10700,-125,4,2,2,40,0,0
10914,-125,4,2,1,45,0,0
12093,-125,4,2,1,35,0,0
12522,-125,4,2,1,60,0,0
13379,-125,4,2,1,70,0,0
14236,-100,4,2,1,70,0,0
26236,-100,4,2,1,60,0,0
27093,-100,4,2,1,70,0,0
41022,-100,4,2,2,60,0,0
41450,-100,4,2,1,70,0,0
46272,-100,4,2,2,50,0,0
46486,-100,4,2,1,70,0,0
52272,-100,4,2,2,70,0,0
52486,-100,4,2,1,70,0,0
53664,-100,4,2,1,55,0,0
53879,-100,4,2,1,60,0,0
54093,-100,4,2,1,65,0,0
54307,-100,4,1,1,60,0,0
55379,-100,4,2,1,80,0,1
68450,-100,4,2,1,80,0,0
68879,-100,4,2,1,80,0,1
82807,-100,4,2,1,50,0,0
89664,-100,4,2,1,70,0,0
94807,-100,4,2,1,50,0,0
96522,-100,4,1,1,45,0,0

[Colours]
Combo1 : 202,199,166
Combo2 : 0,176,176
Combo3 : 218,63,156
Combo4 : 253,165,100

[HitObjects]
400,288,522,1,0
496,284,950,2,0,B|528:240|496:196,2,96,2|2|2
400,288,2236,1,0
400,192,2664,2,0,B|300:192,1,96,2|2
256,192,3307,1,2
112,288,3950,5,4
16,284,4379,2,0,B|-16:240|16:196,2,96,2|2|2
112,288,5664,1,0
112,192,6093,2,0,B|212:192,1,96,2|2
256,192,6736,1,2
256,48,7379,5,4
208,132,7807,2,0,B|160:112|160:56,2,96,2|2|2
304,132,9093,2,0,B|352:112|352:56,1,96,0|2
256,48,9950,1,2
256,48,10164,1,2
256,192,10807,5,4
352,192,11236,2,0,B|408:192|432:236,2,96,2|2|0
300,272,12522,2,0,B|256:304|212:272,1,96,2|2
160,192,13379,2,0,B|104:192|80:236,1,96,2|2
20,340,14236,5,0
140,340,14664,1,10
80,236,15093,2,0,B|80:192|80:192|80:152|116:124,1,120,2|8
196,40,15950,1,0
316,40,16379,1,10
400,128,16807,2,0,B|460:128,2,60,2|2|8
316,216,17664,5,0
196,216,18093,1,10
200,336,18522,2,0,B|228:352|256:356|256:356|284:352|312:336,1,120,2|8
316,216,19379,1,0
256,112,19807,1,10
196,216,20236,2,0,B|128:216,2,60,2|2|8
256,320,21093,5,0
372,284,21522,2,0,B|408:268|408:224|408:224|440:192,2,120,10|2|8
256,320,22807,1,0
140,284,23236,2,0,B|104:268|104:224|104:224|72:192,1,120,10|2
28,148,23879,2,0,B|28:88,1,60,2|8
136,36,24522,5,0
256,36,24950,2,0,B|312:0|368:36,2,120,10|2|8
312,144,26236,2,0,B|348:200|312:256,1,120,2|10
208,200,27093,2,0,B|152:164|96:200,1,120,2|10
152,308,27950,6,0,B|172:348|220:348|220:348|256:348,1,120
376,344,28807,2,0,B|376:280|440:252,1,120
440,132,29664,2,0,B|376:104|376:40,1,120
256,36,30522,2,0,B|220:36|220:36|172:36|152:76,1,120
32,88,31379,6,0,B|32:156|96:180,1,120
196,248,32236,2,0,B|232:304|196:360,1,120
316,360,33093,2,0,B|280:304|316:248,1,120
416,180,33950,2,0,B|480:156|480:88,1,120
360,72,34807,6,0,B|312:72|280:100|280:100|248:88,2,120,2|2|0
360,192,36093,1,0
360,312,36522,2,0,B|408:312|440:284|440:284|472:296,2,120,2|2|0
256,252,37807,1,0
152,312,38236,6,0,B|104:312|72:284|72:284|40:296,2,120,2|2|0
152,192,39522,1,0
152,72,39950,2,0,B|200:72|232:100|232:100|264:88,2,120,0|2|2
32,72,41236,1,8
92,176,41664,5,0
92,296,42093,2,0,B|144:296|144:296|156:332|188:344,1,120,2|2
256,244,42950,1,8
324,344,43379,2,0,B|356:332|368:296|368:296|420:296,2,120,0|0|0
256,244,44664,1,8
360,184,45093,6,0,B|348:136|316:120|316:120|316:80,1,120,2|2
316,20,45736,1,2
196,20,46164,1,0
196,80,46379,2,0,B|196:120|196:120|164:136|152:184,1,120,8|0
204,292,47236,2,0,B|240:292|256:268|256:268|272:292|308:292,2,120,0|0|8
84,292,48522,6,0,B|20:268|20:200,1,120,0|8
92,104,49379,2,0,B|156:104|196:52,1,120,2|8
316,52,50236,2,0,B|356:104|420:104,1,120,0|8
492,200,51093,2,0,B|492:268|428:292,1,120,0|8
352,200,51950,6,0,B|316:120|196:120|160:200,1,240
136,316,53236,1,8
256,316,53664,2,0,B|256:244,2,60,2|2|10
376,316,54522,1,0
376,316,54736,1,0
508,192,55379,6,0,B|480:168|480:168|432:168|432:168|404:148,1,120,4|8
296,96,56236,2,0,B|296:132|296:132|316:176|316:176|316:212,1,120,0|8
196,212,57093,2,0,B|196:176|196:176|216:132|216:132|216:96,1,120,0|8
108,148,57950,2,0,B|80:168|80:168|32:168|32:168|4:192,1,120,0|8
92,272,58807,6,0,B|120:332|188:332,2,120,0|8|0
196,212,60093,1,8
316,212,60522,1,0
420,272,60950,2,0,B|392:332|324:332,2,120,8|0|8
420,152,62236,6,0,B|488:152|520:208,2,120,0|8|0
300,152,63522,1,8
300,272,63950,2,0,B|232:272|200:216,2,120,0|8|0
420,272,65236,1,8
420,152,65664,5,0
420,152,65879,2,0,B|464:108,2,60,2|10|2
336,236,66736,2,0,B|292:280,1,60,2|8
172,280,67379,1,2
88,192,67807,1,10
88,192,68022,1,10
172,104,68450,1,8
256,192,68879,6,0,B|280:232|328:244|328:244|376:232|400:192,1,180,12|8
484,104,69950,1,0
400,16,70379,1,8
308,92,70807,2,0,B|288:112|256:120|256:120|224:112|204:92,1,120,0|8
112,16,71664,1,0
28,104,72093,1,8
112,192,72522,6,0,B|72:236|72:236|12:236,2,120,0|8|0
196,104,73807,1,8
280,192,74236,2,0,B|408:192,1,120,0|8
316,104,75093,2,0,B|452:104,1,120,0|8
352,16,75950,6,0,B|476:16,2,120,2|10|0
256,88,77236,1,8
160,16,77664,2,0,B|160:136,1,120,2|10
64,64,78522,2,0,B|64:184,1,120,0|8
112,296,79379,6,0,B|68:340,2,60,2|2|10
196,212,80236,1,0
316,212,80664,1,8
316,212,80879,1,0
400,296,81307,2,0,B|444:340,2,60,0|0|8
340,296,81950,2,0,B|292:344,2,60,0|8|8
256,192,82807,12,0,84522
96,252,90522,5,2
96,132,90950,1,10
200,72,91379,2,0,B|256:36|312:72,1,120,0|8
416,132,92236,5,2
416,252,92664,1,10
312,312,93093,2,0,B|256:348|200:312,1,120,0|8
256,204,93950,5,2
256,84,94379,1,10
256,84,94593,1,2
256,192,94807,12,0,96522
