osu file format v9

[General]
AudioFilename: Annabel - STEP AHEAD (Short Ver.).mp3
AudioLeadIn: 1500
PreviewTime: 54843
Countdown: 0
SampleSet: Soft
StackLeniency: 0.5
Mode: 0
LetterboxInBreaks: 1

[Editor]
Bookmarks: 522,14236,27950,41664,55379,69093,82807,96522
DistanceSpacing: 2
BeatDivisor: 4
GridSize: 4

[Metadata]
Title:STEP AHEAD (Short Ver.)
Artist:Annabel
Creator:ykcarrot
Version:Insane
Source:Koi to Senkyo to Chocolate Portable
Tags:Love Election PSP koichoco cRyo[iceeicee]

[Difficulty]
HPDrainRate:7
CircleSize:4
OverallDifficulty:8
ApproachRate:8
SliderMultiplier:2
SliderTickRate:2

[Events]
//Background and Video events
0,0,"koichoco psp BG.jpg"
Video,430,"koichoco psp video.avi"
//Break Periods
//Storyboard Layer 0 (Background)
//Storyboard Layer 1 (Fail)
//Storyboard Layer 2 (Pass)
//Storyboard Layer 3 (Foreground)
//Storyboard Sound Samples
//Background Colour Transformations
3,100,0,90,181

[TimingPoints]
522,428.571914893617,4,2,1,45,1,0
522,-133.333333333333,4,2,1,45,0,0
1807,-133.333333333333,4,2,2,45,0,0
1914,-133.333333333333,4,2,1,45,0,0
3414,-133.333333333333,4,2,1,5,0,0
3843,-133.333333333333,4,2,2,40,0,0
4057,-133.333333333333,4,2,1,45,0,0
5236,-133.333333333333,4,2,2,45,0,0
5343,-133.333333333333,4,2,1,45,0,0
7057,-133.333333333333,4,2,1,5,0,0
7272,-133.333333333333,4,2,2,40,0,0
7486,-133.333333333333,4,2,1,45,0,0
8022,-133.333333333333,4,2,1,40,0,0
8236,-133.333333333333,4,2,1,45,0,0
8450,-133.333333333333,4,2,1,35,0,0
8664,-133.333333333333,4,2,2,45,0,0
8772,-133.333333333333,4,2,1,45,0,0
10272,-133.333333333333,4,2,1,5,0,0
10700,-133.333333333333,4,2,2,40,0,0
10914,-133.333333333333,4,2,1,45,0,0
11450,-133.333333333333,4,2,1,40,0,0
11664,-133.333333333333,4,2,1,45,0,0
11879,-133.333333333333,4,2,1,35,0,0
12522,-100,4,2,1,60,0,0
13379,-100,4,2,1,70,0,0
26236,-100,4,2,1,60,0,0
27093,-100,4,2,1,70,0,0
33629,-100,4,2,1,50,0,0
33843,-100,4,2,1,55,0,0
34057,-100,4,2,1,60,0,0
34272,-100,4,2,1,50,0,0
34486,-100,4,2,1,55,0,0
34700,-100,4,2,1,60,0,0
34914,-100,4,2,1,70,0,0
41129,-100,4,2,2,60,0,0
41343,-100,4,2,1,70,0,0
46272,-100,4,2,2,50,0,0
46486,-100,4,2,1,70,0,0
53664,-100,4,2,1,55,0,0
53879,-100,4,2,1,60,0,0
54093,-100,4,2,1,65,0,0
54307,-100,4,2,1,70,0,0
54522,-100,4,1,1,60,0,0
54950,-100,4,2,1,70,0,0
55379,-83.3333333333333,4,2,1,80,0,1
68450,-83.3333333333333,4,2,1,80,0,0
68772,-83.3333333333333,4,1,1,50,0,0
68879,-83.3333333333333,4,2,1,80,0,1
79807,-83.3333333333333,4,2,1,75,0,1
80236,-83.3333333333333,4,2,1,70,0,1
80664,-83.3333333333333,4,2,1,80,0,1
82807,-100,4,2,1,70,0,0
96522,-100,4,1,1,45,0,0

[Colours]
Combo1 : 202,199,166
Combo2 : 0,176,176
Combo3 : 218,63,156
Combo4 : 253,165,100

[HitObjects]
256,340,522,1,0
140,244,950,1,2
256,340,1379,1,2
140,244,1807,2,0,B|80:196|80:112,1,150.000005722046,2|0
80,112,2664,5,2
220,56,3093,1,2
256,120,3307,2,0,B|296:228|216:228|256:340,1,225.000008583069,2|4
372,244,4379,5,2
256,340,4807,1,2
372,244,5236,2,0,B|432:196|432:112,1,150.000005722046,2|0
432,112,6093,5,2
292,56,6522,1,2
220,56,6736,1,2
256,120,6950,2,0,B|288:192|224:192|256:264,1,150.000005722046,0|4
436,252,7807,6,0,B|436:292|472:316,1,75.0000028610231,2|0
472,192,8236,2,0,B|500:168|500:124,1,75.0000028610231,2|0
400,192,8664,2,0,B|328:156|256:192,1,150.000005722046,2|0
256,192,9522,5,2
256,44,9950,1,2
332,52,10164,2,0,B|320:144|192:144|180:52,1,225.000008583069,2|4
40,192,11236,6,0,B|12:168|12:124,1,75.0000028610231,2|0
76,252,11664,2,0,B|76:292|40:316,1,75.0000028610231,2|0
112,192,12093,2,0,B|184:156|256:192,1,150.000005722046,0|2
336,256,12736,5,0
412,192,12950,1,2
384,96,13164,2,2,B|376:100|376:100|368:96|368:96|360:100|360:100|352:96|352:96|344:100|344:100|336:96|336:96|328:100|328:100|320:96|320:96|312:100|312:100|304:96|304:96|296:100,1,100,0|2
256,192,13593,1,0
176,256,13807,2,0,B|176:288,2,33.3333333333333,2|0|0
176,220,14022,2,0,B|176:168,1,50
176,120,14236,6,0,B|208:48|296:48,1,150,0|0
348,48,14664,2,0,B|348:104|396:132,1,100,10|0
476,192,15093,1,2
476,192,15200,1,0
292,260,15522,2,0,B|240:276|220:324,1,100,8|0
136,380,15950,6,0,B|48:380|16:304,1,150,0|0
16,256,16379,2,0,B|36:208|16:160,1,100,10|0
0,60,16807,2,0,B|48:48,1,50,2|0
96,36,17022,2,0,B|144:12|192:36,2,100,2|8|0
144,124,17664,6,0,B|144:192|144:192|168:232|144:268,1,150
108,304,18093,2,0,B|116:360|172:376,1,100,10|0
256,324,18522,1,2
256,324,18629,1,0
320,140,18950,2,0,B|372:140|400:192,1,100,8|0
400,292,19379,6,0,B|320:292|320:292|304:260|264:252,1,150
216,252,19807,2,0,B|160:252|136:204,1,100,10|0
88,116,20236,2,0,B|48:144,1,50,2|0
8,176,20450,2,0,B|-12:228|8:272,2,100,2|8|0
88,116,21093,6,0,B|128:88|128:88|176:112|228:88,1,150
272,68,21522,2,0,B|320:44|368:68,1,100,10|0
464,100,21950,2,0,B|464:156,1,50,2|0
464,344,22379,1,8
376,296,22593,1,0
376,196,22807,6,0,B|324:196|292:244|292:244|244:228,1,150
196,212,23236,2,0,B|148:188|100:212,1,100,10|0
4,236,23664,2,0,B|4:284,2,50,2|0|2
4,136,24093,2,0,B|16:84|72:68,1,100,8|0
172,56,24522,6,0,B|212:128|296:128,1,150
344,128,24950,2,0,B|400:128|432:168,1,100,10|0
472,260,25379,2,0,B|436:296,1,50,2|0
256,368,25807,1,8
156,368,26022,1,0
84,300,26236,6,0,B|48:264,3,50,2|0|0|0
100,216,26664,2,0,B|60:176,3,50,10|0|0|0
116,132,27093,2,0,B|68:84,3,50,2|0|0|0
132,48,27522,2,0,B|88:4,4,50,10|0|0|0|0
208,116,28164,5,0
276,188,28379,2,0,B|324:220|368:188,1,100
416,172,28700,2,0,B|460:196|460:276|416:300,1,150
332,352,29236,1,0
244,300,29450,2,0,B|220:268|188:268|188:268|152:268,1,100
56,268,29879,2,0,B|-16:248|-16:136|56:116,1,200
156,116,30522,1,0
204,208,30736,5,0
308,208,30950,1,0
356,116,31164,2,0,B|356:60|312:32,1,100
256,116,31593,1,0
200,32,31807,2,0,B|156:60|156:116,1,100
156,168,32129,2,0,B|132:220|60:220|36:168,1,150
96,88,32664,1,0
196,88,32879,1,0
256,168,33093,2,0,B|256:272,2,100
316,88,33736,5,2
388,212,33950,1,2
460,88,34164,1,2
280,152,34379,5,2
352,276,34593,1,2
424,152,34807,1,2
244,216,35022,5,2
192,300,35236,2,0,B|144:328|96:300,1,100,2|2
52,280,35557,2,0,B|52:228|52:228|96:196|96:144,1,150
96,44,36093,1,0
8,92,36307,1,0
96,144,36522,2,0,B|144:168|192:144,1,100,2|2
192,44,36950,1,2
192,144,37164,2,0,B|192:200|236:228,1,100,2|0
324,276,37593,5,0
236,228,37807,1,0
324,276,38022,2,0,B|348:228|324:180,1,100,0|2
236,228,38450,1,2
324,180,38664,1,2
236,228,38879,2,0,B|212:180|236:132,1,100,2|0
324,180,39307,1,0
236,132,39522,2,0,B|212:84|236:36,1,100
324,84,39950,1,0
412,132,40164,5,2
412,228,40379,1,2
324,276,40593,1,2
236,228,40807,1,2
236,132,41022,6,0,B|212:84|236:36,2,100,0|8|0
324,180,41664,2,0,B|420:132|516:180,2,200,0|2|2
236,228,42736,5,0
152,284,42950,1,8
68,228,43164,2,0,B|44:180|68:132,1,100
152,76,43593,1,0
236,132,43807,1,0
280,144,43914,1,0
324,132,44022,1,0
368,120,44129,1,0
412,132,44236,1,0
496,192,44450,6,0,B|532:156,2,50,0|0|8
496,296,44879,1,2
496,296,45093,2,0,B|296:296,1,200,2|2
296,192,45736,2,0,B|240:192|212:236,1,100,2|0
204,336,46164,5,0
296,296,46379,1,8
388,256,46593,2,0,B|388:156,1,100
296,192,47022,2,0,B|296:88,1,100,0|0
204,128,47450,2,0,B|204:24,1,100,0|0
116,80,47879,5,0
28,128,48093,1,8
28,228,48307,2,0,B|4:276|28:324,2,100
116,180,48950,1,8
204,228,49164,1,0
292,276,49379,1,2
380,228,49593,2,0,B|404:180|380:132,1,100,0|8
292,84,50022,5,0
204,36,50236,2,0,B|148:36|120:84|120:84|72:84,1,150
32,116,50664,2,0,B|4:164|32:212,1,100,8|0
120,260,51093,2,0,B|168:260|168:260|196:212|252:212,1,150
292,180,51521,2,0,B|264:132|292:84,1,100,8|0
380,132,51950,6,0,B|420:196|376:280|304:280,1,200,0|8
292,180,52593,2,0,B|260:124|196:124|196:124|112:124,1,200,2|0
12,124,53236,1,8
12,224,53450,1,2
56,312,53664,5,2
88,344,53772,1,2
132,356,53879,1,2
176,344,53986,1,2
208,312,54093,1,10
256,224,54307,1,2
324,36,54522,5,0
324,36,54736,1,0
420,68,54950,5,0
420,68,55164,2,0,B|468:84|484:140,1,100,0|4
496,260,55593,1,0
416,352,55807,1,8
296,376,56022,2,0,B|220:376,2,59.9999981689454
332,260,56450,6,0,B|332:196|276:160,1,119.999996337891,0|8
120,252,56879,2,0,B|120:316|176:352,1,119.999996337891,0|0
296,376,57307,1,0
416,352,57522,1,8
496,260,57736,2,0,B|496:200,2,59.9999981689454
380,236,58164,6,0,B|312:236|280:180,1,119.999996337891,0|8
224,76,58593,2,0,B|192:0|93:-31|3:59|34:158|110:189,1,359.999989013672,0|8
216,244,59450,2,0,B|272:276|272:344,1,119.999996337891,2|0
152,344,59879,5,2
40,296,60093,1,8
40,176,60307,1,2
72,140,60414,1,0
116,120,60522,1,0
164,124,60629,1,0
208,144,60736,1,0
256,136,60843,1,0
296,108,60950,1,8
372,16,61164,2,0,B|436:28|456:92,1,119.999996337891,2|0
388,192,61593,5,2
292,264,61807,1,8
196,192,62022,1,2
232,76,62236,1,0
232,76,62343,1,0
352,76,62557,1,0
352,76,62664,2,0,B|416:76|456:128,2,119.999996337891,8|0|0
232,76,63307,5,0
196,192,63522,1,8
316,192,63736,2,0,B|372:192|364:248|416:248,1,119.999996337891
256,228,64164,2,0,B|232:280|280:284|256:344,1,119.999996337891,0|8
196,192,64593,2,0,B|140:192|148:248|96:248,1,119.999996337891
188,344,65022,1,0
324,344,65236,1,8
256,228,65450,2,0,B|232:176|280:172|256:112,1,119.999996337891
168,20,65879,5,2
344,20,66093,1,10
220,148,66307,2,0,B|192:188|156:196|156:196|120:188,1,119.999996337891,2|0
292,148,66736,2,0,B|320:188|356:196|356:196|392:188,1,119.999996337891,2|8
500,132,67164,5,2
408,56,67379,1,2
368,32,67486,1,0
320,24,67593,1,2
272,32,67700,1,0
232,56,67807,1,10
140,132,68022,2,0,B|116:200|28:200|4:132,1,179.999994506836,10|0
72,112,68450,6,0,B|72:300,1,179.999994506836,8|0
0,284,68879,2,0,B|-4:356|72:400|148:356|144:284,1,239.999992675781,12|0
144,164,69522,1,8
80,60,69736,2,0,B|20:60,2,59.9999981689454
200,60,70164,6,0,B|256:24|312:60,1,119.999996337891,0|8
452,176,70593,2,0,B|396:212|340:176,1,119.999996337891
312,60,71022,1,0
432,60,71236,1,8
452,176,71450,2,0,B|464:244,2,59.9999981689454
432,60,71879,6,0,B|364:60|332:116,1,119.999996337891,0|8
272,284,72307,2,0,B|340:284|372:228,1,119.999996337891
332,116,72736,1,2
372,228,72950,1,10
332,116,73164,2,0,B|264:116|232:172,1,119.999996337891,2|0
152,264,73593,5,2
56,192,73807,1,8
56,72,74022,2,0,B|24:72,3,29.9999990844727,2|0|0|0
56,72,74236,2,0,B|100:116,3,59.9999981689454
164,88,74664,2,0,B|216:140,3,59.9999981689454,8|0|2|0
272,104,75093,2,0,B|316:148,3,59.9999981689454,0|0|2|0
380,120,75522,2,0,B|432:172,3,59.9999981689454,8|0|2|0
488,136,75950,5,2
460,288,76164,1,2
460,288,76272,1,2
312,336,76486,1,2
312,336,76593,1,2
192,236,76807,1,0
88,296,77022,5,0
28,192,77236,1,8
132,128,77450,2,0,B|188:92|244:128,1,119.999996337891,0|2
404,212,77879,1,2
404,212,77986,2,0,B|348:248|292:212,1,119.999996337891,2|2
312,144,78307,2,0,B|348:88|312:32,1,119.999996337891,2|0
224,196,78736,2,0,B|188:252|224:308,2,119.999996337891,0|8|0
328,368,79379,5,2
372,356,79486,1,0
404,324,79593,1,2
416,280,79700,1,0
404,236,79807,1,10
372,204,79914,1,0
328,192,80022,1,2
284,180,80129,1,0
252,148,80236,1,2
240,104,80343,1,0
252,60,80450,1,2
284,28,80557,1,0
328,16,80664,5,8
448,32,80879,2,0,B|488:76|488:76|488:136,1,119.999996337891
372,320,81307,2,0,B|332:276|332:276|332:216,1,119.999996337891
140,320,81736,2,0,B|180:276|180:276|180:216,1,119.999996337891,8|0
64,32,82164,2,0,B|24:76|24:76|24:136,2,119.999996337891,8|8|0
180,32,82807,5,0
180,32,82914,1,0
256,100,83129,1,0
256,100,83236,1,8
332,32,83450,1,0
408,100,83664,2,0,B|484:168,1,100,2|0
332,168,84093,2,0,B|408:236,1,100,10|0
484,300,84522,5,0
452,332,84629,1,0
408,344,84736,1,0
364,332,84843,1,0
332,300,84950,1,8
256,232,85164,1,0
332,168,85379,2,0,B|256:100,1,100,2|0
408,100,85807,2,0,B|332:32,1,100,10|0
256,100,86236,5,0
180,32,86450,1,0
80,32,86664,1,8
80,32,86772,1,0
4,100,86986,1,0
4,100,87093,2,0,B|4:156,3,50,2|0|0|0
40,184,87522,2,0,B|40:232,3,50,10|0|0|0
76,268,87950,6,0,B|228:268,1,150
260,232,88379,1,8
308,232,88486,2,0,B|416:232,1,100
436,192,88807,1,2
408,152,88914,2,0,B|304:152,1,100
260,152,89236,2,0,B|228:116,3,50,10|0|0|0
192,80,89664,5,0
104,128,89879,1,0
104,128,89986,1,0
104,128,90093,1,8
104,228,90307,1,0
192,276,90522,2,0,B|240:300|288:276,1,100,2|0
472,228,90950,2,0,B|424:204|376:228,1,100,10|0
288,276,91379,6,0,B|224:224|248:140,1,150
272,96,91807,2,0,B|328:104|360:60,1,100,8|0
460,60,92236,2,0,B|496:24,2,50,2|0|0
460,160,92664,2,0,B|416:192|424:248,1,100,10|0
340,304,93093,5,0
256,360,93307,1,0
172,304,93522,1,8
172,304,93629,1,0
256,248,93843,1,0
256,248,93950,2,0,B|256:196,3,50,2|0|0|0
256,198,94379,2,0,B|256:162|256:162|252:154|252:154|260:154|260:154|256:146|256:146|256:106,1,100,10|2
256,8,94807,5,0
184,212,95129,2,0,B|148:248,2,50
328,212,95557,2,0,B|364:248,2,50
292,72,95986,2,0,B|328:36,2,50
220,72,96307,2,0,B|184:36,2,50
