osu file format v3

[General]
AudioFilename: Anna Tsuchiya - 01 - Rose.mp3
AudioLeadIn: 0
AudioHash: e667c0cd65c631173a1e71d51bb01609
PreviewTime: -1
SampleSet: Normal

[Metadata]
Title:Rose
Artist:Anna Tsuchiya
Creator:Nagash
Version:Hard

[Difficulty]
HPDrainRate:3
CircleSize:4
OverallDifficulty:7
SliderMultiplier: 1.4
SliderTickRate: 1

[Events]
0,0,"Nana - 08.jpg"
3,0,163,162,255

[TimingPoints]
22934,348.137209302325

[HitObjects]
224,192,11793,1,0,
288,192,12489,1,0,
224,192,13186,1,0,
288,192,13882,1,0,
224,192,14578,1,0,
288,192,15274,1,0,
224,192,15971,1,0,
288,192,16667,1,0,
352,192,17015,1,0,
224,192,17363,1,0,
288,192,18060,1,0,
224,192,18756,1,0,
288,192,19452,1,0,
224,192,20148,1,0,
288,192,20845,1,0,
224,192,21541,1,0,
288,192,22237,1,0,
352,192,22585,1,0,
192,192,22934,1,0,
96,64,27111,2,0,B|96:64|480:64|384:320|32:288,1,560
256,64,34074,2,0,B|256:64|96:192|128:192|352:320|288:288,1,280
256,160,35117,1,0,
256,64,35466,2,0,B|256:64|416:192|384:192|160:320|224:288,1,280
256,160,36511,1,0,
384,192,36859,2,0,B|384:192|256:32|256:64|128:288|160:224,1,280
256,160,37902,1,0,
128,192,38252,2,4,B|128:192|256:352|256:320|384:96|352:160,1,280
256,160,39296,1,0,
256,224,39644,1,0,
192,192,40344,1,0,
256,160,41124,1,0,
320,192,41773,1,0,
256,192,42429,1,0,
256,192,43126,1,0,
256,128,43794,1,0,
192,160,44527,1,0,
64,64,45214,2,0,B|64:64|288:224,1,272.521670341492
352,288,46607,2,0,B|352:288|320:64|224:64|256:32,1,282.263634771109
192,224,47999,2,0,B|192:224|448:256|448:160,1,290.262941122055
256,320,49392,2,0,B|256:320|256:32,1,285.120002746582
256,288,50784,2,0,B|256:288|256:96|448:288,1,292.131929278374
416,288,52177,2,0,B|416:288|160:160,1,283.354534626007
475,352,53569,2,0,B|475:352|64:64|64:320,1,527.526168823242
192,128,56354,1,0,
224,160,56702,1,0,
256,192,57050,1,0,
288,224,57399,1,0,
256,128,57747,1,0,
288,160,58095,1,0,
320,192,58443,1,0,
352,224,58791,1,0,
256,224,59140,1,4,
256,160,59487,1,0,
192,224,59835,5,0,
256,224,60184,1,0,
320,224,60532,1,0,
224,288,60880,1,0,
288,288,61228,1,0,
256,192,61576,1,4,
256,96,61935,1,4,
320,96,62272,1,4,
384,96,62621,1,4,
256,128,63347,1,4,
320,128,63665,1,4,
384,128,64013,1,4,
256,192,64710,1,4,
256,128,64721,1,4,
256,192,65058,1,4,
256,256,65406,1,4,
256,128,66114,1,4,
192,128,66450,1,4,
128,128,66798,1,4,
256,192,67503,1,0,
320,192,67842,1,0,
384,192,68190,1,0,
160,256,68887,1,0,
224,192,69236,1,0,
288,128,69584,1,0,
160,128,70280,1,0,
224,192,70628,1,0,
288,256,70976,1,0,
352,256,71672,1,0,
352,192,72020,1,0,
352,128,72368,1,0,
288,192,73064,1,0,
224,192,73412,1,0,
160,192,73761,1,0,
224,128,74109,1,0,
288,128,74458,1,0,
256,64,74806,1,0,
320,64,75154,1,0,
224,192,75850,1,0,
288,192,76198,1,0,
256,256,76547,1,0,
160,128,76895,1,0,
224,128,77242,1,0,
288,128,77590,1,0,
192,64,77938,1,0,
256,64,78286,1,0,
320,64,78634,2,0,B|320:64|32:352|480:320,1,518.588667392731
32,320,81421,2,0,B|32:320|480:320|480:96,1,554.479299068451
32,32,84205,2,0,B|32:32|480:352|96:352,1,558.340388774872
256,192,86991,1,4,
256,192,89877,1,4,
256,192,92727,1,0,
256,192,95501,1,0,
160,32,101086,2,4,B|160:32|160:320,1,285.119995117188
160,32,102452,2,4,B|160:32|288:288,1,283.354534626007
160,32,103853,2,4,B|160:32|448:32,1,285.119995117188
160,32,105246,2,4,B|160:32|352:256,1,292.075184822083
160,32,106669,2,4,B|160:32|160:320,1,285.119995117188
160,32,108040,2,4,B|160:32|32:288,1,283.354535579681
160,32,109501,2,4,B|160:32|160:320,1,285.119995117188
128,64,112241,1,0,
192,96,114998,1,0,
224,160,117771,1,0,
288,160,120591,1,0,
352,160,121982,1,0,
64,128,123367,1,0,
192,128,124036,1,0,
288,128,124760,1,0,
224,64,125454,1,0,
128,256,126175,1,0,
192,192,126838,1,0,
288,160,127569,1,0,
352,160,128230,1,0,
320,256,128946,1,0,
128,128,129639,1,0,
256,96,130360,1,0,
384,224,131046,1,0,
160,256,131731,1,0,
320,128,132418,1,0,
128,96,133107,1,0,
256,160,134525,5,0,
256,160,135235,1,0,
256,160,135897,1,0,
256,160,136638,1,0,
192,160,137290,1,0,
192,160,137977,1,0,
192,160,138682,1,0,
192,160,139397,1,0,
192,96,140081,1,0,
192,96,140779,1,0,
192,96,141463,1,0,
192,96,142178,1,0,
288,96,142865,1,0,
288,96,143595,1,0,
288,96,144272,1,0,
288,96,144978,1,0,
256,192,145673,1,0,
160,96,156894,1,0,
416,96,158281,1,0,
256,192,159675,1,0,
160,96,161081,1,0,
384,320,162455,1,0,
128,288,163846,1,0,
288,224,165219,1,0,
448,64,166652,1,0,
256,192,168039,1,0,
160,32,179099,2,4,B|160:32|160:320,1,285.119995117188
160,32,180485,2,4,B|160:32|320:288,1,298.868520021439
160,32,181853,2,4,B|160:32|384:192,1,272.521667718887
160,32,183272,2,4,B|160:32|448:32,1,285.119995117188
256,32,184658,2,4,B|256:32|160:320,1,300.542867183685
416,128,186042,2,4,B|416:128|192:288,1,272.521667718887
480,192,187450,2,4,B|480:192|256:320,1,255.412333250046
160,32,188832,2,4,B|160:32|160:320,1,285.119995117188
160,32,190251,2,4,B|160:32|160:288,1,253.440002441406
256,64,191613,2,4,B|256:64|96:288,1,272.521667718887
352,64,193012,2,4,B|352:64|288:288,1,230.633886098862
224,64,194403,2,4,B|224:64|160:320,1,261.239976644516
96,64,195785,2,4,B|96:64|160:320,1,261.23997759819
160,32,197203,2,4,B|160:32|320:224,1,247.428703308105
224,64,198595,2,4,B|224:64|288:320,1,261.239968299866
160,32,199959,2,4,B|160:32|192:320,1,286.874595403671
256,192,201528,1,4,
256,192,202729,1,0,
320,160,204317,1,0,
256,128,205521,1,0,
192,160,207119,1,0,
256,224,208256,1,0,
352,160,209873,1,0,
160,160,211010,1,0,
256,192,212693,12,0,218935
