osu file format v5

[General]
AudioFilename: Anna Tsuchiya - My Fate.mp3
AudioLeadIn: 0
PreviewTime: -1
Countdown: 1
SampleSet: Soft
StackLeniency: 0.7
Mode: 0
LetterboxInBreaks: 1
EditorDistanceSpacing: 0.800000011920929

[Metadata]
Title:My Fate
Artist:Anna
Creator:fire99
Version:Normal
Source:
Tags:

[Difficulty]
HPDrainRate:5
CircleSize:6
OverallDifficulty:5
SliderMultiplier:1.2
SliderTickRate:1

[Events]
//Background and Video events
1,-10000,"video.flv"
0,0,"bandai01.jpg"
//Break Periods
2,91461,103932
2,184364,185867
2,206622,228448
//Storyboard Layer 0 (Background)
//Storyboard Layer 1 (Failing)
//Storyboard Layer 2 (Passing)
//Storyboard Layer 3 (Foreground)
//Storyboard Sound Samples
//Background Colour Transformations
3,100,255,255,255

[TimingPoints]
616,645.161290322581,4,2,1,100,1,0

[HitObjects]
40,328,12228,1,0
72,256,12551,1,0
128,304,12874,1,0
144,224,13196,1,0
200,280,13519,1,0
72,288,14164,1,0
152,264,14486,1,0
32,40,15777,5,0
56,112,16099,1,0
136,72,16745,1,0
160,144,17067,1,0
232,112,17712,1,0
264,176,18035,1,0
296,240,18357,1,0
384,216,18895,1,0
424,144,19218,1,0
168,144,22228,5,0
104,184,22551,1,0
168,224,22874,1,0
168,144,23196,1,0
104,184,23519,1,0
168,224,23841,1,0
336,152,24486,1,0
336,224,24809,1,0
224,72,25992,5,0
256,128,26207,1,0
288,72,26422,1,0
256,208,26745,1,0
256,208,27067,1,0
176,192,30938,5,0
344,192,31261,1,0
256,192,33196,5,0
256,264,33626,1,0
256,120,34164,1,0
368,56,35669,5,0
408,96,35992,1,0
432,152,36422,1,0
256,192,37390,5,0
256,192,37712,1,0
128,320,38680,5,0
88,280,39003,1,0
56,208,39648,1,0
48,128,40938,5,0
88,64,41261,1,0
152,40,41583,1,0
440,232,43519,1,0
400,288,43949,1,0
304,320,44486,1,0
256,192,46422,1,0
256,192,46745,12,0,48357
160,256,51583,5,0
160,256,51906,1,0
160,256,52228,1,0
216,152,53196,1,0
304,240,53519,1,0
392,144,53949,1,0
304,64,54379,1,0
24,352,55777,1,0
80,304,56099,1,0
136,256,56422,1,0
216,184,57067,1,0
296,120,57712,1,0
392,56,58357,1,0
464,144,59003,1,0
464,240,59540,1,0
472,296,59863,1,0
488,24,61261,5,0
440,80,61583,1,0
384,136,61906,1,0
328,192,62228,1,0
272,232,62551,1,0
56,296,63841,1,0
56,216,64271,1,0
56,104,64809,1,0
256,192,65777,1,0
256,192,66099,1,0
256,192,66637,1,0
256,192,67390,12,0,68680
56,192,69218,5,0
128,192,69540,1,0
56,192,69863,1,0
448,192,70616,1,0
376,192,70938,1,0
448,192,71261,1,0
256,192,71798,1,0
48,56,72874,5,0
184,56,74164,1,0
264,56,74594,1,0
376,56,75132,1,0
472,120,76745,5,0
400,160,77067,1,0
328,200,77390,1,0
256,256,77712,1,0
168,304,78357,1,0
80,256,79003,1,0
128,160,79648,1,0
240,176,80293,1,0
304,176,80616,1,0
200,136,81906,5,0
328,248,82228,1,0
256,192,82551,1,0
328,136,82874,1,0
192,248,83196,1,0
328,248,84164,1,0
200,136,84486,1,0
200,248,85024,1,0
328,136,85562,1,0
256,192,86422,1,0
256,192,86745,1,0
256,192,87390,1,0
256,192,88035,12,0,89325
360,56,89970,5,0
304,144,90293,1,0
416,144,90616,1,0
360,272,91261,1,0
48,192,105132,5,0
160,136,105454,1,0
48,192,105777,1,0
160,248,106099,1,0
48,192,106422,1,0
312,184,107067,1,0
400,184,107390,1,0
256,112,109003,1,0
256,272,109970,1,0
64,192,110938,1,0
168,112,111261,1,0
256,192,111583,1,0
344,256,111906,1,0
424,192,112228,1,0
352,264,115132,5,0
256,192,115454,1,0
176,120,115777,1,0
256,56,116099,1,0
320,120,116422,1,0
256,192,116745,1,0
168,280,117390,1,0
112,336,117712,1,0
256,192,119003,1,0
184,128,119325,1,0
320,264,119648,1,0
256,192,119970,1,0
256,192,123841,5,0
256,192,124164,1,0
192,192,126099,1,0
256,136,126529,1,0
360,192,127067,1,0
256,256,128680,5,0
312,192,129003,1,0
256,128,129325,1,0
144,192,130293,1,0
72,192,130616,1,0
336,192,131583,1,0
408,192,131906,1,0
256,192,132551,1,0
256,48,133841,5,0
328,112,134164,1,0
392,192,134486,1,0
184,352,136314,1,0
128,304,136745,1,0
56,232,137390,1,0
256,192,139325,1,0
256,192,139648,12,0,140616
160,256,144486,5,0
160,256,144809,1,0
160,256,145131,1,0
216,152,146099,1,0
304,240,146422,1,0
392,144,146852,1,0
304,64,147282,1,0
24,352,148680,1,0
80,304,149002,1,0
136,256,149325,1,0
216,184,149970,1,0
296,120,150615,1,0
392,56,151260,1,0
464,144,151906,1,0
464,240,152443,1,0
472,296,152766,1,0
488,24,154164,5,0
440,80,154486,1,0
384,136,154809,1,0
328,192,155131,1,0
272,232,155454,1,0
96,352,156422,1,0
56,296,156744,1,0
56,200,157174,1,0
56,96,157712,1,0
256,192,158680,1,0
256,192,159002,1,0
256,192,159540,1,0
256,192,160293,12,0,161583
56,192,162121,5,0
128,192,162443,1,0
56,192,162766,1,0
448,192,163519,1,0
376,192,163841,1,0
448,192,164164,1,0
256,192,164701,1,0
48,56,165777,5,0
184,56,167067,1,0
264,56,167497,1,0
376,56,168035,1,0
472,120,169648,5,0
400,160,169970,1,0
328,200,170293,1,0
256,256,170615,1,0
168,304,171260,1,0
80,256,171906,1,0
128,160,172551,1,0
240,176,173089,1,0
320,176,173519,1,0
200,136,174809,5,0
328,248,175131,1,0
256,192,175454,1,0
328,136,175777,1,0
192,248,176099,1,0
328,248,177067,1,0
200,136,177389,1,0
200,248,177927,1,0
328,136,178357,1,0
256,192,179325,1,0
256,192,179648,1,0
256,192,180293,1,0
256,192,180938,12,0,182228
360,56,182873,5,0
304,144,183196,1,0
416,144,183519,1,0
360,272,184164,1,0
32,32,187067,5,0
96,96,187390,1,0
160,160,187712,1,0
224,224,188035,1,0
288,288,188357,1,0
352,352,188680,1,0
32,352,189648,5,0
96,288,189970,1,0
160,224,190293,1,0
224,160,190616,1,0
288,96,190938,1,0
352,32,191261,1,0
416,96,192228,5,0
480,160,192551,1,0
448,224,192874,1,0
416,288,193196,1,0
352,352,193519,1,0
288,352,193841,1,0
200,304,194486,1,0
128,224,195132,1,0
184,136,195777,1,0
264,192,196422,1,0
400,88,197390,1,0
400,216,198035,1,0
336,272,198465,1,0
248,240,199003,1,0
184,160,199325,1,0
256,280,199970,1,0
256,96,200293,1,0
160,192,200616,1,0
376,192,201046,1,0
256,192,201583,1,0
256,192,201906,1,0
256,192,203841,1,0
256,192,204164,12,0,206422
256,128,229648,5,0
256,256,229970,1,0
256,192,230293,1,0
160,192,231261,1,0
256,192,231583,1,0
392,192,232121,1,0
256,192,232551,1,0
64,64,233841,5,0
128,128,234164,1,0
192,192,234486,1,0
272,344,235132,1,0
352,280,235777,1,0
424,208,236422,1,0
352,280,236960,1,0
272,344,237605,1,0
192,344,238035,1,0
32,352,239325,5,0
96,288,239648,1,0
160,224,239970,1,0
224,160,240293,1,0
288,96,240616,1,0
240,96,241906,5,0
160,96,242443,1,0
104,96,242874,1,0
64,216,243841,1,0
176,216,244164,1,0
272,152,244809,1,0
344,80,245454,1,0
256,192,247927,5,0
256,152,248035,1,0
256,256,248357,1,0
256,96,248680,1,0
176,192,249648,1,0
256,192,249970,1,0
336,192,250293,1,0
256,192,250616,1,0
176,192,250938,1,0
104,136,252228,5,0
192,160,252766,1,0
280,192,253196,1,0
192,232,254809,5,0
256,120,255132,1,0
312,232,255454,1,0
256,192,255777,1,0
448,232,256422,1,0
368,144,257067,1,0
256,248,257712,1,0
136,152,258357,1,0
80,208,258680,1,0
448,272,259970,5,0
448,192,260293,1,0
448,112,260616,1,0
448,192,260938,1,0
448,272,261261,1,0
328,184,262228,1,0
256,184,262551,1,0
256,96,263089,1,0
256,272,263626,1,0
64,192,264486,1,0
136,192,264809,1,0
256,192,265454,1,0
256,192,266099,12,0,267712
256,192,268035,5,0
256,192,268357,1,0
256,192,268680,1,0
256,192,269325,12,0,271583
