osu file format v5

[General]
AudioFilename: Anna - Lucky Tune.mp3
AudioLeadIn: 0
PreviewTime: 53949
Countdown: 1
SampleSet: Soft
StackLeniency: 0.7
Mode: 0
LetterboxInBreaks: 1
EditorBookmarks: 44074,50657,53951,82348
EditorDistanceSpacing: 1.60000002384186

[Metadata]
Title:Lucky Tune (TV Size)
Artist:Anna
Creator:osuplayer111
Version:Haruna-Easy
Source:To LOVE Ru ED 1
Tags:Anime

[Difficulty]
HPDrainRate:0
CircleSize:4
OverallDifficulty:0
SliderMultiplier:1.4
SliderTickRate:1

[Events]
//Background and Video events
0,0,"to_love_ru.jpg"
1,400,"To Love Ru Ending 1.avi"
//Break Periods
2,42244,42972
//Storyboard Layer 0 (Background)
//Storyboard Layer 1 (Failing)
//Storyboard Layer 2 (Passing)
//Storyboard Layer 3 (Foreground)
//Storyboard Sound Samples
//Background Colour Transformations
3,100,245,140,194

[TimingPoints]
473,454.545454545455,4,2,1,100,1,0
54999,-100,4,1,1,70,0,1
61363,-100,4,1,1,70,0,0
69544,-100,4,1,1,70,0,1
76817,-100,4,1,1,70,0,0
87272,-100,4,2,1,100,0,1

[Colours]
Combo1 : 255,150,0
Combo2 : 0,255,255
Combo3 : 255,128,255
Combo4 : 128,0,255

[HitObjects]
344,232,7291,1,0
272,232,7745,1,2
160,232,8654,2,2,B|72:296|88:352,2,140
320,96,10927,5,0
248,96,11382,2,2,B|200:40|136:56|120:96|72:88|64:152|48:168|112:200,1,280
168,208,12745,1,0
240,208,13200,1,0
432,120,14563,5,0
376,80,15018,2,2,B|352:48|304:48|272:48|248:88,1,140
248,152,15927,1,0
112,192,16836,1,0
248,192,17745,1,0
320,192,18200,1,0
320,120,18654,1,2
456,120,19563,6,0,B|456:264,2,140
320,80,21382,1,0
248,80,21836,5,2
176,80,22291,2,2,B|104:48|40:96,2,140
120,208,24109,1,0
120,280,24563,1,0
184,248,25018,1,0
256,128,25927,5,2
384,184,26836,1,0
320,152,27291,1,0
264,104,27745,2,2,B|208:192|136:264|64:256|24:256,1,280
48,184,29109,1,0
48,112,29563,5,2
112,144,30018,1,0
184,144,30473,1,2
296,64,31382,1,2
368,64,31836,1,0
368,136,32291,2,2,B|224:136,2,140
368,272,34109,5,2
296,272,34563,1,0
224,272,35018,1,2
152,272,35473,1,6
96,72,36836,6,2,B|48:200|16:200,1,140
88,232,37745,2,2,B|168:160|232:184|288:216,1,210
336,120,39109,1,0
336,48,39563,1,0
264,48,40018,1,2
264,120,40472,2,0,B|224:56|160:80|128:80,2,140
264,192,41836,1,2
264,224,42063,1,6
256,216,44791,6,2,B|304:152|368:160|328:80|280:48,1,210
216,56,45927,1,0
168,104,46382,1,0
128,160,46836,1,2
128,232,47291,1,0
120,304,47745,2,2,B|208:328|264:320|360:312|424:280,1,280
368,224,49109,1,0
296,200,49544,1,2
256,192,49578,12,2,52745
256,264,53200,5,4
256,192,53654,1,4
424,72,55018,6,2,B|384:48|344:64|352:112|400:136,2,140
448,176,56609,1,0
448,208,56836,1,0
376,208,57291,2,2,B|368:280|432:288|472:280,1,140
472,352,58200,1,0
440,352,58427,5,2
408,352,58654,1,2
360,296,59109,2,2,B|312:240|224:288,1,140
136,248,60245,5,0
112,224,60472,1,0
104,152,60927,2,2,B|240:88,1,140
360,144,62291,5,0
288,144,62745,2,8,B|240:144|232:72|256:72|320:72,1,140
384,72,63882,5,0
424,88,64109,2,8,B|464:24|504:96|464:160,1,140
440,216,65018,1,8
368,224,65472,1,0
296,224,65927,2,0,B|296:104|336:88,2,140
224,224,67291,5,0
192,224,67518,1,2
152,224,67745,1,0
152,296,68200,2,0,B|208:320|272:336|304:288,1,140
336,264,69109,1,0
360,240,69336,1,0
392,232,69563,6,2,B|448:232|440:304|424:312|376:312,2,140
384,128,71154,1,0
352,128,71382,2,0,B|328:80|288:112|240:88|224:56,1,140
200,56,72063,1,2
112,168,72972,5,0
144,184,73200,2,0,B|200:248|248:184|272:272,1,140,0|2
328,248,74109,1,2
384,160,74791,1,0
368,128,75018,2,0,B|336:136|328:176|288:152|264:144|232:120,1,140,0|2
208,128,75700,1,2
144,96,76154,1,8
112,80,76382,1,8
64,128,76836,1,6
72,336,78200,5,2
128,296,78654,1,0
192,264,79109,1,0
224,264,79336,1,4
216,120,80245,5,2
248,120,80472,2,0,B|320:64|296:32|368:32,2,140,0|2|0
256,192,81836,1,0
256,224,82044,1,6
256,192,82064,12,0,84563
104,96,85018,5,2
104,168,85472,1,2
168,136,85927,1,2
240,136,86382,6,4,B|240:176|200:200,1,70
200,264,87063,2,4,B|200:304|248:320,1,70,0|4
