osu file format v5

[General]
AudioFilename: kiss no yukue.mp3
AudioLeadIn: 0
PreviewTime: 46169
Countdown: 1
SampleSet: Normal
StackLeniency: 0.7
Mode: 0
LetterboxInBreaks: 1
EditorBookmarks: 15933

[Metadata]
Title:Kiss no Yukue
Artist:Anna
Creator:abalee
Version:Normal@TV Ver.
Source:To LOVE Ru
Tags:anime kiss no yukue anna to love ru sairenji haruna

[Difficulty]
HPDrainRate:6
CircleSize:4
OverallDifficulty:5
SliderMultiplier:1.2
SliderTickRate:2

[Events]
//Background and Video events
0,0,"bg.jpg"
//Break Periods
//Storyboard Layer 0 (Background)
//Storyboard Layer 1 (Failing)
//Storyboard Layer 2 (Passing)
//Storyboard Layer 3 (Foreground)
//Storyboard Sound Samples
//Background Colour Transformations
3,100,123,82,173

[TimingPoints]
1760,472.44094488189,4,1,0,100,1

[Colours]
Combo1 : 69,46,96
Combo2 : 49,69,79
Combo3 : 190,174,154
Combo4 : 192,163,185

[HitObjects]
48,328,16878,2,0,B|24:272|88:216,1,120
112,168,17586,1,0
144,120,17822,2,0,B|208:104|264:152,1,120,0|8
280,264,18767,2,0,B|344:248|376:176,1,120
416,152,19476,1,0
400,96,19712,2,0,B|392:40|296:32,1,120,0|8
184,40,20657,1,4
256,208,21366,6,0,B|304:264|256:328,1,120
200,320,22074,1,0
136,320,22311,2,0,B|16:192|152:40,1,300
256,72,23964,1,4
376,72,24437,6,0,B|440:32|496:72,1,120
488,192,25382,1,8
248,192,26326,2,0,B|312:288|216:352,1,180
160,336,27271,2,0,B|88:360|24:312,2,120,8|0|4
216,168,28925,6,0,B|176:112|112:104,1,120
120,48,29634,2,0,B|184:16|240:48,1,120
296,40,30342,2,0,B|344:80|288:168,1,120
312,208,31051,2,0,B|368:232|448:200,1,120,0|4
336,288,31996,5,0
392,288,32232,1,0
448,288,32468,2,0,B|440:224|392:168,1,120,0|8
168,232,33885,1,0
104,232,34122,1,0
40,232,34358,2,0,B|16:176|64:112,1,120,0|8
296,120,35775,5,0
352,120,36011,2,0,B|424:112|464:184,2,120
336,176,37193,1,0
320,232,37429,1,0
280,280,37665,2,0,B|208:304|160:256,2,120
384,344,39082,1,4
368,224,39555,5,0
424,224,39791,2,0,B|472:120|376:56,1,180
264,56,40972,1,8
272,176,41445,6,0,B|320:248|280:304,2,120
216,152,42626,1,0
192,96,42862,2,0,B|104:88|88:160,1,120
72,264,43807,1,4
96,320,44043,1,4
216,336,44515,1,4
336,336,44988,1,4
456,336,45460,1,4
456,336,45697,1,4
256,192,46169,12,4,49004
312,272,49712,6,0,B|376:272|392:192,1,120
400,136,50421,1,0
384,80,50657,1,0
328,48,50893,2,0,B|200:32|160:128,1,180
264,184,52074,2,0,B|288:248|216:296,1,120,0|4
120,344,53019,1,2
96,288,53256,1,2
96,168,53728,6,0,B|24:168,2,60
152,64,54673,2,0,B|256:8|328:80,1,180
432,112,55854,2,8,B|504:112,2,60
352,336,57271,5,0
296,296,57508,2,0,B|216:368|112:344,2,180
296,240,59161,2,0,B|264:168|120:168,2,180
176,264,61051,1,4
256,192,61287,12,4,64122
64,88,64830,6,0,B|72:184|184:216,1,180
232,216,65775,1,0
288,216,66011,2,0,B|336:192|344:104|344:104,2,120
280,280,67193,1,0
224,256,67429,2,0,B|160:200|176:136,2,120,0|0|4
128,328,68846,5,0
248,328,69319,1,0
368,328,69791,2,0,B|432:376|488:296,1,120
480,256,70500,2,0,B|496:152|376:128,1,180
360,72,71445,1,4
128,104,72390,6,0,B|88:120|64:144,1,60
48,184,72862,2,0,B|32:272,2,60
104,176,73571,2,0,B|176:176|240:208,2,120
96,240,74752,1,4
152,256,74988,2,0,B|224:352|328:304,2,180,0|0|4
