osu file format v5

[General]
AudioFilename: kiss no yukue.mp3
AudioLeadIn: 0
PreviewTime: 46169
Countdown: 1
SampleSet: Normal
StackLeniency: 0.7
Mode: 0
LetterboxInBreaks: 1
EditorBookmarks: 15940,45933,91523,185067

[Metadata]
Title:Kiss no Yukue
Artist:Anna
Creator:abalee
Version:My Hard@Full Ver.
Source:To LOVE Ru
Tags:anime kiss no yukue anna to love ru sairenji haruna

[Difficulty]
HPDrainRate:7
CircleSize:5
OverallDifficulty:6
SliderMultiplier:1.2
SliderTickRate:2

[Events]
//Background and Video events
0,0,"bg.jpg"
//Break Periods
2,77550,91568
2,153141,185111
//Storyboard Layer 0 (Background)
//Storyboard Layer 1 (Failing)
//Storyboard Layer 2 (Passing)
//Storyboard Layer 3 (Foreground)
//Storyboard Sound Samples
//Background Colour Transformations
3,100,123,82,173

[TimingPoints]
1760,472.44094488189,4,1,0,100,1
185539,-100,4,2,0,100,0
200893,-100,4,1,0,100,0

[Colours]
Combo1 : 49,69,79
Combo2 : 192,163,185
Combo3 : 69,46,96
Combo4 : 190,174,154

[HitObjects]
48,56,16878,2,0,B|24:120|88:168,1,120,8|0
104,216,17586,1,8
136,264,17822,2,0,B|200:280|256:232,1,120,0|8
264,88,18767,2,0,B|328:104|360:176,1,120,8|0
392,208,19476,1,8
424,256,19712,2,0,B|424:312|344:352,1,120,0|8
328,296,20421,1,0
296,344,20657,1,4
256,232,21130,5,4
232,176,21366,6,0,B|280:120|232:56,1,120
184,48,22074,1,8
128,48,22311,2,0,B|72:56|24:144,1,120
32,176,23019,2,0,B|32:224|96:296,1,120,8|0
136,304,23728,1,8
192,312,23964,1,8
304,312,24437,6,0,B|376:312,2,60,8|0|0
416,312,25382,1,8
320,240,25854,2,0,B|328:168|408:160,1,120,0|8
456,160,26563,2,0,B|480:88|416:48,1,120
368,32,27271,2,0,B|296:8|232:56,2,120,8|0|8
328,144,28689,5,4
296,192,28925,6,0,B|272:248|192:256,1,120
184,200,29634,1,8
144,240,29870,2,0,B|112:256|80:216,1,60
56,184,30342,2,0,B|8:120|48:56,1,120,8|0
88,40,31051,2,0,B|144:16|224:48,1,120,8|4
320,48,31996,5,0
376,48,32232,1,0
432,48,32468,2,0,B|424:112|376:168,1,120,0|8
328,152,33177,2,8,B|248:152,1,60
152,152,33885,1,0
96,152,34122,1,0
40,152,34358,2,0,B|16:208|64:272,1,120,0|8
120,264,35067,2,8,B|192:264,1,60
296,264,35775,5,0
352,264,36011,2,0,B|424:272|464:200,2,120
336,208,37193,1,8
312,152,37429,1,8
280,96,37665,2,0,B|208:72|160:120,2,120
264,40,38846,1,8
320,40,39082,1,8
432,88,39555,5,0
456,144,39791,2,0,B|504:248|408:312,1,180
368,328,40736,1,8
312,352,40972,1,8
256,240,41445,6,0,B|304:168|264:112,2,120
224,288,42626,1,8
176,320,42863,1,0
112,312,43099,1,8
72,264,43335,1,4
72,144,43807,1,4
96,88,44043,1,4
208,48,44515,1,4
264,48,44752,1,4
320,48,44988,1,4
472,48,45460,1,4
472,48,45697,1,4
256,192,46169,12,4,47822
256,48,48295,5,2
256,104,48531,2,2,B|200:144|120:104,2,120,2|2|2
312,112,49712,6,0,B|376:112|392:192,1,120
400,248,50421,1,0
336,336,50893,1,8
280,360,51130,2,0,B|192:336|176:288,1,120
216,248,51838,1,8
264,208,52074,2,0,B|304:144|256:96,1,120
240,40,52783,1,8
200,88,53019,2,0,B|128:80|104:168,1,120
104,208,53728,6,0,B|32:208,2,60
104,264,54437,2,8,B|104:336,1,60
160,320,54909,2,0,B|232:320,1,60
280,320,55382,2,8,B|280:248,1,60
336,256,55854,2,0,B|408:256,1,60
456,256,56326,2,8,B|456:168,1,60
456,136,56799,2,0,B|368:136,1,60
336,136,57271,5,0
296,88,57508,2,0,B|216:16|112:40,2,180,0|4|0
288,144,59161,2,0,B|256:216|120:224,2,180,0|4|0
240,112,60815,1,0
176,112,61051,1,4
256,192,61287,12,4,62941
200,48,63413,6,2,B|152:48|96:104,1,120,2|2
64,152,64122,1,2
48,208,64358,2,0,B|16:240|48:272,1,60,2|2
72,312,64830,5,0
120,280,65067,1,0
168,248,65303,1,0
216,216,65539,1,0
264,176,65775,1,0
312,144,66011,2,0,B|360:168|368:256|368:256,2,120,4|0|0
264,112,67193,1,4
216,144,67429,2,0,B|152:200|168:264,2,120,0|0|4
120,64,68846,5,0
240,64,69319,1,0
296,64,69555,1,8
352,64,69791,2,0,B|416:16|472:96,1,120
456,136,70500,1,8
448,192,70736,2,0,B|440:264|352:272,1,120
320,304,71445,1,8
288,352,71681,2,0,B|200:352|168:296,1,120
128,280,72390,6,0,B|88:264|64:240,1,60,0|8
48,200,72862,1,0
32,144,73098,1,0
40,88,73334,1,8
96,88,73571,2,0,B|128:152|200:192,2,120,4|0|0
64,40,74752,1,4
120,40,74988,2,0,B|232:16|256:128,1,180,0|4
256,240,76169,1,4
256,240,76405,1,4
256,240,76878,1,0
256,240,77350,1,4
448,56,92468,5,0
328,56,92941,1,8
264,56,93177,1,0
200,56,93413,2,0,B|144:48|72:96,2,120,0|8|0
232,104,94594,1,0
272,144,94830,2,0,B|336:136|376:216,1,120,8|0
392,256,95539,1,0
344,288,95775,2,0,B|304:336|216:312,2,120,8|0|8
304,240,96956,1,0
256,200,97193,6,0,B|312:152|264:72,1,120,0|8
224,56,97901,2,0,B|152:24|104:96,1,120
72,120,98610,2,0,B|32:144|40:176,1,60,8|0
32,224,99082,2,0,B|24:304|88:320,1,120,0|8
200,352,100027,6,0,B|256:360|328:312,1,120,0|8
360,288,100736,2,0,B|328:224|248:208,1,120
232,256,101445,1,8
272,216,101681,1,0
312,176,101917,2,8,B|256:152|272:72,2,120,0|8|0
352,128,103098,1,0
408,104,103334,6,0,B|456:168|400:232,1,120,8|0
368,256,104043,1,0
416,288,104279,2,0,B|408:328|360:328,1,60,8|0
320,296,104752,2,0,B|264:256|184:280,1,120,0|8
152,256,105460,1,0
136,312,105697,2,0,B|64:296|56:224,1,120,0|8
112,216,106405,2,0,B|152:152|72:104,1,120
132,74,107114,1,8
184,72,107350,6,0,B|216:72,2,30
184,128,107822,1,0
184,184,108059,2,0,B|64:168|40:288,1,180,0|8
48,320,109004,1,2
104,320,109240,6,0,B|104:352,2,30
160,320,109712,1,0
216,320,109948,2,0,B|232:192|112:192,1,180,0|8
72,176,110893,1,2
56,120,111130,6,0,B|24:80,2,30
112,120,111602,2,0,B|152:56|224:64,2,120
168,144,112783,1,2
224,168,113019,1,2
280,192,113256,2,0,B|280:120|344:88,1,120,8|0
392,88,113964,1,8
448,88,114200,2,0,B|496:128|496:216,1,120,0|4
488,256,114909,6,0,B|456:256,2,30
488,312,115382,2,0,B|456:376|360:328,1,120
280,272,116326,1,8
328,304,116563,1,8
280,344,116799,6,0,B|320:368,2,30
224,320,117271,1,8
168,296,117508,2,0,B|104:320|64:240,1,120
120,216,118216,1,8
168,184,118452,2,0,B|144:144|96:144,1,60
72,120,118925,2,0,B|80:56|152:40,1,120,0|8
208,40,119634,1,0
208,40,119870,1,0
224,96,120106,2,0,B|216:160|304:184,1,120,0|4
291,181,121051,1,4
291,181,121287,1,4
400,224,121760,6,0,B|488:224|472:128,1,120
464,88,122468,1,0
416,48,122704,2,2,B|368:16|296:32,1,120,2|2
240,40,123413,1,4
184,64,123649,2,0,B|200:104,2,30
128,88,124122,1,0
72,112,124358,2,0,B|96:152,2,30
24,144,124830,2,2,B|24:224,1,60,2|2
31,263,125303,6,0,B|31:303|63:343,1,60,0|8
104,336,125775,2,0,B|152:360|224:336,2,120
120,280,126956,1,8
144,224,127193,2,0,B|160:168|232:144,2,120
192,256,128374,2,8,B|240:272,2,30
184,312,128846,1,4
304,312,129319,6,0,B|320:232|376:192,1,120
408,176,130027,1,0
464,160,130263,2,0,B|480:208,2,30,0|0|0
456,104,130736,1,8
416,56,130972,1,8
360,40,131208,2,0,B|352:80,2,30
296,40,131681,1,8
232,40,131917,1,8
168,40,132153,2,0,B|168:80,2,30
104,40,132626,1,8
40,40,132862,6,0,B|32:128,1,60,0|0
32,160,133334,1,0
32,216,133571,2,0,B|96:200|152:272,1,120,8|0
192,272,134279,2,0,B|240:248|232:200,1,60,0|8
200,184,134752,2,0,B|144:128|184:64,1,120
224,32,135460,1,8
328,88,135933,5,0
376,120,136169,2,0,B|408:80,2,30,0|0|8
424,152,136641,1,4
432,208,136878,6,0,B|488:208,2,30
432,264,137350,1,8
384,304,137586,1,8
320,304,137822,2,0,B|328:256,2,30
256,304,138295,1,8
192,304,138531,2,0,B|184:344,2,30
128,304,139004,1,8
64,304,139240,1,8
64,240,139476,2,0,B|96:240,2,30
56,176,139948,2,0,B|16:176,2,30,0|0|8
112,184,140421,6,0,B|168:208|232:160,1,120
248,104,141130,2,0,B|296:112|312:160,1,60,8|0
264,184,141602,1,0
232,232,141838,1,0
288,240,142074,2,0,B|360:232|408:264,1,120,8|0
400,320,142783,1,0
336,320,143019,2,0,B|344:280,2,30,8|0|0
272,320,143492,1,0
208,320,143728,2,0,B|224:272,2,30,0|0|8
112,248,144437,5,0
72,200,144673,1,0
48,144,144909,1,8
48,80,145145,1,0
104,56,145382,2,0,B|128:112|216:96,1,120,0|8
248,56,146090,1,0
304,72,146326,2,0,B|352:40|432:104,1,120,0|8
472,112,147035,1,0
480,168,147271,2,0,B|472:240|408:280,1,120,0|8
360,288,147980,6,0,B|360:328,2,30
296,280,148452,1,0
232,272,148689,2,0,B|248:232,2,30,8|0|0
176,256,149161,1,4
88,168,149634,1,8
88,168,149870,1,4
200,120,150342,1,4
200,120,150578,1,8
200,120,150815,2,0,B|264:120|296:192,1,120,4|0
352,192,151523,6,0,B|352:240,2,30,8|0|0
408,192,151996,1,0
464,192,152232,2,0,B|464:240,2,30,0|0|8
344,192,152941,1,4
480,56,186011,6,0,B|480:96,2,30
416,56,186484,2,2,B|352:56,1,60
296,56,186956,2,0,B|296:96,2,30
232,56,187429,1,2
168,56,187665,2,0,B|168:96,2,30
104,56,188137,1,2
104,112,188374,2,0,B|48:112,2,30
104,168,188846,1,4
112,344,189555,5,2
168,344,189791,1,0
224,344,190027,1,2
280,344,190263,1,0
336,344,190500,1,2
392,344,190736,1,0
392,224,191208,6,2,B|440:224,2,30
392,168,191681,2,0,B|392:104,1,60
392,48,192153,2,2,B|432:48,2,30
328,48,192626,2,0,B|248:48,1,60
208,48,193098,1,4
88,48,193571,5,2
48,88,193807,2,0,B|24:160|48:224,1,120
56,264,194515,1,2
104,296,194752,2,0,B|144:328|224:336,2,120,0|2|0
120,240,195933,1,2
168,208,196169,2,0,B|200:168|272:128,1,120
320,128,196878,1,2
280,80,197114,6,0,B|240:24|160:48,1,120
120,64,197822,2,2,B|88:72|56:120,1,60
56,152,198295,1,2
56,208,198531,2,0,B|56:272|128:312,2,120,0|2|0
112,200,199712,5,4
168,200,199948,1,4
224,200,200185,2,0,B|224:264|288:320,2,120,0|4|4
344,192,201602,5,4
464,192,202074,2,0,B|464:144,2,30
464,248,202547,2,0,B|480:336|392:328,1,120
344,328,203256,2,0,B|344:288,2,30
280,328,203728,2,0,B|232:328,1,30,2|2
192,328,204082,2,0,B|152:328,1,30,2|2
128,280,204437,1,4
96,232,204673,5,0
56,272,204909,2,0,B|32:232|56:152,1,120
88,104,205618,2,0,B|120:128,2,30
112,48,206090,1,8
168,40,206326,1,8
224,40,206563,2,0,B|224:80,2,30
280,40,207035,1,8
336,40,207271,2,0,B|408:40,1,60
456,40,207744,2,0,B|456:88,1,30,2|2
456,128,208098,2,0,B|400:128,1,30,2|2
464,240,208689,6,0,B|464:320|392:328,1,120
376,272,209397,1,0
336,312,209634,2,0,B|280:312,1,30,2|2
248,312,209988,2,0,B|192:312,1,30,2|2
200,256,210342,1,8
232,208,210578,1,8
264,160,210815,2,0,B|312:160,1,30,2|2
352,160,211169,2,0,B|400:160,1,30,2|2
440,160,211523,1,8
464,104,211760,1,8
360,40,212232,6,0,B|296:16|232:32,1,120
184,48,212941,1,4
192,104,213177,2,0,B|240:80|328:96,1,120
368,104,213885,1,4
360,160,214122,2,0,B|296:128|232:152,1,120
184,160,214830,1,4
184,216,215067,6,8,B|184:256,1,30
184,304,215421,2,8,B|224:304,1,30
272,304,215775,1,4
328,304,216011,1,4
384,304,216248,2,8,B|432:304,1,30
464,304,216602,2,8,B|464:248,1,30
464,216,216956,1,4
464,155,217193,1,4
