osu file format v12

[General]
AudioFilename: Anna - Hoshi no Kakera.mp3
AudioLeadIn: 1996
PreviewTime: 51681
Countdown: 0
SampleSet: Normal
StackLeniency: 0.8
Mode: 0
LetterboxInBreaks: 1

[Editor]
Bookmarks: 14235,31286,52221,83084,97149,113984,134703,166214,171394,198157,212185,248660
DistanceSpacing: 1.2
BeatDivisor: 4
GridSize: 4

[Metadata]
Title:Hoshi no Kakera
TitleUnicode:星のカケラ
Artist:Anna
ArtistUnicode:Anna
Creator:abalee
Version:Full LOVE
Source:To LOVE Ru Doki Doki Rinkai Gakkou Hen
Tags:Helldawn
BeatmapID:119921
BeatmapSetID:35944

[Difficulty]
HPDrainRate:8
CircleSize:5
OverallDifficulty:8
ApproachRate:8
SliderMultiplier:1.5
SliderTickRate:1

[Events]
//Background and Video events
0,0,"BG.jpg",0,0
//Break Periods
2,83537,96399
2,171593,184457
2,199020,205176
2,245839,248384
//Storyboard Layer 0 (Background)
//Storyboard Layer 1 (Fail)
//Storyboard Layer 2 (Pass)
//Storyboard Layer 3 (Foreground)
//Storyboard Sound Samples
//Background Colour Transformations
3,100,163,162,255

[TimingPoints]
423,431.654676258993,4,1,1,70,1,0
7221,-100,4,1,1,60,0,0
7437,-100,4,1,1,70,0,0
27725,-100,4,1,1,60,0,0
27940,-100,4,1,1,70,0,0
80602,-200,4,1,1,70,0,0
81466,-100,4,1,1,70,0,0
83337,431.654676258993,4,2,0,50,1,0
83444,-100,4,2,0,70,0,0
103301,-100,4,1,1,70,0,0
113337,-100,4,1,1,70,0,0
113552,-100,4,1,1,55,0,0
113768,-100,4,1,1,40,0,0
114092,-100,4,1,1,70,0,0
171394,-100,4,1,1,56,0,0
171610,-100,4,1,1,70,0,0
205711,-100,4,1,1,70,0,0
206142,-100,4,1,1,75,0,0
206574,-100,4,1,1,80,0,0
207006,-100,4,1,1,85,0,0
207437,-100,4,1,1,90,0,0
207869,-100,4,1,1,95,0,0
208301,-100,4,1,1,100,0,0
208732,-100,4,1,1,95,0,0
209164,-100,4,1,1,90,0,0
209595,-100,4,1,1,85,0,0
210027,-100,4,1,1,60,0,0
210459,-100,4,1,1,50,0,0
210998,-200,4,1,1,70,0,0
211430,-200,4,1,1,5,0,0
211646,-200,4,1,1,60,0,0
212078,-100,4,1,1,70,0,0
249134,431.654676258993,4,1,1,70,1,0

[Colours]
Combo1 : 85,85,255
Combo2 : 255,128,255
Combo3 : 255,255,255

[HitObjects]
116,44,423,1,0,0:0:0:0:
80,124,638,1,0,0:0:0:0:
168,112,854,2,0,B|320:112,1,150,8|0,0:0|0:0,0:0:0:0:
396,276,1502,1,0,0:0:0:0:
444,200,1717,1,8,0:0:0:0:
356,192,1933,2,0,B|200:192,1,150,0|0,0:0|0:0,0:0:0:0:
206,192,2473,1,0,0:0:0:0:
206,192,2581,1,8,0:0:0:0:
160,268,2797,1,0,0:0:0:0:
160,268,2905,1,0,0:0:0:0:
160,268,3012,2,0,B|332:268,1,150,0|8,0:0|0:0,0:0:0:0:
310,268,3660,1,0,0:0:0:0:
400,112,3876,6,0,B|304:112,2,75,0|0|8,0:0|0:0|0:0,0:0:0:0:
492,112,4523,1,0,0:0:0:0:
444,188,4739,2,0,B|444:284,2,75,0|0|8,0:0|0:0|0:0,0:0:0:0:
344,40,5387,2,0,B|180:40,1,150
152,120,6034,2,0,B|308:120,1,150,8|0,0:0|0:0,0:0:0:0:
344,200,6681,1,0,0:0:0:0:
344,200,6789,1,0,0:0:0:0:
344,200,6897,1,0,0:0:0:0:
384,120,7113,1,0,0:0:0:0:
304,284,7329,6,0,B|204:284,1,75,4|0,0:0|0:0,0:0:0:0:
260,200,7761,2,0,B|100:200,1,150,8|0,0:0|0:0,0:0:0:0:
148,116,8408,2,0,B|48:116,1,75,0|8,0:0|0:0,0:0:0:0:
248,116,8840,1,0,0:0:0:0:
340,116,9056,2,0,B|440:116,1,75
492,160,9487,1,8,0:0:0:0:
436,232,9703,1,0,0:0:0:0:
436,232,9811,1,0,0:0:0:0:
436,232,9919,1,0,0:0:0:0:
356,192,10135,2,0,B|264:192,2,75,0|8|0,0:0|0:0|0:0,0:0:0:0:
176,192,10782,5,0,0:0:0:0:
252,240,10998,1,0,0:0:0:0:
180,276,11214,2,0,B|32:276,1,150,8|0,0:0|0:0,0:0:0:0:
64,192,11861,2,0,B|144:192,1,75,0|8,0:0|0:0,0:0:0:0:
320,192,12293,1,0,0:0:0:0:
228,192,12509,2,0,B|228:36,1,150,0|8,0:0|0:0,0:0:0:0:
320,44,13156,1,0,0:0:0:0:
320,44,13264,1,0,0:0:0:0:
320,44,13372,2,0,B|400:44,1,75
352,124,13804,2,0,B|436:124,1,75,8|0,0:0|0:0,0:0:0:0:
248,124,14235,6,0,B|212:204|256:272,1,150,4|8,0:0|0:0,0:0:0:0:
312,336,14883,1,0,0:0:0:0:
312,336,15099,2,0,B|396:336,2,75,0|0|8,0:0|0:0|0:0,0:0:0:0:
220,336,15746,2,0,B|64:336,1,150
112,256,16394,2,0,B|260:256,1,150,8|0,0:0|0:0,0:0:0:0:
216,180,17041,2,0,B|124:180,1,75,0|8,0:0|0:0,0:0:0:0:
320,180,17473,6,0,B|280:100|336:20,1,150
236,40,18120,2,0,B|156:40,1,75,8|0,0:0|0:0,0:0:0:0:
88,92,18552,1,0,0:0:0:0:
140,164,18768,1,0,0:0:0:0:
212,112,18984,1,8,0:0:0:0:
64,212,19199,2,0,B|84:288|188:308,1,150
264,312,19847,2,0,B|264:260|296:224,1,75,8|0,0:0|0:0,0:0:0:0:
364,200,20279,1,0,0:0:0:0:
364,200,20387,1,0,0:0:0:0:
288,156,20602,1,0,0:0:0:0:
288,156,20710,1,8,0:0:0:0:
440,248,20926,6,0,B|440:328,2,75,4|0|0,0:0|0:0|0:0,0:0:0:0:
440,156,21574,2,0,B|440:76,2,75,8|0|0,0:0|0:0|0:0,0:0:0:0:
364,200,22221,2,0,B|276:168,1,75,0|8,0:0|0:0,0:0:0:0:
316,260,22653,2,0,B|160:204,1,150
92,176,23300,1,8,0:0:0:0:
156,112,23516,1,0,0:0:0:0:
216,44,23732,1,0,0:0:0:0:
124,44,23948,1,0,0:0:0:0:
32,44,24164,1,8,0:0:0:0:
216,44,24379,6,0,B|240:128|336:128,1,150
326,127,25027,1,8,0:0:0:0:
448,260,25243,2,0,B|420:336|324:336,1,150
330,335,25890,1,8,0:0:0:0:
208,208,26106,2,0,B|176:124|76:124,1,150
94,124,26753,1,8,0:0:0:0:
244,24,26969,2,0,B|176:24|124:92,2,112.5,0|0|8,0:0|0:0|0:0,0:0:0:0:
416,84,27833,6,0,B|392:168|296:168,1,150,4|0,0:0|0:0,0:0:0:0:
305,167,28480,1,8,0:0:0:0:
148,256,28696,2,0,B|176:336|264:336,1,150
262,335,29343,1,8,0:0:0:0:
436,284,29559,2,0,B|412:200|316:200,1,150
325,200,30207,1,8,0:0:0:0:
184,88,30422,2,0,B|212:136,1,37.5
164,204,30746,2,0,B|216:176,1,37.5
120,140,31070,1,8,0:0:0:0:
232,284,31286,6,0,B|400:284,1,150,4|0,0:0|0:0,0:0:0:0:
472,284,31933,1,8,0:0:0:0:
424,208,32149,1,0,0:0:0:0:
424,208,32257,1,0,0:0:0:0:
424,208,32365,1,0,0:0:0:0:
380,132,32581,1,0,0:0:0:0:
380,132,32689,1,0,0:0:0:0:
380,132,32797,2,0,B|292:104,1,75,8|0,0:0|0:0,0:0:0:0:
224,140,33228,1,0,0:0:0:0:
272,216,33444,2,0,B|356:244,1,75,0|8,0:0|0:0,0:0:0:0:
492,136,33876,6,0,B|464:56|384:28,1,150
391,30,34523,1,8,0:0:0:0:
424,208,34739,2,0,B|344:180|320:96,1,150,4|0,0:0|0:0,0:0:0:0:
292,20,35387,2,0,B|248:40|240:88,1,75,8|0,0:0|0:0,0:0:0:0:
252,164,35818,2,0,B|220:240|132:244,1,150,0|8,0:0|0:0,0:0:0:0:
124,152,36466,1,0,0:0:0:0:
36,168,36681,1,0,0:0:0:0:
48,256,36897,1,0,0:0:0:0:
136,244,37113,1,8,0:0:0:0:
124,152,37329,2,0,B|148:84|240:56,1,150,0|0,0:0|0:0,0:0:0:0:
233,57,37976,1,8,0:0:0:0:
296,228,38192,6,0,B|280:312|188:336,1,150,4|0,0:0|0:0,0:0:0:0:
199,332,38840,1,8,0:0:0:0:
132,272,39056,2,0,B|56:272,1,75
96,192,39487,1,0,0:0:0:0:
96,192,39703,2,0,B|192:192,1,75,8|0,0:0|0:0,0:0:0:0:
132,108,40135,2,0,B|224:108,2,75,0|0|8,0:0|0:0|0:0,0:0:0:0:
312,108,40782,2,0,B|464:108,1,150
462,108,41430,1,8,0:0:0:0:
312,208,41646,6,0,B|152:208,1,150,4|0,0:0|0:0,0:0:0:0:
124,128,42293,2,0,B|199:128,1,75,8|0,0:0|0:0,0:0:0:0:
240,48,42725,2,0,B|90:48,1,150,0|8,0:0|0:0,0:0:0:0:
90,48,43372,1,0,0:0:0:0:
160,208,43588,2,0,B|320:208,1,150,4|8,0:0|0:0,0:0:0:0:
360,284,44235,2,0,B|272:284,1,75
204,324,44667,5,0,0:0:0:0:
280,372,44883,1,8,0:0:0:0:
284,284,45099,1,0,0:0:0:0:
456,56,45530,5,0,0:0:0:0:
376,96,45746,1,8,0:0:0:0:
452,144,45962,1,0,0:0:0:0:
160,96,46394,5,0,0:0:0:0:
80,136,46610,1,8,0:0:0:0:
236,44,46825,2,0,B|284:112|256:200,1,150,4|0,0:0|0:0,0:0:0:0:
184,236,47473,1,8,0:0:0:0:
248,300,47689,1,0,0:0:0:0:
324,252,47905,1,0,0:0:0:0:
260,188,48120,1,0,0:0:0:0:
392,312,48336,1,8,0:0:0:0:
392,312,48552,6,0,B|472:272|460:172,1,150,4|0,0:0|0:0,0:0:0:0:
384,144,49199,2,0,B|352:120|352:76,2,75,8|0|0,0:0|0:0|0:0,0:0:0:0:
448,80,49847,1,0,0:0:0:0:
448,80,49955,1,0,0:0:0:0:
448,80,50063,1,0,0:0:0:0:
320,204,50279,2,0,B|256:148|272:68,1,150,4|0,0:0|0:0,0:0:0:0:
271,69,50926,1,0,0:0:0:0:
271,69,51789,5,0,0:0:0:0:
188,100,52005,1,0,0:0:0:0:
252,160,52221,2,0,B|340:160,2,75,4|0|8,0:0|0:0|0:0,0:0:0:0:
192,228,52869,1,0,0:0:0:0:
128,164,53084,2,0,B|40:164,1,75
24,248,53516,2,0,B|116:248,1,75,8|0,0:0|0:0,0:0:0:0:
88,80,53948,2,0,B|188:80,1,75
208,80,54271,1,0,0:0:0:0:
252,80,54379,1,8,0:0:0:0:
276,168,54595,1,0,0:0:0:0:
252,256,54811,2,0,B|344:256,1,75,0|0,0:0|0:0,0:0:0:0:
372,256,55135,1,0,0:0:0:0:
416,256,55243,1,8,0:0:0:0:
436,168,55458,5,0,0:0:0:0:
396,344,55674,2,0,B|240:344,1,150,0|8,0:0|0:0,0:0:0:0:
246,344,56322,1,0,0:0:0:0:
80,276,56538,1,0,0:0:0:0:
196,140,56753,1,0,0:0:0:0:
360,208,56969,1,8,0:0:0:0:
244,344,57185,1,0,0:0:0:0:
246,344,57401,2,0,B|420:344,1,150,0|8,0:0|0:0,0:0:0:0:
440,264,58048,1,0,0:0:0:0:
360,208,58264,1,0,0:0:0:0:
320,288,58480,5,0,0:0:0:0:
320,288,58588,1,0,0:0:0:0:
320,288,58696,2,0,B|240:288,1,75,8|0,0:0|0:0,0:0:0:0:
156,288,59128,2,0,B|60:288,2,75,4|0|8,0:0|0:0|0:0,0:0:0:0:
204,212,59775,1,0,0:0:0:0:
204,212,59991,2,0,B|204:124,1,75
204,48,60423,1,8,0:0:0:0:
116,48,60638,1,0,0:0:0:0:
296,48,60854,2,0,B|388:56|404:144,1,150,0|8,0:0|0:0,0:0:0:0:
402,136,61502,1,0,0:0:0:0:
320,156,61717,2,0,B|256:216|300:292,1,150,0|8,0:0|0:0,0:0:0:0:
299,291,62365,5,0,0:0:0:0:
476,252,62581,1,0,0:0:0:0:
320,156,62797,1,0,0:0:0:0:
144,200,63012,1,8,0:0:0:0:
300,292,63228,1,0,0:0:0:0:
300,292,63444,5,0,0:0:0:0:
310,223,63876,1,8,0:0:0:0:
320,156,64307,1,8,0:0:0:0:
332,88,64739,1,8,0:0:0:0:
344,20,65171,1,8,0:0:0:0:
436,20,65387,6,0,B|484:20,2,37.5
344,20,65818,1,0,0:0:0:0:
252,20,66034,2,0,B|152:20,2,75,4|0|8,0:0|0:0|0:0,0:0:0:0:
240,108,66681,1,0,0:0:0:0:
224,196,66897,2,0,B|52:196,1,150,0|8,0:0|0:0,0:0:0:0:
64,284,67545,1,0,0:0:0:0:
88,108,67761,2,0,B|264:108,1,150,0|8,0:0|0:0,0:0:0:0:
328,108,68408,1,0,0:0:0:0:
328,108,68624,2,0,B|416:108,1,75
404,196,69056,6,0,B|308:196,1,75,8|0,0:0|0:0,0:0:0:0:
496,196,69487,2,0,B|500:284|412:320,1,150,0|8,0:0|0:0,0:0:0:0:
422,315,70135,1,0,0:0:0:0:
400,152,70351,1,0,0:0:0:0:
256,72,70566,1,0,0:0:0:0:
112,152,70782,1,8,0:0:0:0:
89,315,70998,1,0,0:0:0:0:
256,312,71214,2,0,B|268:232|232:216|264:140,1,150,0|8,0:0|0:0,0:0:0:0:
256,72,71861,1,0,0:0:0:0:
212,152,72077,1,0,0:0:0:0:
304,152,72293,5,0,0:0:0:0:
348,152,72401,1,0,0:0:0:0:
392,152,72509,2,0,B|480:152,1,75,8|0,0:0|0:0,0:0:0:0:
432,236,72940,2,0,B|372:280|280:244,1,150,4|0,0:0|0:0,0:0:0:0:
236,320,73588,1,0,0:0:0:0:
304,152,73804,1,0,0:0:0:0:
124,152,74020,1,0,0:0:0:0:
56,320,74235,1,8,0:0:0:0:
236,320,74451,1,0,0:0:0:0:
304,152,74667,2,0,B|328:80|424:80,1,150,0|8,0:0|0:0,0:0:0:0:
356,248,75315,1,0,0:0:0:0:
356,248,75530,2,0,B|324:320|224:320,1,150,0|8,0:0|0:0,0:0:0:0:
264,236,76178,5,0,0:0:0:0:
264,236,76394,2,0,B|256:144,1,75,4|0,0:0|0:0,0:0:0:0:
172,184,76825,2,0,B|192:108,1,75,8|0,0:0|0:0,0:0:0:0:
248,40,77257,2,0,B|328:12|412:48,1,150,0|8,0:0|0:0,0:0:0:0:
264,344,78120,2,0,B|184:372|100:336,2,150,0|8|0,0:0|0:0|0:0,0:0:0:0:
148,208,79415,6,0,B|148:128,1,75
220,236,79847,6,0,B|220:152,1,75,4|0,0:0|0:0,0:0:0:0:
292,204,80279,6,0,B|292:116,1,75
360,232,80710,6,0,B|360:152,1,75
256,192,81574,12,4,83337,0:0:0:0:
304,320,97149,6,0,B|396:340|428:248,1,150,4|0,0:0|0:0,0:0:0:0:
428,168,97797,1,0,0:0:0:0:
396,84,98013,1,0,0:0:0:0:
324,32,98229,2,0,B|236:28|208:112,2,150
320,124,99308,1,0,0:0:0:0:
288,208,99524,1,0,0:0:0:0:
216,260,99739,1,0,0:0:0:0:
128,284,99955,2,0,B|48:248|72:148,1,150,0|0,0:0|0:0,0:0:0:0:
100,76,100603,6,0,B|168:24|248:64,1,150,0|0,0:0|0:0,0:0:0:0:
208,144,101250,1,0,0:0:0:0:
216,232,101466,1,0,0:0:0:0:
260,312,101682,2,0,B|332:360|420:328,2,150
308,236,102761,1,0,0:0:0:0:
392,200,102977,1,0,0:0:0:0:
484,196,103193,1,0,0:0:0:0:
436,120,103408,1,0,0:0:0:0:
436,120,103624,1,0,0:0:0:0:
360,284,103840,6,0,B|300:332|212:292,1,150,4|0,0:0|0:0,0:0:0:0:
132,264,104488,2,0,B|56:288,1,75,8|0,0:0|0:0,0:0:0:0:
192,208,104919,2,0,B|224:120,2,75,0|0|8,0:0|0:0|0:0,0:0:0:0:
104,180,105567,2,0,B|36:128|72:40,1,150
160,44,106214,2,0,B|235:44,1,75,8|0,0:0|0:0,0:0:0:0:
399,44,106646,2,0,B|324:44,2,75,0|0|8,0:0|0:0|0:0,0:0:0:0:
489,44,107293,6,0,B|481:120|381:136,1,150
385,135,107941,1,8,0:0:0:0:
208,112,108157,2,0,B|216:188|316:204,1,150
311,203,108804,1,8,0:0:0:0:
168,312,109020,2,0,B|160:236|60:220,1,150
64,221,109667,1,8,0:0:0:0:
180,84,109883,2,0,B|296:84,1,112.5
336,84,110315,1,0,0:0:0:0:
384,160,110531,5,8,0:0:0:0:
384,160,110639,1,0,0:0:0:0:
384,160,110747,2,0,B|476:160,2,75,4|0|0,0:0|0:0|0:0,0:0:0:0:
432,84,111394,1,8,0:0:0:0:
340,240,111610,2,0,B|256:240,2,75
388,316,112257,1,8,0:0:0:0:
300,160,112473,2,0,B|396:160,2,75
228,328,113121,1,8,0:0:0:0:
268,244,113336,1,0,0:0:0:0:
252,244,113444,1,0,0:0:0:0:
236,244,113552,1,0,0:0:0:0:
220,244,113660,1,0,0:0:0:0:
204,244,113768,1,0,0:0:0:0:
188,244,113876,1,0,0:0:0:0:
172,244,113984,1,8,0:0:0:0:
148,64,114200,6,0,B|304:64,1,150,4|0,0:0|0:0,0:0:0:0:
256,144,114847,1,8,0:0:0:0:
164,144,115063,1,0,0:0:0:0:
344,144,115279,2,0,B|408:192|408:280,1,150,0|8,0:0|0:0,0:0:0:0:
496,260,115926,1,0,0:0:0:0:
328,324,116142,1,0,0:0:0:0:
344,144,116358,1,0,0:0:0:0:
192,48,116574,1,8,0:0:0:0:
80,188,116790,2,0,B|88:276|184:304,1,150
256,304,117437,1,8,0:0:0:0:
416,216,117653,6,0,B|448:304|368:348,1,150,4|0,0:0|0:0,0:0:0:0:
336,264,118301,2,0,B|280:192,1,75,8|0,0:0|0:0,0:0:0:0:
232,136,118732,1,0,0:0:0:0:
232,136,118840,1,0,0:0:0:0:
232,136,118948,1,0,0:0:0:0:
184,60,119164,1,12,0:0:0:0:
276,60,119380,1,0,0:0:0:0:
180,212,119595,1,0,0:0:0:0:
180,212,119811,2,0,B|80:212,1,75,0|8,0:0|0:0,0:0:0:0:
16,212,120243,2,0,B|-8:128|24:64,1,150,4|0,0:0|0:0,0:0:0:0:
112,68,120890,5,8,0:0:0:0:
284,124,121106,2,0,B|268:208|180:212,1,150,4|0,0:0|0:0,0:0:0:0:
188,120,121754,1,8,0:0:0:0:
240,48,121970,1,0,0:0:0:0:
328,44,122185,2,0,B|404:64|412:168,1,150,0|8,0:0|0:0,0:0:0:0:
500,132,122833,1,0,0:0:0:0:
324,172,123049,1,0,0:0:0:0:
448,304,123265,1,0,0:0:0:0:
272,332,123480,1,8,0:0:0:0:
140,208,123696,6,0,B|84:144|120:68,1,150
32,48,124344,1,8,0:0:0:0:
204,96,124560,2,0,B|236:164|332:172,1,150,4|0,0:0|0:0,0:0:0:0:
416,164,125207,2,0,B|436:80,2,75,8|0|0,0:0|0:0|0:0,0:0:0:0:
396,252,125854,2,0,B|376:328,1,75,0|8,0:0|0:0,0:0:0:0:
456,372,126286,1,0,0:0:0:0:
280,336,126502,1,4,0:0:0:0:
192,312,126718,2,0,B|104:284,1,75,0|8,0:0|0:0,0:0:0:0:
52,124,127149,2,0,B|8:196|44:280,1,150
104,204,127797,5,8,0:0:0:0:
120,292,128013,1,0,0:0:0:0:
484,100,128444,1,0,0:0:0:0:
444,180,128660,1,8,0:0:0:0:
432,268,128876,1,0,0:0:0:0:
92,48,129308,1,0,0:0:0:0:
12,24,129524,1,8,0:0:0:0:
160,96,129739,2,0,B|204:168|292:156,1,150,4|0,0:0|0:0,0:0:0:0:
313,304,130387,2,0,B|332:232,1,75,8|0,0:0|0:0,0:0:0:0:
404,180,130819,2,0,B|380:88,1,75
424,284,131250,1,8,0:0:0:0:
424,284,131466,2,0,B|392:352|292:356,1,150,4|0,0:0|0:0,0:0:0:0:
212,360,132113,6,0,B|184:268,1,75,8|0,0:0|0:0,0:0:0:0:
104,312,132545,2,0,B|72:224,1,75
64,200,132869,1,0,0:0:0:0:
48,156,132977,1,8,0:0:0:0:
204,64,133193,2,0,B|150:7|64:49,1,150,4|0,0:0|0:0,0:0:0:0:
128,112,133840,2,0,B|196:176|272:124,1,150,8|0,0:0|0:0,0:0:0:0:
348,96,134488,5,0,0:0:0:0:
348,96,134595,1,0,0:0:0:0:
348,96,134703,1,8,0:0:0:0:
436,80,134919,1,0,0:0:0:0:
480,160,135135,2,0,B|472:248|388:284,1,150,4|8,0:0|0:0,0:0:0:0:
444,356,135783,1,0,0:0:0:0:
360,196,135998,2,0,B|288:232|292:328,1,150,0|8,0:0|0:0,0:0:0:0:
128,244,136646,1,0,0:0:0:0:
208,284,136862,2,0,B|228:200|160:136,1,150,0|8,0:0|0:0,0:0:0:0:
108,76,137509,1,0,0:0:0:0:
108,76,137725,2,0,B|268:76,1,150,0|8,0:0|0:0,0:0:0:0:
348,76,138372,5,0,0:0:0:0:
348,76,138588,2,0,B|444:76,1,75
476,152,139020,2,0,B|384:152,1,75,8|0,0:0|0:0,0:0:0:0:
401,152,139452,1,0,0:0:0:0:
296,296,139667,1,0,0:0:0:0:
132,224,139883,1,8,0:0:0:0:
236,80,140099,1,0,0:0:0:0:
401,152,140315,2,0,B|488:152,2,75,0|0|8,0:0|0:0|0:0,0:0:0:0:
312,152,140962,2,0,B|224:152,2,75
360,228,141610,5,8,0:0:0:0:
268,228,141826,1,0,0:0:0:0:
448,228,142042,2,0,B|448:312|352:340,1,150,4|8,0:0|0:0,0:0:0:0:
361,336,142689,1,0,0:0:0:0:
404,160,142905,1,0,0:0:0:0:
256,56,143121,1,0,0:0:0:0:
108,160,143336,1,8,0:0:0:0:
144,336,143552,1,0,0:0:0:0:
268,196,143768,2,0,B|312:120,1,75
244,196,144200,2,0,B|196:116,1,75,8|0,0:0|0:0,0:0:0:0:
256,56,144631,1,0,0:0:0:0:
336,100,144847,6,0,B|388:100,2,37.5,0|0|8,0:0|0:0|0:0,0:0:0:0:
256,56,145279,1,0,0:0:0:0:
176,100,145495,1,0,0:0:0:0:
300,228,145711,1,0,0:0:0:0:
160,340,145926,1,8,0:0:0:0:
36,212,146142,1,0,0:0:0:0:
176,100,146358,5,0,0:0:0:0:
172,160,146790,1,8,0:0:0:0:
168,220,147221,1,8,0:0:0:0:
164,280,147653,1,8,0:0:0:0:
160,340,148085,1,8,0:0:0:0:
68,340,148301,6,0,B|20:340,2,37.5,0|0|8,0:0|0:0|0:0,0:0:0:0:
160,340,148732,1,0,0:0:0:0:
252,340,148948,2,0,B|344:340,2,75,4|0|8,0:0|0:0|0:0,0:0:0:0:
232,252,149595,1,0,0:0:0:0:
188,76,149811,2,0,B|104:76,2,75,0|0|8,0:0|0:0|0:0,0:0:0:0:
208,164,150459,1,0,0:0:0:0:
364,76,150675,2,0,B|444:76,2,75,0|0|8,0:0|0:0|0:0,0:0:0:0:
288,124,151322,1,0,0:0:0:0:
288,124,151538,2,0,B|128:124,1,150,0|8,0:0|0:0,0:0:0:0:
48,124,152185,5,0,0:0:0:0:
48,124,152401,2,0,B|0:192|48:272,1,150,0|8,0:0|0:0,0:0:0:0:
44,265,153049,1,0,0:0:0:0:
208,340,153265,1,0,0:0:0:0:
180,164,153480,1,0,0:0:0:0:
340,244,153696,1,8,0:0:0:0:
320,64,153912,1,0,0:0:0:0:
484,136,154128,2,0,B|484:224,2,75,0|0|8,0:0|0:0|0:0,0:0:0:0:
484,45,154775,1,0,0:0:0:0:
484,45,154991,2,0,B|352:45,1,112.5
326,45,155423,5,8,0:0:0:0:
235,45,155639,1,0,0:0:0:0:
308,212,155854,2,0,B|148:212,1,150,4|8,0:0|0:0,0:0:0:0:
196,132,156502,1,0,0:0:0:0:
120,296,156718,1,0,0:0:0:0:
300,312,156934,1,0,0:0:0:0:
376,148,157149,1,8,0:0:0:0:
196,132,157365,1,0,0:0:0:0:
120,296,157581,2,0,B|148:368|236:376,1,150,0|8,0:0|0:0,0:0:0:0:
340,232,158229,1,0,0:0:0:0:
196,132,158444,2,0,B|163:60|78:49,1,150,0|8,0:0|0:0,0:0:0:0:
56,136,159092,5,0,0:0:0:0:
40,224,159308,2,0,B|24:316,1,75,4|0,0:0|0:0,0:0:0:0:
128,208,159739,2,0,B|112:288,1,75,8|0,0:0|0:0,0:0:0:0:
212,192,160171,1,0,0:0:0:0:
204,224,160603,1,8,0:0:0:0:
192,260,161035,2,0,B|208:340,1,75
288,376,161466,2,0,B|380:356,1,75,8|0,0:0|0:0,0:0:0:0:
361,360,161790,1,0,0:0:0:0:
361,360,161898,1,0,0:0:0:0:
448,336,162113,1,0,0:0:0:0:
424,248,162329,6,0,B|404:160,1,75,8|0,0:0|0:0,0:0:0:0:
344,236,162761,2,0,B|324:152,1,75
268,224,163193,2,0,B|248:140,1,75,8|0,0:0|0:0,0:0:0:0:
188,208,163624,1,0,0:0:0:0:
184,176,164056,1,0,0:0:0:0:
180,144,164488,6,0,B|100:168|24:132,1,150,4|8,0:0|0:0,0:0:0:0:
64,268,165243,1,0,0:0:0:0:
64,268,165351,2,0,B|36:364,1,75
132,340,165783,1,8,0:0:0:0:
132,340,165998,2,0,B|292:340,1,150,4|0,0:0|0:0,0:0:0:0:
372,340,166646,2,0,B|412:260|372:180,1,150,8|0,0:0|0:0,0:0:0:0:
292,168,167293,5,0,0:0:0:0:
344,96,167509,1,8,0:0:0:0:
432,120,167725,1,0,0:0:0:0:
378,195,167941,2,0,B|412:260|372:340,1,150,4|8,0:0|0:0,0:0:0:0:
268,252,168696,1,0,0:0:0:0:
268,252,168804,2,0,B|172:240,1,75
104,236,169236,1,8,0:0:0:0:
104,236,169452,2,0,B|60:160|104:72,1,150,4|0,0:0|0:0,0:0:0:0:
184,116,170099,2,0,B|267:136,1,75,8|0,0:0|0:0,0:0:0:0:
347,132,170531,2,8,B|439:108,2,75,0|0|8,0:0|0:0|0:0,0:0:0:0:
299,208,171178,2,0,B|299:252,2,37.5,0|0|4,0:0|0:0|0:0,0:0:0:0:
384,104,185207,6,0,B|236:104,1,150,0|8,0:0|0:0,0:0:0:0:
140,256,186070,2,0,B|48:256,2,75,0|0|8,0:0|0:0|0:0,0:0:0:0:
232,256,186718,1,0,0:0:0:0:
232,256,186934,2,0,B|388:256,1,150,0|8,0:0|0:0,0:0:0:0:
232,156,187797,1,0,0:0:0:0:
232,156,187905,1,0,0:0:0:0:
140,156,188121,1,0,0:0:0:0:
140,156,188229,1,8,0:0:0:0:
52,156,188444,1,0,0:0:0:0:
52,156,188660,1,4,0:0:0:0:
52,336,189092,5,8,0:0:0:0:
228,340,189524,2,0,B|324:340,1,75
344,260,189955,2,0,B|260:260,1,75,8|0,0:0|0:0,0:0:0:0:
228,180,190387,2,0,B|400:180,1,150,0|8,0:0|0:0,0:0:0:0:
228,80,191250,1,0,0:0:0:0:
228,80,191358,1,0,0:0:0:0:
228,80,191466,1,0,0:0:0:0:
136,80,191682,6,0,B|52:80,1,75,8|0,0:0|0:0,0:0:0:0:
61,80,192113,2,0,B|16:156|72:236,1,150,4|8,0:0|0:0,0:0:0:0:
243,222,192977,1,0,0:0:0:0:
243,222,193193,1,0,0:0:0:0:
332,222,193408,2,0,B|501:224,2,150,8|4|0,0:0|0:0|0:0,0:0:0:0:
152,220,194703,1,0,0:0:0:0:
152,220,194811,1,0,0:0:0:0:
60,220,195027,1,0,0:0:0:0:
60,220,195135,1,8,0:0:0:0:
104,300,195351,5,0,0:0:0:0:
104,300,195567,2,0,B|252:300,1,150,4|8,0:0|0:0,0:0:0:0:
344,300,196214,1,0,0:0:0:0:
344,300,196430,2,0,B|380:224|328:144,1,150,4|8,0:0|0:0,0:0:0:0:
245,156,197078,2,0,B|85:156,1,150,4|4,0:0|0:0,0:0:0:0:
95,156,197725,1,4,0:0:0:0:
240,108,205926,5,0,0:0:0:0:
120,216,206358,1,0,0:0:0:0:
272,276,206790,1,0,0:0:0:0:
392,168,207221,1,0,0:0:0:0:
248,72,207653,5,0,0:0:0:0:
80,204,208085,1,0,0:0:0:0:
264,312,208516,1,0,0:0:0:0:
432,180,208948,1,0,0:0:0:0:
256,32,209380,5,0,0:0:0:0:
44,196,209811,1,0,0:0:0:0:
256,352,210243,1,0,0:0:0:0:
468,196,210675,1,0,0:0:0:0:
256,60,211106,2,0,B|104:60,1,150
82,148,212185,1,0,0:0:0:0:
68,236,212401,5,0,0:0:0:0:
52,324,212617,1,0,0:0:0:0:
82,148,212833,2,0,B|-8:148,2,75,4|0|8,0:0|0:0|0:0,0:0:0:0:
172,148,213480,1,0,0:0:0:0:
352,148,213696,2,0,B|440:148,2,75,0|0|8,0:0|0:0|0:0,0:0:0:0:
261,148,214344,1,0,0:0:0:0:
312,320,214560,2,0,B|404:320,2,75
280,236,215207,1,0,0:0:0:0:
240,60,215423,2,0,B|84:60,1,150
44,144,216070,5,0,0:0:0:0:
44,144,216286,2,0,B|184:144,1,112.5
200,144,216718,1,8,0:0:0:0:
164,60,216934,1,0,0:0:0:0:
344,60,217149,1,0,0:0:0:0:
468,192,217365,1,0,0:0:0:0:
344,324,217581,1,8,0:0:0:0:
164,324,217797,1,0,0:0:0:0:
44,192,218013,2,0,B|44:120|112:88,1,112.5
132,76,218444,2,0,B|176:148,1,75,8|0,0:0|0:0,0:0:0:0:
216,220,218876,2,0,B|256:260|340:248,1,112.5
360,228,219308,2,0,B|396:152,1,75,8|0,0:0|0:0,0:0:0:0:
316,328,219739,6,0,B|160:328,1,150,4|8,0:0|0:0,0:0:0:0:
166,328,220387,1,0,0:0:0:0:
124,152,220603,1,0,0:0:0:0:
268,260,220819,1,0,0:0:0:0:
228,84,221034,1,8,0:0:0:0:
372,192,221250,1,0,0:0:0:0:
332,16,221466,2,0,B|488:16,1,150,0|8,0:0|0:0,0:0:0:0:
464,104,222113,1,0,0:0:0:0:
464,104,222329,2,0,B|300:104,1,150,0|8,0:0|0:0,0:0:0:0:
223,104,222977,5,0,0:0:0:0:
116,248,223193,1,0,0:0:0:0:
276,328,223408,1,0,0:0:0:0:
384,183,223624,1,8,0:0:0:0:
224,104,223840,1,0,0:0:0:0:
116,248,224056,1,0,0:0:0:0:
185,233,224488,1,8,0:0:0:0:
254,217,224919,1,8,0:0:0:0:
319,200,225351,1,8,0:0:0:0:
384,184,225783,2,0,B|468:184,1,75,8|0,0:0|0:0,0:0:0:0:
404,112,226214,6,0,B|500:112,1,75,8|0,0:0|0:0,0:0:0:0:
298,112,226646,2,0,B|134:112,1,150,4|8,0:0|0:0,0:0:0:0:
100,188,227293,1,0,0:0:0:0:
32,356,227509,2,0,B|200:356,1,150,0|8,0:0|0:0,0:0:0:0:
220,276,228157,1,0,0:0:0:0:
296,112,228372,2,0,B|452:112,1,150,0|8,0:0|0:0,0:0:0:0:
424,196,229020,1,0,0:0:0:0:
256,192,229236,2,0,B|104:192,1,150,0|8,0:0|0:0,0:0:0:0:
68,112,229883,5,0,0:0:0:0:
140,276,230099,2,0,B|292:276,1,150,0|8,0:0|0:0,0:0:0:0:
332,356,230747,1,0,0:0:0:0:
436,208,230962,1,0,0:0:0:0:
256,192,231178,1,0,0:0:0:0:
376,60,231394,1,8,0:0:0:0:
196,40,231610,1,0,0:0:0:0:
72,168,231826,2,0,B|72:264,1,75,0|4,0:0|0:0,0:0:0:0:
440,243,232473,2,0,B|440:168,1,75,0|4,0:0|0:0,0:0:0:0:
440,76,232905,1,0,0:0:0:0:
364,124,233121,5,4,0:0:0:0:
288,76,233337,1,0,0:0:0:0:
440,168,233552,2,0,B|440:248,2,75,4|0|0,0:0|0:0|0:0,0:0:0:0:
508,228,234200,1,0,0:0:0:0:
352,320,234416,1,0,0:0:0:0:
400,148,234631,1,0,0:0:0:0:
244,240,234847,1,8,0:0:0:0:
292,68,235063,1,0,0:0:0:0:
152,180,235279,2,0,B|136:96|208:36,1,150,0|8,0:0|0:0,0:0:0:0:
376,64,235926,1,0,0:0:0:0:
488,204,236142,2,0,P|480:288|440:356,1,150,0|8,0:0|0:0,0:0:0:0:
360,360,236790,5,0,0:0:0:0:
360,360,237006,2,0,B|384:280,1,75,4|0,0:0|0:0,0:0:0:0:
292,304,237437,2,0,B|316:224,1,75,8|0,0:0|0:0,0:0:0:0:
224,252,237869,1,0,0:0:0:0:
236,220,238301,1,8,0:0:0:0:
248,184,238732,2,0,B|84:184,1,150,0|8,0:0|0:0,0:0:0:0:
56,104,239380,1,0,0:0:0:0:
56,104,239488,1,0,0:0:0:0:
56,104,239595,2,0,B|156:104,1,75
221,104,240027,6,0,B|284:32,1,75,8|0,0:0|0:0,0:0:0:0:
312,128,240459,2,0,B|262:184,1,75,4|0,0:0|0:0,0:0:0:0:
308,260,240890,2,0,B|371:188,1,75,0|0,0:0|0:0,0:0:0:0:
400,280,241322,1,4,0:0:0:0:
376,308,241754,1,8,0:0:0:0:
352,340,242185,2,0,B|192:340,1,150,4|8,0:0|0:0,0:0:0:0:
111,340,242833,5,0,0:0:0:0:
111,340,242941,1,0,0:0:0:0:
111,340,243049,2,0,B|84:272,1,75
44,188,243480,2,0,B|16:118,2,75,0|0|4,0:0|0:0|0:0,0:0:0:0:
480,196,244775,5,4,0:0:0:0:
256,192,245423,5,0,0:0:0:0:
256,192,245639,1,4,0:0:0:0:
116,124,249134,6,0,B|76:196|128:280,1,150,0|8,0:0|0:0,0:0:0:0:
300,272,249997,1,0,0:0:0:0:
336,188,250213,1,0,0:0:0:0:
420,220,250428,1,8,0:0:0:0:
384,304,250644,1,0,0:0:0:0:
216,240,250860,2,0,B|196:156|240:88,1,150,0|8,0:0|0:0,0:0:0:0:
368,76,251616,1,0,0:0:0:0:
368,76,251723,2,0,B|464:60,1,75
456,152,252155,6,0,B|296:184,2,150,8|0|8,0:0|0:0|0:0,0:0:0:0:
320,268,253450,1,0,0:0:0:0:
308,180,253666,1,0,0:0:0:0:
220,188,253882,1,8,0:0:0:0:
236,276,254098,1,0,0:0:0:0:
416,256,254313,2,0,B|428:336|336:376,1,150,0|8,0:0|0:0,0:0:0:0:
236,276,255069,1,0,0:0:0:0:
236,276,255177,2,0,B|152:276,1,75
72,276,255608,1,8,0:0:0:0:
96,188,255824,1,0,0:0:0:0:
124,100,256040,6,0,B|276:100,1,150,4|8,0:0|0:0,0:0:0:0:
348,264,256903,2,0,B|188:264,1,150,0|8,0:0|0:0,0:0:0:0:
172,176,257551,1,0,0:0:0:0:
228,348,257767,2,0,B|392:348,1,150,0|8,0:0|0:0,0:0:0:0:
488,268,258522,1,0,0:0:0:0:
488,268,258630,2,0,B|488:184|428:128,2,150,0|8|0,0:0|0:0|0:0,0:0:0:0:
408,308,259709,5,0,0:0:0:0:
320,288,259925,2,0,B|300:216|344:128,1,150,8|0,0:0|0:0,0:0:0:0:
384,64,260572,1,0,0:0:0:0:
384,64,260788,2,0,B|288:64,1,75,8|0,0:0|0:0,0:0:0:0:
489,64,261220,2,0,B|505:148|445:212,1,150,0|8,0:0|0:0,0:0:0:0:
317,203,261975,1,0,0:0:0:0:
317,203,262083,2,0,B|229:203,1,75
212,116,262515,6,0,B|120:116,2,75,8|0|4,0:0|0:0|0:0,0:0:0:0:
300,268,263594,6,0,B|392:268,2,75,0|4|0,0:0|0:0|0:0,0:0:0:0:
256,192,264241,5,0,0:0:0:0:
256,192,264457,1,4,0:0:0:0:
