osu file format v14

[General]
AudioFilename: .mp3
AudioLeadIn: 0
PreviewTime: 55007
Countdown: 1
SampleSet: Soft
StackLeniency: 0.7
Mode: 0
LetterboxInBreaks: 1
WidescreenStoryboard: 0

[Editor]
DistanceSpacing: 1.2
BeatDivisor: 4
GridSize: 8
TimelineZoom: 1

[Metadata]
Title:BalalaXiaomoxian
TitleUnicode:吧啦啦小魔仙
Artist:Ann
ArtistUnicode:大Ann&小Ann
Creator:shenjunhong27
Version:Normal
Source:巴啦啦小魔仙
Tags:巴啦啦小魔仙
BeatmapID:638665
BeatmapSetID:282437

[Difficulty]
HPDrainRate:4
CircleSize:4
OverallDifficulty:5
ApproachRate:6
SliderMultiplier:1
SliderTickRate:1

[Events]
//Background and Video events
0,0,"BG.jpg",0,0
//Break Periods
//Storyboard Layer 0 (Background)
//Storyboard Layer 1 (Fail)
//Storyboard Layer 2 (Pass)
//Storyboard Layer 3 (Foreground)
//Storyboard Sound Samples

[TimingPoints]
592,405.405405405405,4,2,1,60,1,0
6977,405.405405405405,4,2,1,60,1,0
68490,405.405405405405,4,2,1,60,1,0
74976,405.405405405405,4,2,1,60,1,0

[Colours]
Combo1 : 0,0,255
Combo2 : 170,255,255
Combo3 : 128,255,255
Combo4 : 255,255,170
Combo5 : 255,0,128

[HitObjects]
312,72,592,6,0,B|376:80|408:144|408:144|344:168|368:248|368:248|304:256|248:232,1,350
96,136,2619,1,8,0:0:0:0:
288,88,3429,6,4,B|320:120|320:120|272:136|272:136|320:144|320:144|272:160|272:160|320:176|320:176|272:184|272:184|320:192|320:192|280:208|280:208|320:216|320:216|280:232|280:232|312:248,1,500,8|8,0:0|0:0,0:0:0:0:
168,104,6267,1,4,0:0:0:0:
120,184,6875,2,8,B|128:232|128:232|168:192|176:248|176:248|192:232,1,125
240,248,7585,1,0,0:0:0:0:
360,232,7787,2,8,B|416:208|416:208|424:168|424:168|472:144,1,150,0|0,0:0|0:0,0:0:0:0:
456,96,8598,1,0,0:0:0:0:
360,96,9004,1,0,0:0:0:0:
312,72,9206,6,8,B|256:120|256:120|200:112|200:112|200:168|200:168|136:208,1,250
106,177,10625,1,0,0:0:0:0:
240,240,11031,2,4,P|288:216|312:232,2,75
416,232,12247,1,0,0:0:0:0:
376,120,12652,1,0,0:0:0:0:
208,176,13058,6,4,P|240:152|272:176,2,75,8|4|8,0:0|0:0|0:0,0:0:0:0:
208,176,14274,5,0,0:0:0:0:
264,96,14679,2,0,P|320:72|376:80,1,100
384,168,15895,2,0,L|336:232,2,75
288,192,16706,6,8,B|248:160|248:160|200:192|200:192|160:160|160:160|120:200|120:200,1,200
80,48,17922,2,8,B|200:64|200:64|112:168|256:144|256:144|256:256,1,400
400,280,19949,2,8,B|432:240|432:240|392:216|448:176|448:176|416:120,1,200
336,64,21166,6,0,P|280:64|272:144,1,150
200,72,21976,1,0,0:0:0:0:
104,88,22382,2,0,P|56:184|112:248,1,200
120,184,23395,1,0,0:0:0:0:
168,216,23598,1,0,0:0:0:0:
192,296,24004,1,0,0:0:0:0:
256,224,24409,2,0,B|304:264|368:200|408:280,1,150
440,168,25220,2,0,P|472:200|440:248,2,100
384,88,26436,6,8,B|344:64|344:64|304:96|304:96|256:64|256:64|208:96,1,200
144,120,27652,1,0,0:0:0:0:
128,216,28058,2,0,P|176:184|232:200,1,100
256,240,28666,1,0,0:0:0:0:
240,296,28868,1,0,0:0:0:0:
152,264,29274,2,0,P|104:312|112:352,1,100
224,288,29882,1,0,0:0:0:0:
264,312,30085,2,8,B|304:288|304:288|288:256|288:256|320:240|320:240|304:208,1,150
384,144,31098,6,0,P|432:168|432:96,1,150
344,144,32112,2,0,P|264:120|312:184,1,200
208,144,33125,2,8,B|176:120|176:120|144:152|144:152|112:128|112:128|88:152,1,150
152,168,33936,1,0,0:0:0:0:
104,200,34139,1,0,0:0:0:0:
112,240,34341,2,0,P|136:304|216:296,1,150
256,288,35254,1,0,0:0:0:0:
304,272,35456,1,0,0:0:0:0:
408,320,35760,2,8,B|376:288|376:288|432:280|432:280|368:248|368:248|432:224|432:224|376:200|376:200|432:184|432:184|384:160|384:160|432:144|432:144|400:120,1,500
256,104,38193,6,0,P|200:80|224:144,1,150
176,192,39004,1,0,0:0:0:0:
136,112,39206,2,0,B|96:152|48:112|0:176,1,150
104,184,40220,6,0,P|152:184|192:216,1,100
192,264,40828,1,8,0:0:0:0:
144,272,41031,2,8,P|136:328|168:352,1,100
240,304,41841,2,0,B|296:280|344:304|376:336,1,150
416,304,42652,1,8,0:0:0:0:
368,272,42855,2,0,P|344:264|336:232,1,50
392,216,43260,1,0,0:0:0:0:
408,160,43463,2,0,P|424:112|392:80,1,100
296,56,44274,2,0,L|232:56,1,50
144,64,44679,2,8,P|80:128|136:208,1,200
176,144,45693,2,0,P|224:160|264:200,1,100
360,232,46301,1,0,0:0:0:0:
192,208,46706,6,0,P|136:232|112:280,1,100
104,312,47314,2,8,L|160:312,2,50
256,216,48125,1,0,0:0:0:0:
256,312,48328,2,0,B|304:256|336:320,1,100
384,312,48936,2,8,L|440:312,2,50
256,200,49747,1,0,0:0:0:0:
256,128,49949,2,4,B|224:112|192:88|152:120|128:152|152:168|168:280|224:216|256:272|256:272|304:216|352:288|360:160|384:152|352:120|320:88|296:112|264:128,1,550
256,192,52686,12,0,54511,0:0:0:0:
184,80,55017,5,0,0:0:0:0:
144,128,55220,1,0,0:0:0:0:
120,176,55524,2,8,P|128:232|176:256,2,100
192,248,56740,2,0,P|232:264|248:288,1,50
336,272,57247,2,8,P|368:280|392:256,2,50
392,272,57855,1,0,0:0:0:0:
432,192,58058,2,0,L|328:152,1,100
256,112,58868,2,0,B|160:160|248:216|312:216|384:168|304:112,1,250
318,124,60085,1,0,0:0:0:0:
240,184,60490,6,0,P|200:168|200:216,1,100
240,248,61098,1,0,0:0:0:0:
144,296,61301,2,0,L|208:312,2,50
112,248,61909,2,0,P|88:200|112:144,1,100
176,88,62821,1,8,0:0:0:0:
272,72,63227,2,0,B|320:40|384:40|424:72|424:136|384:184,1,250
448,288,64646,5,0,0:0:0:0:
400,280,64848,1,0,0:0:0:0:
352,272,65051,1,0,0:0:0:0:
304,256,65254,2,0,B|248:248|240:192|240:192|160:176|176:120,1,200
224,128,66267,2,8,P|280:104|304:136,2,100
128,176,67483,1,0,0:0:0:0:
112,232,67686,2,0,P|160:256|224:256,1,100
248,168,68490,6,8,B|320:136|360:128|360:128|376:136|376:136|384:168|336:272,1,275,0|8,0:0|0:0,0:0:0:0:
384,288,69908,6,0,P|432:280|448:256,2,75
408,216,70922,2,8,P|432:232|424:256,1,50
336,288,71530,6,8,B|288:336|272:272|272:272|224:320|208:256|208:256|176:280,1,200
160,312,72544,1,0,0:0:0:0:
176,256,72746,2,0,P|208:248|224:224,1,50
128,168,73152,2,0,B|176:128|224:176|264:112,1,150
240,160,74165,2,8,P|264:200|288:160,2,100,10|10|10,0:0|0:0|0:0,0:0:0:0:
296,80,75381,5,8,0:0:0:0:
344,80,75584,1,8,0:0:0:0:
368,120,75786,1,8,0:0:0:0:
240,272,76394,2,0,B|208:288|184:216|128:248,1,100
112,208,77003,1,0,0:0:0:0:
88,168,77205,1,0,0:0:0:0:
152,88,77611,1,4,0:0:0:0:
248,120,78219,6,0,B|296:152|336:112|392:144,1,150
432,168,79030,1,8,0:0:0:0:
376,304,79638,2,0,B|376:256|376:256|304:256|344:200|344:200|288:184,1,200
264,144,80651,1,0,0:0:0:0:
240,104,80854,2,8,P|208:120|176:112,1,50
