osu file format v14

[General]
AudioFilename: Angel Beats My Soul, Your Beats Mallet Arrangement.mp3
AudioLeadIn: 0
PreviewTime: 52907
Countdown: 0
SampleSet: Normal
StackLeniency: 0.9
Mode: 0
LetterboxInBreaks: 0
WidescreenStoryboard: 0

[Editor]
DistanceSpacing: 0.5
BeatDivisor: 8
GridSize: 8
TimelineZoom: 1

[Metadata]
Title:My Soul, Your Beats
TitleUnicode:My Soul, Your Beats
Artist:Anime Mallet Arrangement
ArtistUnicode:Anime Mallet Arrangement
Creator:_PatPat_
Version:Soul
Source:
Tags:
BeatmapID:874508
BeatmapSetID:402091

[Difficulty]
HPDrainRate:5
CircleSize:5
OverallDifficulty:6
ApproachRate:8
SliderMultiplier:1.6
SliderTickRate:1

[Events]
//Background and Video events
0,0,"angelbeatsWP.jpg",0,0
//Break Periods
//Storyboard Layer 0 (Background)
//Storyboard Layer 1 (Fail)
//Storyboard Layer 2 (Pass)
//Storyboard Layer 3 (Foreground)
//Storyboard Sound Samples

[TimingPoints]
1597,413.793103448276,4,1,0,65,1,0
24150,-100,4,2,0,10,0,0
24976,-100,4,1,0,65,0,0
30769,-100,4,2,0,10,0,0
31597,-100,4,1,0,65,0,0
37390,-100,4,2,0,10,0,0
38217,-100,4,1,0,65,0,0
54148,-100,4,1,0,65,0,1
55390,-142.857142857143,4,1,0,65,0,1
61390,-100,4,2,0,10,0,0
64079,-100,4,1,0,65,0,0
66355,-142.857142857143,4,2,0,10,0,0
66769,-125,4,2,0,40,0,0
67183,-111.111111111111,4,2,0,50,0,0
67597,-100,4,1,0,65,0,0
68010,-142.857142857143,4,1,0,65,0,0
74631,-100,4,2,0,10,0,0
76079,-142.857142857143,4,1,0,65,0,0
79390,-100,4,1,0,65,0,0
87459,-100,4,1,0,70,0,0

[HitObjects]
304,48,1597,5,0,0:0:0:0:
352,112,1803,2,0,L|432:80,1,80
352,240,2217,2,0,L|432:240,1,80
224,256,2631,2,0,L|192:336,1,80
96,96,3045,1,0,0:0:0:0:
208,304,4907,5,0,0:0:0:0:
160,240,5114,2,0,L|80:272,1,80
160,112,5527,2,0,L|80:112,1,80
288,96,5941,2,0,L|320:16,1,80
416,256,6355,1,0,0:0:0:0:
336,272,8217,5,0,0:0:0:0:
304,256,8424,2,0,L|224:208,1,80
304,208,8838,2,0,L|272:128,1,80
384,288,9252,1,0,0:0:0:0:
480,240,9459,1,0,0:0:0:0:
448,80,9665,1,0,0:0:0:0:
144,176,10079,1,0,0:0:0:0:
192,112,11528,5,0,0:0:0:0:
240,128,11734,2,0,L|320:144,1,80
224,176,12148,2,0,L|288:224,1,80
112,272,12562,1,0,0:0:0:0:
384,224,12976,1,0,0:0:0:0:
256,192,13390,12,0,16286,0:0:0:0:
128,240,16700,5,0,0:0:0:0:
144,208,16907,1,0,0:0:0:0:
160,176,17114,1,0,0:0:0:0:
176,144,17321,1,0,0:0:0:0:
256,208,17528,5,0,0:0:0:0:
288,224,17735,1,0,0:0:0:0:
320,240,17942,1,0,0:0:0:0:
352,256,18149,1,0,0:0:0:0:
160,192,18355,6,0,P|112:192|96:144,1,80
176,128,18976,6,0,P|144:96|176:64,1,80
256,112,19597,6,0,P|256:80|304:80,1,80
304,192,20217,6,0,L|384:160,1,80
176,144,20838,5,0,0:0:0:0:
160,152,20941,1,0,0:0:0:0:
144,160,21045,1,0,0:0:0:0:
128,168,21148,1,0,0:0:0:0:
112,176,21252,1,0,0:0:0:0:
96,184,21355,1,0,0:0:0:0:
80,192,21459,1,0,0:0:0:0:
64,200,21562,1,0,0:0:0:0:
272,136,21665,6,0,L|264:232,1,80
320,32,22079,2,0,L|344:112,1,80
136,144,22700,5,0,0:0:0:0:
152,112,22907,1,0,0:0:0:0:
168,80,23114,1,0,0:0:0:0:
224,200,23321,2,0,L|192:288,1,80
352,232,23734,1,0,0:0:0:0:
440,128,23941,1,0,0:0:0:0:
280,40,24148,6,0,L|256:64,1,20
224,64,24355,6,0,L|200:88,1,20
168,88,24562,6,0,L|144:112,1,20
112,112,24769,6,0,L|88:136,1,20
320,272,24976,6,0,L|360:344,1,80
376,176,25390,1,0,0:0:0:0:
288,88,25597,1,0,0:0:0:0:
136,104,25803,2,0,L|168:24,2,80
240,184,26424,1,0,0:0:0:0:
352,112,26631,6,0,L|432:80,1,80
352,240,27045,2,0,L|432:240,1,80
224,256,27459,2,0,L|192:336,1,80
104,144,27872,2,0,L|56:80,1,80
376,24,28286,5,0,0:0:0:0:
248,64,28700,1,0,0:0:0:0:
120,104,29114,1,0,0:0:0:0:
264,280,29528,2,0,L|192:336,1,80
312,192,29941,6,0,L|344:272,1,80
424,96,30355,1,0,0:0:0:0:
272,48,30562,1,0,0:0:0:0:
136,216,30769,6,0,L|160:192,1,20
192,192,30976,6,0,L|216:168,1,20
248,168,31183,6,0,L|272:144,1,20
304,144,31390,6,0,L|328:120,1,20
416,240,31597,6,0,L|360:296,1,80
256,312,32010,1,0,0:0:0:0:
160,264,32217,1,0,0:0:0:0:
128,112,32424,2,0,L|200:64,2,80
232,176,33045,1,0,0:0:0:0:
160,272,33252,6,0,L|80:304,1,80
160,144,33666,2,0,L|80:144,1,80
288,128,34080,2,0,L|320:48,1,80
408,240,34493,2,0,L|456:304,1,80
224,192,34907,6,0,L|232:96,1,80
176,296,35321,2,0,L|152:216,1,80
376,296,35942,5,0,0:0:0:0:
392,264,36149,1,0,0:0:0:0:
408,232,36356,1,0,0:0:0:0:
272,128,36563,2,0,L|304:40,1,80
144,96,36976,1,0,0:0:0:0:
56,200,37183,1,0,0:0:0:0:
328,216,37390,6,0,L|304:240,1,20
272,240,37597,6,0,L|248:264,1,20
216,264,37804,6,0,L|192:288,1,20
160,288,38011,6,0,L|136:312,1,20
296,72,38217,6,0,L|360:120,1,80
408,216,38631,1,0,0:0:0:0:
320,248,38838,1,0,0:0:0:0:
144,144,39045,2,0,L|104:224,2,80
384,272,39665,1,0,0:0:0:0:
352,112,39872,6,0,L|432:80,1,80
352,240,40286,2,0,L|432:240,1,80
224,256,40700,2,0,L|192:336,1,80
104,144,41114,2,0,L|56:72,1,80
408,80,41528,5,0,0:0:0:0:
232,248,41941,1,0,0:0:0:0:
152,32,42355,1,0,0:0:0:0:
376,224,42769,2,0,L|400:312,1,80
200,248,43183,6,0,L|128:296,1,80
176,160,43597,2,0,L|112:104,1,80
312,112,44010,1,0,0:0:0:0:
400,216,44217,1,0,0:0:0:0:
224,296,44424,1,0,0:0:0:0:
128,80,44631,1,0,0:0:0:0:
360,248,44838,6,0,L|440:288,1,80
296,248,45252,2,0,L|328:336,1,80
256,200,45665,2,0,L|184:264,1,80
240,128,46079,2,0,L|160:88,1,80
408,56,46493,5,0,0:0:0:0:
392,80,46700,1,0,0:0:0:0:
392,160,46907,5,0,0:0:0:0:
344,144,47114,1,0,0:0:0:0:
200,136,47321,5,0,0:0:0:0:
216,64,47528,1,0,0:0:0:0:
288,248,47734,5,0,0:0:0:0:
384,264,47941,1,0,0:0:0:0:
128,280,48148,5,0,0:0:0:0:
176,200,48355,2,0,L|152:120,1,80
328,152,48769,2,0,P|360:120|352:184,1,160
296,320,49390,1,0,0:0:0:0:
120,40,49803,5,0,0:0:0:0:
144,56,50010,1,0,0:0:0:0:
224,56,50217,5,0,0:0:0:0:
208,104,50424,1,0,0:0:0:0:
200,248,50631,5,0,0:0:0:0:
128,232,50838,1,0,0:0:0:0:
312,160,51044,5,0,0:0:0:0:
328,64,51251,1,0,0:0:0:0:
344,320,51458,5,0,0:0:0:0:
256,152,51665,2,0,P|224:184|232:120,1,160
440,224,52493,1,0,0:0:0:0:
464,104,52700,1,0,0:0:0:0:
304,312,53114,2,0,B|88:256|88:256|176:208,1,320
216,208,54148,5,0,0:0:0:0:
240,136,54355,1,0,0:0:0:0:
312,256,54562,5,0,0:0:0:0:
448,112,54769,5,0,0:0:0:0:
432,120,54976,1,0,0:0:0:0:
416,128,55183,1,0,0:0:0:0:
432,224,55390,6,0,P|432:280|360:240,1,167.999994873047
224,88,56217,2,0,P|192:48|184:80,1,111.999996582031
360,248,56838,1,0,0:0:0:0:
56,80,57045,2,0,P|16:112|48:120,1,111.999996582031
72,136,57665,1,0,0:0:0:0:
96,152,57872,1,0,0:0:0:0:
216,264,58079,6,0,L|168:304,2,55.9999982910157
336,264,58700,2,0,P|400:280|368:216,1,167.999994873047
192,120,59528,2,0,L|144:16,1,111.999996582031
368,208,60148,1,0,0:0:0:0:
112,160,60355,2,0,L|16:96,1,111.999996582031
368,120,60976,1,0,0:0:0:0:
80,48,61183,5,0,0:0:0:0:
80,72,61390,1,0,0:0:0:0:
112,200,61597,5,0,0:0:0:0:
160,200,61804,1,0,0:0:0:0:
312,264,62010,5,0,0:0:0:0:
312,192,62217,1,0,0:0:0:0:
328,88,62424,5,0,0:0:0:0:
232,88,62631,1,0,0:0:0:0:
432,264,62838,5,0,0:0:0:0:
432,240,63045,1,0,0:0:0:0:
400,112,63252,5,0,0:0:0:0:
352,112,63459,1,0,0:0:0:0:
200,48,63665,5,0,0:0:0:0:
200,120,63872,1,0,0:0:0:0:
184,224,64079,5,0,0:0:0:0:
280,224,64286,1,0,0:0:0:0:
376,224,64493,1,0,0:0:0:0:
288,104,64700,2,0,L|264:16,1,80
128,248,65734,5,0,0:0:0:0:
144,232,65941,1,0,0:0:0:0:
160,216,66148,1,0,0:0:0:0:
224,200,66355,6,0,L|136:176,1,83.9999974365235
144,152,66769,6,0,L|248:168,1,96
240,152,67183,6,0,L|128:104,1,107.999996704102
144,80,67597,6,0,L|272:104,1,120
408,96,68010,6,0,L|432:32,1,55.9999982910157
344,232,68424,1,0,0:0:0:0:
464,272,68631,2,0,P|488:216|456:208,1,111.999996582031
400,168,69252,5,0,0:0:0:0:
64,112,69459,2,0,B|16:104|16:104|0:168,1,111.999996582031
463,114,70079,1,0,0:0:0:0:
96,176,70286,2,0,B|88:224|88:224|152:240,1,111.999996582031
168,256,70907,1,0,0:0:0:0:
184,272,71114,1,0,0:0:0:0:
368,56,71321,6,0,L|312:16,2,55.9999982910157
480,136,71941,2,0,L|408:232,1,111.999996582031
96,88,72562,1,0,0:0:0:0:
288,296,72769,2,0,P|320:336|328:304,1,111.999996582031
152,136,73390,1,0,0:0:0:0:
456,304,73597,2,0,P|496:272|464:264,1,111.999996582031
392,64,74217,5,0,0:0:0:0:
152,264,74424,1,0,0:0:0:0:
264,336,74631,5,0,0:0:0:0:
264,288,74838,1,0,0:0:0:0:
328,136,75044,5,0,0:0:0:0:
256,136,75251,1,0,0:0:0:0:
152,120,75458,5,0,0:0:0:0:
152,216,75665,1,0,0:0:0:0:
152,312,75872,1,0,0:0:0:0:
336,144,76079,6,0,L|312:80,1,55.9999982910157
232,48,76493,1,0,0:0:0:0:
233,241,76700,2,0,P|296:293|284:298,1,167.999994873047
104,206,77528,1,0,0:0:0:0:
72,70,77735,1,0,0:0:0:0:
256,192,77941,12,0,79183,0:0:0:0:
304,48,79390,5,0,0:0:0:0:
352,112,79596,2,0,L|432:80,1,80
352,240,80010,2,0,L|432:240,1,80
224,256,80424,2,0,L|192:336,1,80
96,96,80838,1,0,0:0:0:0:
256,192,81045,12,0,82493,0:0:0:0:
208,336,82700,5,0,0:0:0:0:
160,272,82906,2,0,L|80:304,1,80
160,144,83320,2,0,L|80:144,1,80
288,128,83734,2,0,L|320:48,1,80
416,288,84148,1,0,0:0:0:0:
256,192,84355,12,0,85803,0:0:0:0:
400,208,86010,5,0,0:0:0:0:
336,256,86216,2,0,L|368:336,1,80
208,256,86630,2,0,L|208:336,1,80
192,128,87044,2,0,L|112:96,1,80
496,40,87458,1,0,0:0:0:0:
256,192,87665,12,0,89941,0:0:0:0:
