osu file format v5

[General]
AudioFilename: N11 - DJ KK [Original] - Animal Crossing.mp3
AudioLeadIn: 2500
PreviewTime: -1
Countdown: 0
SampleSet: Soft
StackLeniency: 0.7
Mode: 0
EditorBookmarks: 140869

[Metadata]
Title:DJ KK
Artist:Animal Crossing
Creator:Nharox
Version:Normal

[Difficulty]
HPDrainRate:6
CircleSize:5
OverallDifficulty:6
SliderMultiplier:1.4
SliderTickRate:2

[Events]
//Background and Video events
0,0,"animal crossing.jpg"
//Break Periods
//Storyboard Layer 0 (Background)
//Storyboard Layer 1 (Failing)
//Storyboard Layer 2 (Passing)
//Storyboard Layer 3 (Foreground)
//Storyboard Sound Samples
//Background Colour Transformations
3,100,163,162,255

[TimingPoints]
-20,434.782608695652,4,2,0,100

[Colours]
Combo1 : 0,117,234
Combo2 : 154,53,255
Combo3 : 0,217,217
Combo4 : 255,255,255

[HitObjects]
303,217,-20,2,4,B|431:121|367:25|143:25|47:121|79:281|207:345|271:281|309:-14|303:25|431:25|527:121|495:185|463:281|303:345|175:313|79:249|47:153,1,1120
224,192,5197,6,0,B|160:128,2,70
288,192,5849,2,0,B|352:128,3,70
384,64,6936,5,0
384,192,7371,1,0
384,320,7806,1,0
256,320,8240,1,0
128,320,8675,1,0
128,192,9110,1,0
128,64,9545,1,0
256,64,9979,1,0
384,64,10414,1,0
384,192,10849,5,0
256,192,11284,1,0
256,320,11719,2,0,B|352:320,3,70
192,320,12806,1,0
64,192,14327,5,0
128,64,14762,1,0
192,192,15197,2,0,B|288:192,3,70
224,64,16284,1,0
352,64,16719,2,0,B|416:128,2,70
352,288,17806,5,0
288,160,18240,1,0
416,160,18675,2,0,B|448:64,3,70
384,224,19762,1,0
384,96,21284,1,0
320,96,21501,1,0
256,224,21936,2,0,B|256:128,2,70
192,192,22588,5,2
128,192,22806,5,2
256,32,23458,5,0
256,160,23893,1,0
128,160,24327,6,0,B|224:160,2,70
128,288,25197,2,0,B|224:288,3,70
352,288,26284,1,0
352,160,26719,2,0,B|288:96,2,70
128,160,27806,2,0,B|128:64,2,70
256,160,28675,2,0,B|352:160,3,70
64,320,31284,6,0,B|160:320,2,70
64,256,31936,1,0
64,192,32153,2,0,B|160:192,1,70
192,192,32588,1,0
256,192,32806,1,0
384,192,33240,1,0
320,64,33675,1,0
256,64,33893,1,0
192,64,34110,1,0
416,64,34762,2,0,B|416:160,7,70
224,192,36936,5,0
352,192,37371,1,0
224,192,37806,1,0
160,320,38240,5,0
224,320,38458,1,0
288,320,38675,1,0
288,192,39110,1,0
224,192,39327,1,0
160,192,39545,2,0,B|64:192,1,70
96,320,40197,1,0
224,320,40632,2,0,B|320:320,2,70
256,96,41719,1,0
288,160,41936,1,0
224,160,42153,1,0
352,160,42588,2,0,B|352:256,3,70
352,96,45197,6,0,B|352:192,4,70
352,160,46284,1,0
288,160,46501,1,0
224,160,46719,1,0
224,288,47153,1,0
352,288,47588,2,0,B|352:192,2,70
288,64,48675,2,0,B|384:64,7,70
416,64,50414,2,0,B|416:288|231:383|96:320|64:96|64:64,1,630
480,128,53893,5,0
416,256,54327,1,0
352,128,54762,1,0
288,256,55197,1,0
160,320,55632,2,0,B|64:320,2,70
160,249,56284,2,0,B|256:249,3,70
352,160,57806,5,0
352,32,58240,1,0
352,160,58675,2,0,B|256:160,3,70
352,32,59762,2,0,B|224:224,1,210
480,96,61284,5,0
416,224,61719,1,0
320,128,62153,2,0,B|320:224,3,70
256,320,63240,1,0
256,192,63675,1,0
256,128,63893,1,0
192,128,64110,1,0
160,320,64762,5,0
96,192,65197,1,0
224,192,65632,2,0,B|320:192,3,70
224,64,66719,2,0,B|448:64,1,210
160,160,68240,1,0
160,96,68458,1,0
288,96,68893,1,0
288,160,69110,1,0
288,224,69327,2,0,B|64:224,1,210
64,96,71719,5,0
192,96,72153,1,0
192,224,72588,2,0,B|288:224,3,70
192,96,73675,1,0
416,192,75197,5,0
352,64,75632,1,0
320,192,76066,2,0,B|320:288,1,70
320,320,76501,1,0
256,320,76719,1,0
160,224,77153,1,0
160,96,77588,1,0
224,96,77806,1,0
160,96,78023,1,0
64,288,78675,5,0
64,160,79110,1,0
192,160,79545,1,0
192,224,79762,1,0
256,224,79980,2,0,B|256:128,1,70
384,192,80632,1,0
416,256,82153,1,0
416,192,82371,1,0
352,64,82806,1,0
288,96,83023,1,0
224,128,83240,1,0
256,192,83458,5,2
256,256,83675,5,2
256,96,85197,5,0
352,192,85632,1,0
256,288,86066,1,0
160,192,86501,1,0
64,96,86936,6,0,B|160:96,1,70
192,96,87371,1,0
192,224,87806,2,0,B|288:224,1,70
320,224,88240,1,0
320,288,88458,1,0
448,224,88893,1,0
448,96,89327,2,0,B|384:32,2,70
224,96,90414,1,0
224,160,90632,1,0
224,224,90849,1,0
352,160,91284,2,0,B|448:160,3,70
256,192,93893,5,0
256,256,94110,1,0
192,256,94327,1,0
128,256,94545,1,0
64,256,94762,2,0,B|64:160,1,70
64,128,95197,1,0
128,128,95414,1,0
256,128,95849,1,0
384,128,96284,2,0,B|384:224,1,70
384,256,96719,1,0
288,64,97371,2,0,B|384:64,1,70
416,128,97806,2,0,B|416:224,1,70
352,256,98240,2,0,B|256:256,1,70
224,192,98675,2,0,B|224:96,1,70
64,288,99545,6,0,B|224:288,2,140
64,160,100849,5,0
64,96,101066,1,0
128,96,101284,1,0
224,192,101719,2,0,B|288:256,1,70
352,224,102153,2,0,B|416:160,1,70
299,270,102806,1,0
288,128,103240,2,0,B|384:128,2,70
96,192,104327,1,0
160,192,104545,1,0
224,192,104762,1,0
352,192,105197,2,0,B|352:288,1,70
416,256,105632,2,0,B|416:160,1,70
256,256,107806,6,0,B|256:352,4,70
320,256,108893,1,0
384,224,109110,1,0
384,160,109327,1,0
256,64,109762,1,0
128,128,110197,2,0,B|32:128,2,70
224,320,111284,2,0,B|320:320,1,70
288,256,111719,2,0,B|192:256,1,70
224,192,112153,2,0,B|320:192,1,70
352,160,112588,1,0
288,128,112806,2,0,B|106:62|160:256,1,210
448,64,114762,5,0
448,128,114980,1,0
448,192,115197,1,0
320,192,115632,2,0,B|416:192,1,70
384,256,116066,2,0,B|288:256,1,70
160,256,116719,1,0
160,128,117153,2,0,B|160:32,2,70
63,303,118240,1,0
128,256,118458,1,0
192,224,118675,1,0
64,128,119110,1,0
128,128,119327,1,0
128,64,119545,2,0,B|224:64,1,70
256,256,120414,5,0
320,128,120849,1,0
192,128,121284,1,0
192,256,121719,5,0
256,256,121936,1,0
320,256,122153,1,0
320,192,122371,1,0
256,192,122588,2,0,B|160:192,3,70
256,288,123675,1,0
416,192,124110,2,0,B|480:128,1,70
480,224,124545,1,0
288,128,125197,2,0,B|288:224,1,70
224,256,125632,2,0,B|128:256,1,70
96,192,126066,2,0,B|96:96,1,70
96,64,126501,1,0
160,64,126719,2,0,B|320:64|448:96|448:320|192:352|224:320|128:352|64:320|54:227|32:192|32:192,1,700
192,256,130414,6,4,B|192:96|192:96|320:96|320:96|320:256|320:256|192:256,1,560
64,64,133893,2,4,B|256:288|256:288|416:64|416:64|128:64|128:64|128:352,1,1120
224,192,139110,6,0,B|128:192,2,70
288,192,139762,6,0,B|384:192,3,70
