osu file format v14

[General]
AudioFilename: Cytus - Ververg (Ani feat. B).mp3
AudioLeadIn: 0
PreviewTime: 50388
Countdown: 0
SampleSet: Normal
StackLeniency: 0.7
Mode: 3
LetterboxInBreaks: 0
SpecialStyle: 0
WidescreenStoryboard: 0

[Editor]
DistanceSpacing: 1.1
BeatDivisor: 2
GridSize: 4
TimelineZoom: 0.7999998

[Metadata]
Title:Ververg (feat. B)
TitleUnicode:Ververg (feat. B)
Artist:Ani
ArtistUnicode:Ani
Creator:Rinzler
Version:Lv.2
Source:Cytus
Tags:onoken ExUsagi Rayark chapter I OPERATORS
BeatmapID:708221
BeatmapSetID:317967

[Difficulty]
HPDrainRate:7
CircleSize:4
OverallDifficulty:7
ApproachRate:5
SliderMultiplier:1.4
SliderTickRate:1

[Events]
//Background and Video events
0,0,"BG.jpg",0,0
//Break Periods
//Storyboard Layer 0 (Background)
//Storyboard Layer 1 (Fail)
//Storyboard Layer 2 (Pass)
//Storyboard Layer 3 (Foreground)
//Storyboard Sound Samples
Sample,1125,0,"C#5.wav",8
Sample,2072,0,"C5.wav",10
Sample,3019,0,"B4.wav",17
Sample,3967,0,"A#4.wav",22
Sample,4914,0,"C#5.wav",8
Sample,5861,0,"C5.wav",8
Sample,6809,0,"B4.wav",17
Sample,7756,0,"A#4.wav",22
Sample,12493,0,"G#4.wav",30
Sample,13282,0,"C#5.wav",30
Sample,13440,0,"D#5.wav",30
Sample,14388,0,"E5.wav",30
Sample,14703,0,"D#5.wav",30
Sample,15019,0,"C#5.wav",30
Sample,15335,0,"C5.wav",30
Sample,15651,0,"C#5.wav",30
Sample,15967,0,"D#5.wav",30
Sample,16282,0,"C#5.wav",30
Sample,18177,0,"C#6.wav",30
Sample,20072,0,"C#4.wav",30
Sample,23861,0,"C#4.wav",30
Sample,27651,0,"C#4.wav",30
Sample,31440,0,"C#4.wav",30
Sample,32388,0,"C4.wav",30
Sample,33335,0,"C#4.wav",30
Sample,33809,0,"C#4.wav",30
Sample,34282,0,"C#4.wav",30
Sample,35230,0,"C#6.wav",30
Sample,35230,0,"C#4.wav",40
Sample,35546,0,"C#6.wav",30
Sample,35703,0,"C#6.wav",30
Sample,36019,0,"B5.wav",30
Sample,36335,0,"C#6.wav",30
Sample,36493,0,"C#6.wav",30
Sample,36651,0,"C#6.wav",30
Sample,36967,0,"B5.wav",30
Sample,37282,0,"C#6.wav",30
Sample,37440,0,"C#6.wav",30
Sample,37598,0,"C#6.wav",30
Sample,37756,0,"C#6.wav",30
Sample,37914,0,"B5.wav",30
Sample,38072,0,"E4.wav",20
Sample,38072,0,"C#6.wav",30
Sample,38388,0,"D#4.wav",20
Sample,38388,0,"D#6.wav",30
Sample,38703,0,"C#6.wav",20
Sample,38703,0,"E6.wav",30
Sample,39019,0,"D#4.wav",40
Sample,39177,0,"D#6.wav",30
Sample,39335,0,"D#6.wav",30
Sample,39493,0,"D#6.wav",30
Sample,39809,0,"C#6.wav",30
Sample,40125,0,"D#6.wav",30
Sample,40282,0,"D#6.wav",30
Sample,40440,0,"D#6.wav",30
Sample,40756,0,"C#6.wav",30
Sample,41072,0,"D#6.wav",30
Sample,41388,0,"D#6.wav",30
Sample,41546,0,"D#6.wav",30
Sample,41703,0,"C#6.wav",30
Sample,41861,0,"D#6.wav",30
Sample,41861,0,"D#4.wav",20
Sample,42177,0,"E4.wav",20
Sample,42177,0,"E6.wav",30
Sample,42493,0,"F#4.wav",20
Sample,42493,0,"F#6.wav",30
Sample,42809,0,"E4.wav",40
Sample,42967,0,"E6.wav",30
Sample,43125,0,"E6.wav",30
Sample,43282,0,"E6.wav",30
Sample,43598,0,"D#6.wav",30
Sample,43914,0,"E6.wav",30
Sample,44072,0,"E6.wav",30
Sample,44230,0,"E6.wav",30
Sample,44546,0,"D#6.wav",30
Sample,44861,0,"E6.wav",30
Sample,45177,0,"E6.wav",30
Sample,45335,0,"E6.wav",30
Sample,45493,0,"D#6.wav",30
Sample,45651,0,"E6.wav",30
Sample,45651,0,"E4.wav",20
Sample,45967,0,"F#6.wav",30
Sample,45967,0,"F#4.wav",20
Sample,46282,0,"G#4.wav",20
Sample,46282,0,"G#6.wav",30
Sample,46598,0,"G#4.wav",20
Sample,46756,0,"G#6.wav",30
Sample,46914,0,"G#6.wav",30
Sample,47072,0,"G#6.wav",30
Sample,47388,0,"F#6.wav",30
Sample,47703,0,"G#6.wav",30
Sample,47861,0,"G#6.wav",30
Sample,48019,0,"G#6.wav",30
Sample,48335,0,"F#6.wav",30
Sample,50388,0,"C#4.wav",50
Sample,54177,0,"G#4.wav",30
Sample,54967,0,"C#5.wav",30
Sample,55125,0,"D#5.wav",30
Sample,56072,0,"E5.wav",30
Sample,56388,0,"D#5.wav",30
Sample,56703,0,"C#5.wav",30
Sample,57019,0,"C5.wav",30
Sample,57335,0,"C#5.wav",30
Sample,57651,0,"D#5.wav",30
Sample,57967,0,"C#4.wav",50
Sample,61756,0,"G#4.wav",30
Sample,62546,0,"C#5.wav",30
Sample,62703,0,"C5.wav",30
Sample,63335,0,"D#5.wav",30
Sample,63651,0,"D#5.wav",30
Sample,64282,0,"C#5.wav",30
Sample,64598,0,"C#5.wav",30
Sample,65546,0,"E#7.wav",30
Sample,65546,0,"C#6.wav",30
Sample,65861,0,"C#6.wav",30
Sample,66019,0,"C#6.wav",30
Sample,66335,0,"B5.wav",30
Sample,66651,0,"C#6.wav",30
Sample,66809,0,"C#6.wav",30
Sample,66967,0,"C#6.wav",30
Sample,67282,0,"B5.wav",30
Sample,67598,0,"C#6.wav",30
Sample,67756,0,"C#6.wav",30
Sample,67914,0,"C#6.wav",30
Sample,68072,0,"C#6.wav",30
Sample,68230,0,"B5.wav",30
Sample,68388,0,"C#6.wav",30
Sample,68388,0,"E4.wav",20
Sample,68703,0,"D#4.wav",20
Sample,68703,0,"D#6.wav",30
Sample,69019,0,"C#4.wav",20
Sample,69019,0,"E6.wav",30
Sample,69335,0,"D#4.wav",40
Sample,69493,0,"D#6.wav",30
Sample,69651,0,"D#6.wav",30
Sample,69809,0,"D#6.wav",30
Sample,70125,0,"C#6.wav",30
Sample,70440,0,"D#6.wav",40
Sample,70598,0,"D#6.wav",40
Sample,70756,0,"D#6.wav",40
Sample,71072,0,"C#6.wav",40
Sample,71388,0,"D#6.wav",40
Sample,71703,0,"D#6.wav",40
Sample,71861,0,"D#6.wav",40
Sample,72019,0,"C#6.wav",40
Sample,72177,0,"D#6.wav",40
Sample,72177,0,"D#4.wav",20
Sample,72493,0,"E4.wav",20
Sample,72493,0,"E6.wav",40
Sample,72809,0,"F#6.wav",40
Sample,72809,0,"F#4.wav",20
Sample,73125,0,"E4.wav",40
Sample,73282,0,"E6.wav",40
Sample,73440,0,"E6.wav",40
Sample,73598,0,"E6.wav",40
Sample,73914,0,"D#6.wav",40
Sample,74230,0,"E6.wav",40
Sample,74388,0,"E6.wav",40
Sample,74546,0,"E6.wav",40
Sample,74861,0,"D#6.wav",40
Sample,75019,0,"C#7.wav",20
Sample,75177,0,"E6.wav",40
Sample,75493,0,"E6.wav",40
Sample,75809,0,"E6.wav",40
Sample,75967,0,"E6.wav",40
Sample,75967,0,"E4.wav",20
Sample,76282,0,"F#4.wav",20
Sample,76282,0,"F#6.wav",40
Sample,76598,0,"G#4.wav",20
Sample,76598,0,"G#6.wav",40
Sample,76914,0,"G#4.wav",40
Sample,77072,0,"G#6.wav",40
Sample,77230,0,"G#6.wav",40
Sample,77388,0,"G#6.wav",40
Sample,77703,0,"F#6.wav",40
Sample,78019,0,"G#6.wav",40
Sample,78177,0,"G#6.wav",40
Sample,78335,0,"G#6.wav",40
Sample,78651,0,"F#6.wav",40
Sample,78809,0,"G#6.wav",40
Sample,79282,0,"C#7.wav",40
Sample,79756,0,"C7.wav",40
Sample,80230,0,"D#7.wav",40
Sample,80703,0,"C#5.wav",8
Sample,81651,0,"C5.wav",8
Sample,82598,0,"B4.wav",8
Sample,83546,0,"A#4.wav",8
Sample,84493,0,"C#7.wav",50
Sample,85440,0,"B6.wav",50
Sample,86388,0,"G#6.wav",50
Sample,87335,0,"A6.wav",50
Sample,87651,0,"G#6.wav",50
Sample,87967,0,"F#6.wav",50
Sample,88282,0,"E6.wav",50
Sample,89230,0,"D#6.wav",50
Sample,90177,0,"E6.wav",50
Sample,90493,0,"D#6.wav",50
Sample,90809,0,"C#6.wav",50
Sample,91125,0,"B5.wav",50
Sample,91440,0,"C#6.wav",50
Sample,91756,0,"D#6.wav",50
Sample,92072,0,"C#7.wav",30
Sample,93019,0,"B6.wav",50
Sample,93967,0,"G#6.wav",50
Sample,94914,0,"A6.wav",50
Sample,95230,0,"G#6.wav",50
Sample,95546,0,"F#6.wav",50
Sample,95861,0,"E6.wav",50
Sample,96177,0,"G#6.wav",50
Sample,96335,0,"G#6.wav",50
Sample,96651,0,"E6.wav",50
Sample,96809,0,"B6.wav",50
Sample,97440,0,"G#6.wav",50
Sample,97756,0,"C#7.wav",50
Sample,99019,0,"D#7.wav",50
Sample,99335,0,"E#7.wav",50
Sample,99651,0,"C#4.wav",50
Sample,99651,0,"C#7.wav",50

[TimingPoints]
1125,315.789473684211,3,1,1,30,1,0
50388,-100,3,1,1,30,0,1
65546,-100,3,1,1,30,0,0
84493,-100,3,1,1,30,0,1
99651,-100,3,1,1,30,0,0

[HitObjects]
64,192,1125,5,0,0:0:0:30:G#6.wav
320,192,1440,1,0,0:0:0:30:E6.wav
448,192,1598,1,0,0:0:0:30:A6.wav
64,192,1756,1,0,0:0:0:30:G#6.wav
64,192,2072,1,0,0:0:0:30:G#6.wav
448,192,2388,1,0,0:0:0:30:A6.wav
192,192,2703,1,0,0:0:0:30:G#6.wav
192,192,3019,1,0,0:0:0:30:G#6.wav
448,192,3335,1,0,0:0:0:30:C#7.wav
320,192,3651,1,0,0:0:0:30:B6.wav
192,192,3967,1,0,0:0:0:30:A6.wav
64,192,4282,1,0,0:0:0:30:G#6.wav
192,192,4598,1,0,0:0:0:30:G6.wav
320,192,4914,1,0,0:0:0:30:G#6.wav
64,192,5230,1,0,0:0:0:30:E6.wav
448,192,5388,1,0,0:0:0:30:A6.wav
192,192,5546,1,0,0:0:0:30:G#6.wav
192,192,5861,1,0,0:0:0:30:G#6.wav
448,192,6177,1,0,0:0:0:30:A6.wav
320,192,6493,1,0,0:0:0:30:G#6.wav
320,192,6809,1,0,0:0:0:30:G#6.wav
448,192,7125,1,0,0:0:0:30:E#7.wav
320,192,7440,1,0,0:0:0:30:D#7.wav
192,192,7756,1,0,0:0:0:30:C#7.wav
64,192,8072,128,2,8703:2:0:0:0:
448,192,8703,1,4,0:0:0:0:
192,192,8703,1,0,0:0:0:0:
320,192,9019,1,4,0:0:0:0:
64,192,9177,1,8,0:0:0:0:
192,192,9335,1,0,0:0:0:0:
320,192,9651,1,4,0:0:0:0:
448,192,9967,1,8,0:0:0:0:
64,192,10282,1,4,0:0:0:0:
192,192,10598,1,4,0:0:0:0:
448,192,10914,1,4,0:0:0:0:
64,192,11072,1,8,0:0:0:0:
320,192,11230,1,0,0:0:0:0:
448,192,11546,1,4,0:0:0:0:
192,192,11703,1,8,0:0:0:0:
320,192,12019,1,4,0:0:0:0:
64,192,12177,1,8,0:0:0:0:
448,192,12493,1,4,0:0:0:0:
320,192,12809,1,4,0:0:0:0:
192,192,12967,1,8,0:0:0:0:
64,192,13282,1,0,0:0:0:0:
448,192,13440,1,4,0:0:0:0:
192,192,13756,1,8,0:0:0:0:
320,192,14072,1,4,0:0:0:0:
64,192,14388,1,4,0:0:0:0:
448,192,14703,1,8,0:0:0:0:
192,192,15177,1,4,0:0:0:0:
320,192,15335,1,4,0:0:0:0:
448,192,15493,1,8,0:0:0:0:
64,192,15809,1,4,0:0:0:0:
320,192,15967,1,8,0:0:0:0:
192,192,16125,1,4,0:0:0:0:
64,192,16282,128,4,17230:0:0:0:0:
448,192,17230,128,0,18177:0:0:0:0:
192,192,18019,1,4,0:0:0:0:
64,192,18177,128,0,20072:0:0:0:0:
320,192,18177,1,4,0:0:0:0:
320,192,18651,1,4,0:0:0:0:
448,192,19125,1,8,0:0:0:0:
320,192,19440,1,8,0:0:0:0:
192,192,19756,1,4,0:0:0:0:
448,192,20072,128,4,20546:0:0:0:0:
64,192,21019,1,8,0:0:0:0:
320,192,21809,1,4,0:0:0:0:
192,192,21967,1,4,0:0:0:0:
448,192,22914,1,8,0:0:0:0:
192,192,23861,128,4,24335:0:0:0:0:
64,192,24809,1,8,0:0:0:0:
320,192,25598,1,4,0:0:0:0:
192,192,25756,1,4,0:0:0:0:
448,192,26703,1,8,0:0:0:0:
64,192,27019,1,4,0:0:0:0:
320,192,27177,1,8,0:0:0:0:
448,192,27651,128,4,28125:0:0:0:0:
64,192,28598,1,8,0:0:0:0:
320,192,29388,1,4,0:0:0:0:
192,192,29546,1,4,0:0:0:0:
448,192,30493,1,8,0:0:0:0:
320,192,30809,1,8,0:0:0:0:
192,192,31125,1,4,0:0:0:0:
64,192,31440,128,4,31914:0:0:0:0:
448,192,32388,128,8,32861:0:0:0:0:
192,192,33177,1,4,0:0:0:0:
320,192,33335,128,4,33651:0:0:0:0:
64,192,33809,128,4,34125:0:0:0:0:
448,192,34282,128,8,34756:0:0:0:0:
64,192,34914,1,4,0:0:0:0:
192,192,35230,1,4,0:0:0:0:
320,192,35703,1,4,0:0:0:0:
448,192,36177,1,4,0:0:0:0:
64,192,36651,1,4,0:0:0:0:
320,192,37125,1,4,0:0:0:0:
192,192,37598,1,4,0:0:0:0:
448,192,38072,1,4,0:0:0:0:
64,192,38388,1,4,0:0:0:0:
320,192,38546,1,8,0:0:0:0:
192,192,38703,1,4,0:0:0:0:
448,192,39019,1,4,0:0:0:0:
64,192,39493,1,4,0:0:0:0:
192,192,39967,1,4,0:0:0:0:
320,192,40440,1,4,0:0:0:0:
448,192,40914,1,4,0:0:0:0:
64,192,41388,1,4,0:0:0:0:
192,192,41861,1,4,0:0:0:0:
320,192,42177,1,4,0:0:0:0:
64,192,42335,1,8,0:0:0:0:
448,192,42493,1,4,0:0:0:0:
192,192,42809,1,4,0:0:0:0:
64,192,43282,1,4,0:0:0:0:
448,192,43756,1,4,0:0:0:0:
320,192,44230,1,4,0:0:0:0:
64,192,44703,1,4,0:0:0:0:
192,192,45177,1,4,0:0:0:0:
320,192,45651,1,4,0:0:0:0:
448,192,45967,1,4,0:0:0:0:
64,192,46125,1,8,0:0:0:0:
192,192,46282,1,4,0:0:0:0:
320,192,46598,1,4,0:0:0:0:
64,192,47072,1,4,0:0:0:0:
448,192,47546,1,4,0:0:0:0:
192,192,48019,1,4,0:0:0:0:
64,192,48493,1,0,0:0:0:30:G#6.wav
448,192,48493,1,4,0:0:0:0:
320,192,48967,1,4,0:0:0:0:
192,192,48967,1,0,0:0:0:30:C#7.wav
448,192,49440,1,4,0:0:0:0:
64,192,49440,1,0,0:0:0:30:C7.wav
448,192,49914,1,8,0:0:0:0:
64,192,49914,1,0,0:0:0:30:D#7.wav
320,192,50072,1,4,0:0:0:0:
192,192,50230,1,4,0:0:0:0:
64,192,50388,1,4,0:0:0:0:
448,192,50388,1,0,0:0:0:0:
320,192,50703,1,4,0:0:0:0:
448,192,50861,1,8,0:0:0:0:
64,192,51019,1,0,0:0:0:0:
192,192,51335,1,4,0:0:0:0:
448,192,51651,1,8,0:0:0:0:
64,192,51967,1,4,0:0:0:0:
320,192,52282,1,4,0:0:0:0:
192,192,52598,1,4,0:0:0:0:
64,192,52756,1,8,0:0:0:0:
448,192,52914,1,0,0:0:0:0:
192,192,53230,1,4,0:0:0:0:
448,192,53388,1,8,0:0:0:0:
64,192,53703,1,4,0:0:0:0:
320,192,53861,1,8,0:0:0:0:
192,192,54177,1,4,0:0:0:0:
448,192,54493,1,4,0:0:0:0:
64,192,54651,1,8,0:0:0:0:
320,192,54967,1,0,0:0:0:0:
448,192,55125,1,4,0:0:0:0:
64,192,55440,1,8,0:0:0:0:
192,192,55756,1,4,0:0:0:0:
448,192,56072,1,4,0:0:0:0:
320,192,56388,1,8,0:0:0:0:
64,192,56861,1,4,0:0:0:0:
192,192,57019,1,4,0:0:0:0:
320,192,57177,1,8,0:0:0:0:
64,192,57493,1,4,0:0:0:0:
448,192,57651,1,8,0:0:0:0:
320,192,57809,1,4,0:0:0:0:
192,192,57967,1,4,0:0:0:0:
64,192,58282,1,4,0:0:0:0:
320,192,58440,1,8,0:0:0:0:
192,192,58598,1,0,0:0:0:0:
448,192,58914,1,4,0:0:0:0:
64,192,59230,1,8,0:0:0:0:
320,192,59546,1,4,0:0:0:0:
192,192,59861,1,4,0:0:0:0:
320,192,60177,1,4,0:0:0:0:
64,192,60335,1,8,0:0:0:0:
448,192,60493,1,0,0:0:0:0:
192,192,60809,1,4,0:0:0:0:
320,192,60967,1,8,0:0:0:0:
64,192,61282,1,4,0:0:0:0:
448,192,61440,1,8,0:0:0:0:
64,192,61756,1,4,0:0:0:0:
448,192,62072,1,4,0:0:0:0:
320,192,62230,1,8,0:0:0:0:
192,192,62546,1,0,0:0:0:0:
448,192,62703,1,4,0:0:0:0:
64,192,63019,1,8,0:0:0:0:
320,192,63335,1,4,0:0:0:0:
192,192,63651,1,4,0:0:0:0:
448,192,63967,1,8,0:0:0:0:
64,192,64440,1,4,0:0:0:0:
192,192,64598,1,4,0:0:0:0:
320,192,64756,1,8,0:0:0:0:
64,192,65072,1,4,0:0:0:0:
448,192,65230,1,8,0:0:0:0:
320,192,65388,1,4,0:0:0:0:
192,192,65546,1,4,0:0:0:0:
64,192,66019,1,4,0:0:0:0:
320,192,66493,1,4,0:0:0:0:
448,192,66967,1,4,0:0:0:0:
192,192,67440,1,4,0:0:0:0:
320,192,67914,1,4,0:0:0:0:
64,192,68388,1,4,0:0:0:0:
192,192,68703,1,4,0:0:0:0:
448,192,68861,1,8,0:0:0:0:
320,192,69019,1,4,0:0:0:0:
64,192,69335,1,4,0:0:0:0:
192,192,69809,1,4,0:0:0:0:
448,192,70282,1,4,0:0:0:0:
320,192,70756,1,4,0:0:0:0:
64,192,71230,1,4,0:0:0:0:
192,192,71703,1,4,0:0:0:0:
448,192,72177,1,4,0:0:0:0:
320,192,72493,1,4,0:0:0:0:
64,192,72651,1,8,0:0:0:0:
192,192,72809,1,4,0:0:0:0:
448,192,73125,1,4,0:0:0:0:
64,192,73598,1,4,0:0:0:0:
320,192,74072,1,4,0:0:0:0:
192,192,74546,1,4,0:0:0:0:
448,192,75019,1,4,0:0:0:0:
320,192,75493,1,4,0:0:0:0:
192,192,75967,1,4,0:0:0:0:
64,192,76282,1,4,0:0:0:0:
448,192,76440,1,8,0:0:0:0:
320,192,76598,1,4,0:0:0:0:
192,192,76914,1,4,0:0:0:0:
64,192,77388,1,4,0:0:0:0:
448,192,77861,1,4,0:0:0:0:
320,192,78335,1,4,0:0:0:0:
64,192,78809,1,4,0:0:0:0:
192,192,79125,1,4,0:0:0:0:
320,192,79440,1,4,0:0:0:0:
64,192,79756,1,4,0:0:0:0:
448,192,80072,1,4,0:0:0:0:
320,192,80230,1,4,0:0:0:0:
192,192,80388,1,4,0:0:0:0:
64,192,80546,1,0,0:0:0:0:
320,192,80703,1,0,0:0:0:20:G#6.wav
192,192,81019,1,0,0:0:0:20:E6.wav
448,192,81177,1,0,0:0:0:20:A6.wav
64,192,81335,1,0,0:0:0:20:G#6.wav
64,192,81651,1,0,0:0:0:20:G#6.wav
448,192,81967,1,0,0:0:0:20:A6.wav
320,192,82282,1,0,0:0:0:20:G#6.wav
192,192,82598,1,0,0:0:0:20:G#6.wav
448,192,82914,1,0,0:0:0:20:C#7.wav
320,192,83230,1,0,0:0:0:20:B6.wav
192,192,83546,1,0,0:0:0:20:A6.wav
64,192,83861,128,2,84493:2:0:0:0:
448,192,84493,1,4,0:0:0:0:
192,192,84493,1,0,0:0:0:0:
320,192,84809,1,4,0:0:0:0:
64,192,84967,1,8,0:0:0:0:
192,192,85125,1,0,0:0:0:0:
448,192,85440,1,4,0:0:0:0:
320,192,85756,1,8,0:0:0:0:
64,192,86072,1,4,0:0:0:0:
192,192,86388,1,4,0:0:0:0:
448,192,86703,1,4,0:0:0:0:
64,192,86861,1,8,0:0:0:0:
320,192,87019,1,0,0:0:0:0:
192,192,87335,1,4,0:0:0:0:
64,192,87493,1,8,0:0:0:0:
448,192,87809,1,4,0:0:0:0:
320,192,87967,1,8,0:0:0:0:
192,192,88282,1,4,0:0:0:0:
64,192,88598,1,4,0:0:0:0:
448,192,88756,1,8,0:0:0:0:
320,192,89072,1,0,0:0:0:0:
192,192,89230,1,4,0:0:0:0:
448,192,89546,1,8,0:0:0:0:
64,192,89861,1,4,0:0:0:0:
320,192,90177,1,4,0:0:0:0:
64,192,90493,1,8,0:0:0:0:
192,192,90967,1,4,0:0:0:0:
320,192,91125,1,4,0:0:0:0:
448,192,91282,1,8,0:0:0:0:
64,192,91598,1,4,0:0:0:0:
448,192,91756,1,8,0:0:0:0:
320,192,91914,1,4,0:0:0:0:
192,192,92072,1,4,0:0:0:0:
64,192,92388,1,4,0:0:0:0:
448,192,92546,1,8,0:0:0:0:
320,192,92703,1,0,0:0:0:0:
192,192,93019,1,4,0:0:0:0:
448,192,93335,1,8,0:0:0:0:
64,192,93651,1,4,0:0:0:0:
320,192,93967,1,4,0:0:0:0:
192,192,94282,1,4,0:0:0:0:
448,192,94440,1,8,0:0:0:0:
64,192,94598,1,0,0:0:0:0:
320,192,94914,1,4,0:0:0:0:
448,192,95072,1,8,0:0:0:0:
64,192,95388,1,4,0:0:0:0:
192,192,95546,1,8,0:0:0:0:
448,192,95861,1,4,0:0:0:0:
64,192,96177,1,4,0:0:0:0:
320,192,96335,1,8,0:0:0:0:
448,192,96651,1,0,0:0:0:0:
192,192,96809,1,4,0:0:0:0:
64,192,97125,1,8,0:0:0:0:
448,192,97440,1,4,0:0:0:0:
320,192,97756,1,4,0:0:0:0:
192,192,98230,1,4,0:0:0:0:
64,192,98546,1,4,0:0:0:0:
448,192,98703,1,8,0:0:0:0:
192,192,99019,1,4,0:0:0:0:
320,192,99177,1,8,0:0:0:0:
64,192,99335,1,4,0:0:0:0:
448,192,99651,128,0,102019:0:0:0:0:
64,192,99651,1,4,0:0:0:0:
