osu file format v9

[General]
AudioFilename: Ververg.ogg
AudioLeadIn: 0
PreviewTime: 80552
Countdown: 0
SampleSet: Normal
StackLeniency: 0.7
Mode: 1
LetterboxInBreaks: 0

[Editor]
DistanceSpacing: 1
BeatDivisor: 4
GridSize: 4

[Metadata]
Title:Ververg (feat. B)
Artist:Ani
Creator:Niva
Version:Taiko Oni
Source:Cytus
Tags:nivalis rayark onoken

[Difficulty]
HPDrainRate:5
CircleSize:5
OverallDifficulty:5
ApproachRate:5
SliderMultiplier:1.4
SliderTickRate:2

[Events]
//Background and Video events
0,0,"bg.jpg"
//Break Periods
//Storyboard Layer 0 (Background)
//Storyboard Layer 1 (Fail)
//Storyboard Layer 2 (Pass)
//Storyboard Layer 3 (Foreground)
//Storyboard Sound Samples
//Background Colour Transformations
3,100,163,162,255

[TimingPoints]
1024.31937172775,315.789473684211,3,1,0,70,1,0
80524,-100,3,1,0,50,0,0
84392,-100,3,1,0,70,0,1
99550,-100,3,1,0,70,0,0

[Colours]
Combo1 : 220,156,254
Combo2 : 255,125,162
SliderBorder : 255,189,219
SliderTrackOverride : 241,26,117

[HitObjects]
96,268,8129,1,0
96,268,8287,1,0
96,268,8445,1,0
96,268,8603,1,4
180,268,8919,1,0
180,268,9076,1,8
180,268,9155,1,0
180,268,9234,1,2
260,268,9392,1,0
260,268,9550,1,2
260,268,9866,1,8
260,268,10182,1,0
340,268,10498,1,0
340,268,10813,1,0
340,268,10971,1,8
340,268,11050,1,0
340,268,11129,1,2
260,268,11287,1,0
260,268,11445,1,0
260,268,11603,1,8
260,268,11919,1,0
260,268,12076,1,8
180,268,12234,1,0
96,188,12313,1,0
100,272,12392,1,0
100,272,12708,1,0
96,188,12866,1,8
96,104,13182,1,0
180,104,13340,2,0,B|332:104,2,140
96,104,14129,1,0
96,188,14287,1,0
252,188,14603,1,8
383,112,14919,1,0
416,268,15076,1,0
416,268,15155,1,0
416,268,15234,1,0
416,268,15392,1,8
172,272,15708,1,0
172,272,15787,1,0
172,272,15866,1,8
168,192,16024,1,0
168,112,16182,1,4
256,192,16340,12,0,17840
256,112,17919,5,0
256,248,18076,1,0
256,248,18392,1,8
256,112,18550,1,0
256,112,18866,1,0
340,112,19024,1,8
256,248,19340,1,8
172,108,19655,1,0
64,192,19971,5,0
64,348,20287,1,0
64,348,20445,1,0
64,348,20524,1,0
144,348,20603,1,2
220,348,20761,1,0
300,348,20919,1,8
456,348,21234,1,0
456,348,21392,1,0
456,348,21471,1,0
456,268,21550,1,2
452,184,21708,1,0
452,104,21866,1,0
452,184,22182,1,0
456,268,22340,1,0
456,268,22419,1,0
456,268,22498,1,2
456,348,22655,1,0
384,40,22813,1,8
304,40,22971,1,0
228,40,23129,1,2
148,36,23287,1,0
148,36,23366,1,0
148,36,23445,1,0
64,36,23603,1,0
64,120,23761,1,2
64,248,24076,1,0
144,248,24234,1,0
144,248,24313,1,0
144,248,24392,1,2
224,248,24550,1,0
304,248,24708,1,8
384,248,24866,1,0
468,248,25024,1,2
472,328,25182,1,0
472,328,25261,1,0
472,328,25340,1,0
388,328,25498,1,0
384,248,25655,1,0
380,92,25971,1,2
292,92,26129,1,0
292,92,26208,1,0
292,92,26287,1,2
212,96,26445,1,0
132,96,26603,1,8
56,96,26761,1,0
56,176,26919,1,0
56,176,26998,1,0
56,176,27076,1,8
52,256,27234,1,0
52,336,27392,1,0
128,336,27550,1,2
248,332,27866,1,0
248,332,28024,1,0
248,332,28103,1,0
248,332,28182,1,2
324,332,28340,1,0
396,332,28498,1,8
476,232,28813,1,0
476,152,28971,1,0
476,152,29050,1,0
476,152,29129,1,2
476,72,29287,1,0
476,152,29445,1,0
320,68,29761,1,0
244,68,29919,1,0
244,68,29998,1,0
244,68,30076,1,2
168,64,30234,1,0
96,64,30392,1,8
92,144,30550,1,0
96,224,30708,1,8
96,308,30866,1,0
140,308,30945,1,0
176,308,31024,1,0
256,312,31182,1,0
328,308,31340,1,2
468,196,31655,1,2
468,196,31813,1,0
468,196,31892,1,0
468,116,31971,1,0
468,32,32129,1,0
468,116,32287,1,2
328,308,32603,1,0
256,312,32761,1,0
256,312,32840,1,0
256,312,32919,1,0
176,308,33076,1,0
104,312,33234,1,8
76,196,33550,1,0
112,112,33708,1,8
76,196,34024,1,0
112,112,34182,1,8
393,365,34340,2,0,B|438:366|462:333|462:333|528:333,2,140
256,188,35129,5,6
404,292,35445,1,8
404,292,35603,1,0
256,324,35919,1,8
256,324,36076,1,0
108,292,36392,1,8
108,292,36550,1,0
104,180,36708,1,0
104,180,36787,1,0
104,180,36866,1,8
104,72,37024,1,0
220,44,37340,1,8
300,44,37498,1,0
380,48,37655,1,0
380,48,37734,1,0
380,48,37813,1,8
468,44,37971,1,0
480,176,38287,1,0
488,260,38445,1,8
488,344,38603,1,0
340,332,38919,1,0
160,324,39234,1,8
68,328,39392,1,0
56,216,39708,1,8
144,216,39866,1,0
128,104,40182,1,8
48,108,40340,1,0
40,40,40498,1,0
40,40,40576,1,0
40,40,40655,1,8
128,28,40813,1,0
256,28,41129,1,8
324,32,41287,1,0
392,32,41445,1,0
392,32,41524,1,0
392,32,41603,1,8
476,32,41761,1,0
484,188,42076,1,0
484,188,42234,1,8
484,188,42392,1,0
480,340,42708,1,0
312,316,43024,1,8
216,316,43182,1,0
312,316,43498,1,8
216,316,43656,1,0
72,332,43971,1,8
68,248,44129,1,0
68,172,44287,1,0
68,172,44366,1,0
68,172,44445,1,8
68,80,44603,1,0
208,80,44919,1,8
292,80,45076,1,0
376,80,45234,1,0
376,80,45313,1,0
376,80,45392,1,8
464,80,45550,1,0
464,224,45866,1,0
464,224,46024,1,8
464,224,46182,1,0
345,330,46498,1,0
345,330,46813,1,8
345,330,46971,1,0
232,316,47287,1,8
232,316,47445,1,0
72,332,47761,1,8
68,248,47919,1,0
68,172,48077,1,0
68,172,48156,1,0
68,172,48235,1,8
68,80,48393,1,4
204,84,48708,1,0
204,84,48866,1,6
339,84,49182,1,0
339,84,49340,1,4
339,84,49498,1,8
480,84,49813,1,12
480,84,49971,1,0
480,84,50129,1,0
480,84,50287,1,4
484,341,50603,5,0
395,340,50761,1,8
395,340,50840,1,0
395,340,50919,1,2
304,336,51076,1,0
219,336,51234,1,2
135,338,51550,1,8
54,336,51866,1,0
54,246,52182,1,0
50,161,52498,1,0
55,85,52655,1,8
55,85,52734,1,0
55,85,52813,1,2
140,88,52971,1,0
212,86,53129,1,0
284,88,53287,1,8
362,85,53603,1,0
443,87,53761,1,8
443,168,53919,1,0
442,247,54076,1,0
439,329,54234,1,0
439,329,54313,1,0
439,329,54392,1,0
359,325,54550,1,8
193,324,54866,1,0
113,326,55024,2,0,B|-32:325,2,140
193,324,55813,1,0
276,323,55971,1,0
439,328,56287,1,8
438,182,56603,1,0
440,99,56761,1,0
440,99,56840,1,0
440,99,56919,1,0
358,100,57076,1,8
199,102,57392,1,0
199,102,57550,1,8
199,102,57708,1,0
199,102,57866,1,4
60,101,58182,1,0
60,176,58340,1,8
60,176,58419,1,0
60,176,58498,1,2
55,256,58655,1,0
53,338,58813,1,2
180,338,59129,1,8
304,336,59445,1,0
421,337,59761,1,0
424,207,60076,1,0
420,124,60234,1,8
420,124,60313,1,0
420,124,60392,1,2
416,42,60550,1,0
336,42,60708,1,0
252,42,60866,1,8
89,37,61182,1,0
89,37,61340,1,8
90,122,61498,1,0
90,206,61655,1,0
96,329,61971,1,0
180,329,62129,1,8
408,330,62445,1,8
322,329,62603,1,0
256,191,62919,1,8
322,329,63234,1,0
180,329,63550,1,0
44,71,63866,1,8
456,71,64182,1,0
378,71,64340,1,0
378,71,64419,1,0
378,71,64498,1,0
292,69,64655,1,8
44,71,64971,1,0
124,75,65129,1,8
125,152,65287,1,0
42,148,65445,1,4
44,342,65761,1,8
44,342,65919,1,0
163,340,66234,1,8
163,340,66392,1,0
295,338,66708,1,8
295,338,66866,1,0
295,338,67024,1,0
295,338,67103,1,0
295,338,67182,1,8
295,338,67340,1,0
440,338,67655,1,8
440,338,67813,1,0
440,338,67971,1,0
440,338,68050,1,0
440,338,68129,1,8
440,338,68287,1,0
440,338,68603,1,0
440,338,68761,1,8
440,338,68919,1,0
436,213,69234,1,0
429,99,69550,1,8
429,99,69708,1,0
285,98,70024,1,8
285,98,70182,1,0
176,107,70498,1,8
176,107,70655,1,0
176,107,70813,1,0
176,107,70892,1,0
176,107,70971,1,8
176,107,71129,1,0
66,107,71445,1,8
66,107,71603,1,0
66,107,71761,1,0
66,107,71840,1,0
66,107,71919,1,8
66,107,72076,1,0
66,107,72392,1,0
66,107,72550,1,8
66,107,72708,1,0
62,214,73024,1,0
63,309,73340,1,8
63,309,73498,1,0
160,307,73813,1,8
160,307,73971,1,0
276,308,74287,1,8
276,308,74445,1,0
276,308,74603,1,0
276,308,74682,1,0
276,308,74761,1,8
276,308,74919,1,0
399,307,75234,1,8
399,307,75392,1,0
399,307,75550,1,0
399,307,75629,1,0
399,307,75708,1,8
399,307,75866,1,0
399,307,76182,1,0
399,307,76340,1,8
399,307,76498,1,0
397,199,76813,1,0
397,91,77129,1,8
397,91,77287,1,0
273,91,77603,1,8
273,91,77761,1,0
126,84,78076,1,8
126,84,78234,1,0
126,84,78392,1,0
126,84,78471,1,0
126,84,78550,1,8
126,84,78708,5,0
70,187,79024,1,0
170,243,79340,1,0
230,146,79655,1,0
149,163,79971,5,0
204,322,80129,1,8
364,272,80287,1,0
307,117,80445,1,0
440,40,80603,5,8
440,40,80919,1,0
440,40,81076,1,8
440,40,81234,1,0
440,40,81550,1,0
440,40,81866,1,8
440,40,82182,1,0
440,40,82498,1,0
440,40,82813,1,8
440,40,83129,1,8
440,40,83445,1,0
256,192,83603,12,0,84313
446,335,84392,5,4
316,334,84708,1,0
316,334,84866,1,8
316,334,84945,1,0
316,334,85024,1,2
316,334,85182,1,0
316,334,85340,1,2
204,333,85655,1,8
103,336,85971,1,0
101,245,86287,1,0
102,153,86603,1,0
105,71,86761,1,8
105,71,86840,1,0
105,71,86918,1,2
187,76,87076,1,0
261,76,87234,1,0
336,85,87392,1,8
420,82,87708,1,0
498,79,87866,1,8
495,161,88024,1,0
500,243,88182,1,0
495,328,88340,1,0
495,328,88419,1,0
495,328,88498,1,0
405,331,88655,1,8
420,82,88971,1,0
352,147,89129,2,0,B|317:120|311:56|350:16,2,140,0|8|0
420,82,89919,1,0
420,82,90076,1,0
256,348,90392,1,8
87,82,90708,1,0
189,114,90866,1,0
189,114,90945,1,0
189,114,91024,1,0
256,192,91182,1,8
256,192,91498,1,0
436,279,91656,1,8
256,348,91813,1,0
77,279,91971,1,4
435,279,92287,1,0
486,191,92445,1,8
486,191,92524,1,0
486,191,92603,1,2
431,111,92761,1,0
382,192,92919,1,2
256,261,93234,1,8
130,192,93550,1,0
256,123,93866,1,0
340,281,94182,1,0
255,340,94340,1,8
255,350,94419,1,0
255,359,94498,1,2
172,281,94655,1,0
130,192,94813,1,0
39,192,94971,1,8
256,123,95287,1,0
256,97,95445,1,8
382,192,95603,1,0
473,192,95761,1,0
150,236,96076,1,0
59,261,96234,1,8
362,236,96550,1,8
453,262,96708,1,0
256,124,97024,1,8
200,363,97340,1,0
311,362,97655,1,6
467,48,97971,1,8
467,48,98129,1,0
45,48,98445,1,0
45,48,98603,1,8
255,315,98919,1,0
255,243,99076,1,8
255,230,99155,1,0
255,218,99234,1,2
256,130,99392,1,0
256,130,99550,1,4
256,192,99708,12,0,102077
